  0
SECTION
  2
HEADER
  9
$ACADVER
  1
AC1021
  9
$ACADMAINTVER
 70
    25
  9
$DWGCODEPAGE
  3
ANSI_932
  9
$LASTSAVEDBY
  1
nakashinde
  9
$INSBASE
 10
0.0
 20
0.0
 30
0.0
  9
$EXTMIN
 10
156.6385731719912
 20
-1935.452139746223
 30
0.0
  9
$EXTMAX
 10
561.6385731719909
 20
-1650.45239975856
 30
0.0
  9
$LIMMIN
 10
138.17031
 20
-2246.165063
  9
$LIMMAX
 10
543.198205
 20
-1966.332252
  9
$ORTHOMODE
 70
     1
  9
$REGENMODE
 70
     1
  9
$FILLMODE
 70
     1
  9
$QTEXTMODE
 70
     0
  9
$MIRRTEXT
 70
     0
  9
$LTSCALE
 40
6.750432
  9
$ATTMODE
 70
     1
  9
$TEXTSIZE
 40
3.2
  9
$TRACEWID
 40
0.05
  9
$TEXTSTYLE
  7
高3.2
  9
$CLAYER
  8
0
  9
$CELTYPE
  6
ByLayer
  9
$CECOLOR
 62
   256
  9
$CELTSCALE
 40
1.0
  9
$DISPSILH
 70
     0
  9
$DIMSCALE
 40
1.0
  9
$DIMASZ
 40
2.5
  9
$DIMEXO
 40
0.25
  9
$DIMDLI
 40
0.2
  9
$DIMRND
 40
0.0
  9
$DIMDLE
 40
0.0
  9
$DIMEXE
 40
1.25
  9
$DIMTP
 40
0.0
  9
$DIMTM
 40
0.0
  9
$DIMTXT
 40
3.0
  9
$DIMCEN
 40
0.0
  9
$DIMTSZ
 40
0.0
  9
$DIMTOL
 70
     0
  9
$DIMLIM
 70
     0
  9
$DIMTIH
 70
     0
  9
$DIMTOH
 70
     0
  9
$DIMSE1
 70
     0
  9
$DIMSE2
 70
     0
  9
$DIMTAD
 70
     3
  9
$DIMZIN
 70
     8
  9
$DIMBLK
  1
Open30
  9
$DIMASO
 70
     1
  9
$DIMSHO
 70
     1
  9
$DIMPOST
  1

  9
$DIMAPOST
  1

  9
$DIMALT
 70
     0
  9
$DIMALTD
 70
     3
  9
$DIMALTF
 40
0.03937007874016
  9
$DIMLFAC
 40
1.0
  9
$DIMTOFL
 70
     1
  9
$DIMTVP
 40
0.0
  9
$DIMTIX
 70
     0
  9
$DIMSOXD
 70
     0
  9
$DIMSAH
 70
     0
  9
$DIMBLK1
  1

  9
$DIMBLK2
  1

  9
$DIMSTYLE
  2
FREE
  9
$DIMCLRD
 70
     0
  9
$DIMCLRE
 70
     0
  9
$DIMCLRT
 70
     4
  9
$DIMTFAC
 40
1.0
  9
$DIMGAP
 40
0.625
  9
$DIMJUST
 70
     0
  9
$DIMSD1
 70
     0
  9
$DIMSD2
 70
     0
  9
$DIMTOLJ
 70
     0
  9
$DIMTZIN
 70
     8
  9
$DIMALTZ
 70
     0
  9
$DIMALTTZ
 70
     0
  9
$DIMUPT
 70
     1
  9
$DIMDEC
 70
     2
  9
$DIMTDEC
 70
     2
  9
$DIMALTU
 70
     2
  9
$DIMALTTD
 70
     3
  9
$DIMTXSTY
  7
STANDARD
  9
$DIMAUNIT
 70
     0
  9
$DIMADEC
 70
     1
  9
$DIMALTRND
 40
0.0
  9
$DIMAZIN
 70
     2
  9
$DIMDSEP
 70
    46
  9
$DIMATFIT
 70
     0
  9
$DIMFRAC
 70
     0
  9
$DIMLDRBLK
  1
Open30
  9
$DIMLUNIT
 70
     2
  9
$DIMLWD
 70
    -2
  9
$DIMLWE
 70
    -2
  9
$DIMTMOVE
 70
     0
  9
$DIMFXL
 40
1.0
  9
$DIMFXLON
 70
     0
  9
$DIMJOGANG
 40
0.7853981633974483
  9
$DIMTFILL
 70
     0
  9
$DIMTFILLCLR
 70
     0
  9
$DIMARCSYM
 70
     0
  9
$DIMLTYPE
  6

  9
$DIMLTEX1
  6

  9
$DIMLTEX2
  6

  9
$LUNITS
 70
     2
  9
$LUPREC
 70
     4
  9
$SKETCHINC
 40
0.1
  9
$FILLETRAD
 40
0.0
  9
$AUNITS
 70
     0
  9
$AUPREC
 70
     0
  9
$MENU
  1
.
  9
$ELEVATION
 40
0.0
  9
$PELEVATION
 40
0.0
  9
$THICKNESS
 40
0.0
  9
$LIMCHECK
 70
     0
  9
$CHAMFERA
 40
0.0
  9
$CHAMFERB
 40
0.0
  9
$CHAMFERC
 40
0.0
  9
$CHAMFERD
 40
0.0
  9
$SKPOLY
 70
     0
  9
$TDCREATE
 40
2455540.634499051
  9
$TDUCREATE
 40
2455540.259499051
  9
$TDUPDATE
 40
2458960.583467952
  9
$TDUUPDATE
 40
2458960.208467952
  9
$TDINDWG
 40
0.0935122338
  9
$TDUSRTIMER
 40
0.0935057523
  9
$USRTIMER
 70
     1
  9
$ANGBASE
 50
0.0
  9
$ANGDIR
 70
     0
  9
$PDMODE
 70
     0
  9
$PDSIZE
 40
0.0
  9
$PLINEWID
 40
0.0
  9
$SPLFRAME
 70
     0
  9
$SPLINETYPE
 70
     6
  9
$SPLINESEGS
 70
     8
  9
$HANDSEED
  5
1FFA
  9
$SURFTAB1
 70
     6
  9
$SURFTAB2
 70
     6
  9
$SURFTYPE
 70
     6
  9
$SURFU
 70
     6
  9
$SURFV
 70
     6
  9
$UCSBASE
  2

  9
$UCSNAME
  2

  9
$UCSORG
 10
0.0
 20
0.0
 30
0.0
  9
$UCSXDIR
 10
1.0
 20
0.0
 30
0.0
  9
$UCSYDIR
 10
0.0
 20
1.0
 30
0.0
  9
$UCSORTHOREF
  2

  9
$UCSORTHOVIEW
 70
     0
  9
$UCSORGTOP
 10
0.0
 20
0.0
 30
0.0
  9
$UCSORGBOTTOM
 10
0.0
 20
0.0
 30
0.0
  9
$UCSORGLEFT
 10
0.0
 20
0.0
 30
0.0
  9
$UCSORGRIGHT
 10
0.0
 20
0.0
 30
0.0
  9
$UCSORGFRONT
 10
0.0
 20
0.0
 30
0.0
  9
$UCSORGBACK
 10
0.0
 20
0.0
 30
0.0
  9
$PUCSBASE
  2

  9
$PUCSNAME
  2

  9
$PUCSORG
 10
0.0
 20
0.0
 30
0.0
  9
$PUCSXDIR
 10
1.0
 20
0.0
 30
0.0
  9
$PUCSYDIR
 10
0.0
 20
1.0
 30
0.0
  9
$PUCSORTHOREF
  2

  9
$PUCSORTHOVIEW
 70
     0
  9
$PUCSORGTOP
 10
0.0
 20
0.0
 30
0.0
  9
$PUCSORGBOTTOM
 10
0.0
 20
0.0
 30
0.0
  9
$PUCSORGLEFT
 10
0.0
 20
0.0
 30
0.0
  9
$PUCSORGRIGHT
 10
0.0
 20
0.0
 30
0.0
  9
$PUCSORGFRONT
 10
0.0
 20
0.0
 30
0.0
  9
$PUCSORGBACK
 10
0.0
 20
0.0
 30
0.0
  9
$USERI1
 70
     0
  9
$USERI2
 70
     0
  9
$USERI3
 70
     0
  9
$USERI4
 70
     0
  9
$USERI5
 70
     0
  9
$USERR1
 40
0.0
  9
$USERR2
 40
0.0
  9
$USERR3
 40
0.0
  9
$USERR4
 40
0.0
  9
$USERR5
 40
0.0
  9
$WORLDVIEW
 70
     1
  9
$SHADEDGE
 70
     3
  9
$SHADEDIF
 70
    70
  9
$TILEMODE
 70
     1
  9
$MAXACTVP
 70
    64
  9
$PINSBASE
 10
0.0
 20
0.0
 30
0.0
  9
$PLIMCHECK
 70
     0
  9
$PEXTMIN
 10
1.000000000000000E+20
 20
1.000000000000000E+20
 30
1.000000000000000E+20
  9
$PEXTMAX
 10
-1.000000000000000E+20
 20
-1.000000000000000E+20
 30
-1.000000000000000E+20
  9
$PLIMMIN
 10
0.0
 20
0.0
  9
$PLIMMAX
 10
12.0
 20
9.0
  9
$UNITMODE
 70
     0
  9
$VISRETAIN
 70
     1
  9
$PLINEGEN
 70
     0
  9
$PSLTSCALE
 70
     1
  9
$TREEDEPTH
 70
  3020
  9
$CMLSTYLE
  2
Standard
  9
$CMLJUST
 70
     0
  9
$CMLSCALE
 40
1.0
  9
$PROXYGRAPHICS
 70
     1
  9
$MEASUREMENT
 70
     0
  9
$CELWEIGHT
370
    -1
  9
$ENDCAPS
280
     0
  9
$JOINSTYLE
280
     0
  9
$LWDISPLAY
290
     0
  9
$INSUNITS
 70
     0
  9
$HYPERLINKBASE
  1

  9
$STYLESHEET
  1
N-PLOT.CTB
  9
$XEDIT
290
     1
  9
$CEPSNTYPE
380
     0
  9
$PSTYLEMODE
290
     1
  9
$FINGERPRINTGUID
  2
{F37D810B-178D-472B-AAF6-A191780B5ED6}
  9
$VERSIONGUID
  2
{D29979F5-8898-41A5-94AC-16223AD4B68C}
  9
$EXTNAMES
290
     1
  9
$PSVPSCALE
 40
0.0
  9
$OLESTARTUP
290
     0
  9
$SORTENTS
280
   127
  9
$INDEXCTL
280
     0
  9
$HIDETEXT
280
     1
  9
$XCLIPFRAME
290
     0
  9
$HALOGAP
280
     0
  9
$OBSCOLOR
 70
   257
  9
$OBSLTYPE
280
     0
  9
$INTERSECTIONDISPLAY
280
     0
  9
$INTERSECTIONCOLOR
 70
   257
  9
$DIMASSOC
280
     1
  9
$PROJECTNAME
  1

  9
$CAMERADISPLAY
290
     0
  9
$LENSLENGTH
 40
50.0
  9
$CAMERAHEIGHT
 40
0.0
  9
$STEPSPERSEC
 40
2.0
  9
$STEPSIZE
 40
6.0
  9
$3DDWFPREC
 40
2.0
  9
$PSOLWIDTH
 40
0.25
  9
$PSOLHEIGHT
 40
4.0
  9
$LOFTANG1
 40
1.570796326794897
  9
$LOFTANG2
 40
1.570796326794897
  9
$LOFTMAG1
 40
0.0
  9
$LOFTMAG2
 40
0.0
  9
$LOFTPARAM
 70
     7
  9
$LOFTNORMALS
280
     1
  9
$LATITUDE
 40
37.795
  9
$LONGITUDE
 40
-122.394
  9
$NORTHDIRECTION
 40
0.0
  9
$TIMEZONE
 70
 -8000
  9
$LIGHTGLYPHDISPLAY
280
     1
  9
$TILEMODELIGHTSYNCH
280
     1
  9
$CMATERIAL
347
11
  9
$SOLIDHIST
280
     1
  9
$SHOWHIST
280
     1
  9
$DWFFRAME
280
     2
  9
$DGNFRAME
280
     0
  9
$REALWORLDSCALE
290
     1
  9
$INTERFERECOLOR
 62
   256
  9
$INTERFEREOBJVS
345
1E
  9
$INTERFEREVPVS
346
1762
  9
$CSHADOW
280
     0
  9
$SHADOWPLANELOCATION
 40
0.0
  0
ENDSEC
  0
SECTION
  2
CLASSES
  0
CLASS
  1
ACDBDICTIONARYWDFLT
  2
AcDbDictionaryWithDefault
  3
ObjectDBX Classes
 90
        0
 91
        4
280
     0
281
     0
  0
CLASS
  1
MATERIAL
  2
AcDbMaterial
  3
ObjectDBX Classes
 90
     1153
 91
        4
280
     0
281
     0
  0
CLASS
  1
VISUALSTYLE
  2
AcDbVisualStyle
  3
ObjectDBX Classes
 90
     4095
 91
        4
280
     0
281
     0
  0
CLASS
  1
TABLESTYLE
  2
AcDbTableStyle
  3
ObjectDBX Classes
 90
     4095
 91
        4
280
     0
281
     0
  0
CLASS
  1
SORTENTSTABLE
  2
AcDbSortentsTable
  3
ObjectDBX Classes
 90
        0
 91
        4
280
     0
281
     0
  0
CLASS
  1
DICTIONARYVAR
  2
AcDbDictionaryVar
  3
ObjectDBX Classes
 90
        0
 91
        4
280
     0
281
     0
  0
CLASS
  1
SCALE
  2
AcDbScale
  3
ObjectDBX Classes
 90
     1153
 91
        4
280
     0
281
     0
  0
CLASS
  1
MLEADERSTYLE
  2
AcDbMLeaderStyle
  3
ACDB_MLEADERSTYLE_CLASS
 90
     4095
 91
        4
280
     0
281
     0
  0
CLASS
  1
CELLSTYLEMAP
  2
AcDbCellStyleMap
  3
ObjectDBX Classes
 90
     1152
 91
        4
280
     0
281
     0
  0
CLASS
  1
ACDBPLACEHOLDER
  2
AcDbPlaceHolder
  3
ObjectDBX Classes
 90
        0
 91
        1
280
     0
281
     0
  0
CLASS
  1
LAYOUT
  2
AcDbLayout
  3
ObjectDBX Classes
 90
        0
 91
        1
280
     0
281
     0
  0
ENDSEC
  0
SECTION
  2
TABLES
  0
TABLE
  2
VPORT
  5
8
330
0
100
AcDbSymbolTable
 70
     1
  0
VPORT
  5
56
330
8
100
AcDbSymbolTableRecord
100
AcDbViewportTableRecord
  2
*Active
 70
     0
 10
0.0
 20
0.0
 11
1.0
 21
1.0
 12
359.1385731719911
 22
-1792.952269752392
 13
0.0
 23
0.0
 14
1.0
 24
1.0
 15
0.0
 25
0.0
 16
0.0
 26
0.0
 36
1.0
 17
0.0
 27
0.0
 37
0.0
 40
288.2476002724229
 41
2.042253521126761
 42
50.0
 43
0.0
 44
0.0
 50
0.0
 51
0.0
 71
     0
 72
   100
 73
     1
 74
     1
 75
     0
 76
     0
 77
     0
 78
     0
281
     0
 65
     1
110
0.0
120
0.0
130
0.0
111
1.0
121
0.0
131
0.0
112
0.0
122
1.0
132
0.0
 79
     0
146
0.0
348
1A
 60
     3
 61
     5
292
     1
282
     1
141
0.0
142
0.0
 63
   250
  0
ENDTAB
  0
TABLE
  2
LTYPE
  5
5
330
0
100
AcDbSymbolTable
 70
     1
  0
LTYPE
  5
28
330
5
100
AcDbSymbolTableRecord
100
AcDbLinetypeTableRecord
  2
ByBlock
 70
     0
  3

 72
    65
 73
     0
 40
0.0
  0
LTYPE
  5
29
330
5
100
AcDbSymbolTableRecord
100
AcDbLinetypeTableRecord
  2
ByLayer
 70
     0
  3

 72
    65
 73
     0
 40
0.0
  0
LTYPE
  5
2A
330
5
100
AcDbSymbolTableRecord
100
AcDbLinetypeTableRecord
  2
CONTINUOUS
 70
     0
  3
Solid-line
 72
    65
 73
     0
 40
0.0
  0
ENDTAB
  0
TABLE
  2
LAYER
  5
2
102
{ACAD_XDICTIONARY
360
4E1
102
}
330
0
100
AcDbSymbolTable
 70
     2
  0
LAYER
  5
25
102
{ACAD_XDICTIONARY
360
17DC
102
}
330
2
100
AcDbSymbolTableRecord
100
AcDbLayerTableRecord
  2
0
 70
     0
 62
     7
  6
CONTINUOUS
370
    -3
390
F
347
13
  0
LAYER
  5
4D1
330
2
100
AcDbSymbolTableRecord
100
AcDbLayerTableRecord
  2
Defpoints
 70
     0
 62
     7
  6
CONTINUOUS
290
     0
370
    -3
390
F
347
13
  0
ENDTAB
  0
TABLE
  2
STYLE
  5
3
330
0
100
AcDbSymbolTable
 70
     6
  0
STYLE
  5
26
330
3
100
AcDbSymbolTableRecord
100
AcDbTextStyleTableRecord
  2
STANDARD
 70
     0
 40
0.0
 41
1.0
 50
0.0
 71
     0
 42
0.2
  3
TXT
  4
BIGFONT
  0
STYLE
  5
4D2
330
3
100
AcDbSymbolTableRecord
100
AcDbTextStyleTableRecord
  2
高3.2
 70
     0
 40
3.2
 41
1.0
 50
0.0
 71
     0
 42
3.2
  3
txt.shx
  4
bigfont.shx
  0
STYLE
  5
4D3
330
3
100
AcDbSymbolTableRecord
100
AcDbTextStyleTableRecord
  2
高6.3
 70
     0
 40
6.299999999999998
 41
1.0
 50
0.0
 71
     0
 42
6.299999999999998
  3
txt.shx
  4
bigfont.shx
  0
STYLE
  5
4D4
330
3
100
AcDbSymbolTableRecord
100
AcDbTextStyleTableRecord
  2
高2.5
 70
     0
 40
2.5
 41
1.0
 50
0.0
 71
     0
 42
0.2
  3
txt.shx
  4
bigfont.shx
  0
STYLE
  5
4D5
330
3
100
AcDbSymbolTableRecord
100
AcDbTextStyleTableRecord
  2
高4.5
 70
     0
 40
4.5
 41
1.0
 50
0.0
 71
     0
 42
6.299999999999998
  3
txt.shx
  4
bigfont.shx
  0
STYLE
  5
4D6
330
3
100
AcDbSymbolTableRecord
100
AcDbTextStyleTableRecord
  2
高2
 70
     0
 40
2.0
 41
1.0
 50
0.0
 71
     0
 42
6.299999999999998
  3
txt.shx
  4
bigfont.shx
  0
ENDTAB
  0
TABLE
  2
VIEW
  5
6
330
0
100
AcDbSymbolTable
 70
     0
  0
ENDTAB
  0
TABLE
  2
UCS
  5
7
330
0
100
AcDbSymbolTable
 70
     0
  0
ENDTAB
  0
TABLE
  2
APPID
  5
9
330
0
100
AcDbSymbolTable
 70
    10
  0
APPID
  5
27
330
9
100
AcDbSymbolTableRecord
100
AcDbRegAppTableRecord
  2
ACAD
 70
     0
  0
APPID
  5
4E0
330
9
100
AcDbSymbolTableRecord
100
AcDbRegAppTableRecord
  2
ACAD_DSTYLE_DIMJOGGED_JOGANGLE_SYMBOL
 70
     0
  0
APPID
  5
9AF
330
9
100
AcDbSymbolTableRecord
100
AcDbRegAppTableRecord
  2
ACAD_EXEMPT_FROM_CAD_STANDARDS
 70
     0
  0
APPID
  5
A31
330
9
100
AcDbSymbolTableRecord
100
AcDbRegAppTableRecord
  2
ACAD_DSTYLE_DIMARC_LENGTH_SYMBOL
 70
     0
  0
APPID
  5
A32
330
9
100
AcDbSymbolTableRecord
100
AcDbRegAppTableRecord
  2
ACAD_DSTYLE_DIMEXT_LENGTH
 70
     0
  0
APPID
  5
1824
330
9
100
AcDbSymbolTableRecord
100
AcDbRegAppTableRecord
  2
ACAD_MLEADERVER
 70
     0
  0
APPID
  5
1884
330
9
100
AcDbSymbolTableRecord
100
AcDbRegAppTableRecord
  2
ACAD_PSEXT
 70
     0
  0
APPID
  5
1B06
330
9
100
AcDbSymbolTableRecord
100
AcDbRegAppTableRecord
  2
ACAD_DSTYLE_DIMJAG
 70
     0
  0
APPID
  5
1B07
330
9
100
AcDbSymbolTableRecord
100
AcDbRegAppTableRecord
  2
ACAD_DSTYLE_DIMBREAK
 70
     0
  0
APPID
  5
1B08
330
9
100
AcDbSymbolTableRecord
100
AcDbRegAppTableRecord
  2
ACAD_DSTYLE_DIMTALN
 70
     0
  0
ENDTAB
  0
TABLE
  2
DIMSTYLE
  5
A
330
0
100
AcDbSymbolTable
 70
     4
100
AcDbDimStyleTable
  0
DIMSTYLE
105
44B
330
A
100
AcDbSymbolTableRecord
100
AcDbDimStyleTableRecord
  2
Standard
 70
     0
178
     0
340
26
  0
DIMSTYLE
105
4DB
102
{ACAD_REACTORS
330
C32
330
C31
330
C30
330
C2F
330
C2E
330
C2D
330
C2C
330
C2B
330
C2A
102
}
330
A
100
AcDbSymbolTableRecord
100
AcDbDimStyleTableRecord
  2
1／2
 70
     0
 41
2.5
 42
0.25
 43
0.2
 44
1.25
 49
1.25
 50
89.99999999999996
 90
        2
 73
     0
 74
     0
 77
     3
 78
     8
 79
     2
140
3.0
141
0.0
143
0.03937007874016
144
2.0
147
0.625
171
     3
172
     1
271
     2
178
     4
179
     1
271
     2
272
     2
274
     3
283
     0
284
     8
288
     1
289
     0
340
26
341
44D
342
44D
  0
DIMSTYLE
105
4DF
330
A
100
AcDbSymbolTableRecord
100
AcDbDimStyleTableRecord
  2
1／3
 70
     0
 41
2.5
 42
0.25
 43
0.2
 44
1.25
 49
1.25
 50
89.99999999999996
 90
        2
 73
     0
 74
     0
 77
     3
 78
     8
 79
     2
140
3.0
141
0.0
143
0.03937007874016
144
3.0
147
0.625
171
     3
172
     1
271
     2
178
     4
179
     1
271
     2
272
     2
274
     3
283
     0
284
     8
288
     1
289
     0
340
26
341
44D
342
44D
  0
DIMSTYLE
105
1B05
102
{ACAD_REACTORS
330
A69
330
A65
330
A68
330
A67
330
A66
102
}
330
A
100
AcDbSymbolTableRecord
100
AcDbDimStyleTableRecord
  2
FREE
 70
     0
 41
2.5
 42
0.25
 43
0.2
 44
1.25
 49
1.25
 50
89.99999999999996
 90
        2
 73
     0
 74
     0
 77
     3
 78
     8
 79
     2
140
3.0
141
0.0
143
0.03937007874016
147
0.625
171
     3
172
     1
271
     2
178
     4
179
     1
271
     2
272
     2
274
     3
283
     0
284
     8
288
     1
289
     0
340
26
341
44D
342
44D
1001
ACAD_DSTYLE_DIMBREAK
1070
   391
1040
3.75
1001
ACAD_DSTYLE_DIMJAG
1070
   388
1040
1.5
1001
ACAD_DSTYLE_DIMTALN
1070
   392
1070
     0
  0
ENDTAB
  0
TABLE
  2
BLOCK_RECORD
  5
1
330
0
100
AcDbSymbolTable
 70
     8
  0
BLOCK_RECORD
  5
36
102
{ACAD_XDICTIONARY
360
9AA
102
}
330
1
100
AcDbSymbolTableRecord
100
AcDbBlockTableRecord
  2
*Model_Space
340
39
 70
     0
280
     1
281
     0
  0
BLOCK_RECORD
  5
32
330
1
100
AcDbSymbolTableRecord
100
AcDbBlockTableRecord
  2
*Paper_Space
340
35
 70
     0
280
     1
281
     0
  0
BLOCK_RECORD
  5
44D
330
1
100
AcDbSymbolTableRecord
100
AcDbBlockTableRecord
  2
_Open30
340
0
102
{BLKREFS
331
1EF2
331
1EF3
331
1F0D
331
1F0E
331
1F04
331
1F05
331
1EFB
331
1EFC
331
1EE9
331
1EEA
331
1E9B
331
1E9C
331
1EF2
331
1EF3
331
1F0D
331
1F0E
331
1F04
331
1F05
331
1EFB
331
1EFC
331
1EE9
331
1EEA
331
1E9B
331
1E9C
102
}
 70
     0
280
     1
281
     0
  0
BLOCK_RECORD
  5
C34
330
1
100
AcDbSymbolTableRecord
100
AcDbBlockTableRecord
  2
*D1
340
0
 70
     0
280
     1
281
     0
  0
BLOCK_RECORD
  5
C40
330
1
100
AcDbSymbolTableRecord
100
AcDbBlockTableRecord
  2
*D2
340
0
 70
     0
280
     1
281
     0
  0
BLOCK_RECORD
  5
C4C
330
1
100
AcDbSymbolTableRecord
100
AcDbBlockTableRecord
  2
*D3
340
0
 70
     0
280
     1
281
     0
  0
BLOCK_RECORD
  5
C58
330
1
100
AcDbSymbolTableRecord
100
AcDbBlockTableRecord
  2
*D4
340
0
 70
     0
280
     1
281
     0
  0
BLOCK_RECORD
  5
C64
330
1
100
AcDbSymbolTableRecord
100
AcDbBlockTableRecord
  2
*D5
340
0
 70
     0
280
     1
281
     0
  0
BLOCK_RECORD
  5
1E8A
330
1
100
AcDbSymbolTableRecord
100
AcDbBlockTableRecord
  2
*D6
340
0
 70
     0
280
     1
281
     0
  0
ENDTAB
  0
ENDSEC
  0
SECTION
  2
BLOCKS
  0
BLOCK
  5
37
330
36
100
AcDbEntity
  8
0
100
AcDbBlockBegin
  2
*Model_Space
 70
     0
 10
0.0
 20
0.0
 30
0.0
  3
*Model_Space
  1

  0
ENDBLK
  5
38
330
36
100
AcDbEntity
  8
0
100
AcDbBlockEnd
  0
BLOCK
  5
33
330
32
100
AcDbEntity
 67
     1
  8
0
100
AcDbBlockBegin
  2
*Paper_Space
 70
     0
 10
0.0
 20
0.0
 30
0.0
  3
*Paper_Space
  1

  0
ENDBLK
  5
34
330
32
100
AcDbEntity
 67
     1
  8
0
100
AcDbBlockEnd
  0
BLOCK
  5
44E
330
44D
100
AcDbEntity
  8
0
100
AcDbBlockBegin
  2
_Open30
 70
     0
 10
0.0
 20
0.0
 30
0.0
  3
_Open30
  1

  0
LINE
  5
44F
330
44D
100
AcDbEntity
  8
0
  6
ByBlock
 62
     0
370
    -2
100
AcDbLine
 10
-1.0
 20
0.267949
 30
0.0
 11
0.0
 21
0.0
 31
0.0
  0
LINE
  5
450
330
44D
100
AcDbEntity
  8
0
  6
ByBlock
 62
     0
370
    -2
100
AcDbLine
 10
0.0
 20
0.0
 30
0.0
 11
-1.0
 21
-0.267949
 31
0.0
  0
LINE
  5
451
330
44D
100
AcDbEntity
  8
0
  6
ByBlock
 62
     0
370
    -2
100
AcDbLine
 10
0.0
 20
0.0
 30
0.0
 11
-1.0
 21
0.0
 31
0.0
  0
ENDBLK
  5
452
330
44D
100
AcDbEntity
  8
0
100
AcDbBlockEnd
  0
BLOCK
  5
C3E
330
C34
100
AcDbEntity
  8
0
100
AcDbBlockBegin
  2
*D1
 70
     1
 10
0.0
 20
0.0
 30
0.0
  3
*D1
  1

  0
LINE
  5
1EEF
330
C34
100
AcDbEntity
  8
0
 62
     0
370
    -2
100
AcDbLine
 10
379.6967433403585
 20
-1835.431939649209
 30
0.0
 11
358.0022075545728
 21
-1835.431939649209
 31
0.0
  0
LINE
  5
1EF0
330
C34
100
AcDbEntity
  8
0
 62
     0
370
    -2
100
AcDbLine
 10
379.6967433403585
 20
-1710.431939649211
 30
0.0
 11
358.0022075545728
 21
-1710.431939649211
 31
0.0
  0
LINE
  5
1EF1
330
C34
100
AcDbEntity
  8
0
 62
     0
370
    -2
100
AcDbLine
 10
359.2522075545728
 20
-1832.931939649209
 30
0.0
 11
359.2522075545728
 21
-1712.931939649211
 31
0.0
  0
INSERT
  5
1EF2
330
C34
100
AcDbEntity
  8
0
 62
     0
370
    -2
100
AcDbBlockReference
  2
_Open30
 10
359.2522075545728
 20
-1835.431939649209
 30
0.0
 41
2.5
 42
2.5
 43
2.5
 50
270.0
  0
INSERT
  5
1EF3
330
C34
100
AcDbEntity
  8
0
 62
     0
370
    -2
100
AcDbBlockReference
  2
_Open30
 10
359.2522075545728
 20
-1710.431939649211
 30
0.0
 41
2.5
 42
2.5
 43
2.5
 50
90.0
  0
MTEXT
  5
1EF4
330
C34
100
AcDbEntity
  8
0
 62
     4
100
AcDbMText
 10
357.1272075545731
 20
-1772.93193964921
 30
0.0
 40
3.0
 41
0.0
 46
0.0
 71
     5
 72
     1
  1
φ250
 11
1.000000000000000E-16
 21
1.0
 31
0.0
 73
     1
 44
1.0
  0
POINT
  5
1EF5
330
C34
100
AcDbEntity
  8
Defpoints
 62
     0
100
AcDbPoint
 10
379.9467433403585
 20
-1835.431939649209
 30
0.0
  0
POINT
  5
1EF6
330
C34
100
AcDbEntity
  8
Defpoints
 62
     0
100
AcDbPoint
 10
379.9467433403585
 20
-1710.431939649211
 30
0.0
  0
POINT
  5
1EF7
330
C34
100
AcDbEntity
  8
Defpoints
 62
     0
100
AcDbPoint
 10
359.2522075545728
 20
-1710.431939649211
 30
0.0
  0
ENDBLK
  5
C3F
330
C34
100
AcDbEntity
  8
0
100
AcDbBlockEnd
  0
BLOCK
  5
C4A
330
C40
100
AcDbEntity
  8
0
100
AcDbBlockBegin
  2
*D2
 70
     1
 10
0.0
 20
0.0
 30
0.0
  3
*D2
  1

  0
LINE
  5
1F0A
330
C40
100
AcDbEntity
  8
0
 62
     0
370
    -2
100
AcDbLine
 10
370.3229245215397
 20
-1843.438839048609
 30
0.0
 11
370.3229245215397
 21
-1869.641955915477
 31
0.0
  0
LINE
  5
1F0B
330
C40
100
AcDbEntity
  8
0
 62
     0
370
    -2
100
AcDbLine
 10
462.8555296266448
 20
-1823.669069278841
 30
0.0
 11
462.8555296266448
 21
-1869.641955915477
 31
0.0
  0
LINE
  5
1F0C
330
C40
100
AcDbEntity
  8
0
 62
     0
370
    -2
100
AcDbLine
 10
372.8229245215397
 20
-1868.391955915477
 30
0.0
 11
460.3555296266447
 21
-1868.391955915477
 31
0.0
  0
INSERT
  5
1F0D
330
C40
100
AcDbEntity
  8
0
 62
     0
370
    -2
100
AcDbBlockReference
  2
_Open30
 10
370.3229245215397
 20
-1868.391955915477
 30
0.0
 41
2.5
 42
2.5
 43
2.5
 50
180.0
  0
INSERT
  5
1F0E
330
C40
100
AcDbEntity
  8
0
 62
     0
370
    -2
100
AcDbBlockReference
  2
_Open30
 10
462.8555296266448
 20
-1868.391955915477
 30
0.0
 41
2.5
 42
2.5
 43
2.5
  0
MTEXT
  5
1F0F
330
C40
100
AcDbEntity
  8
0
 62
     4
100
AcDbMText
 10
416.5892270740922
 20
-1866.266955915477
 30
0.0
 40
3.0
 41
0.0
 46
0.0
 71
     5
 72
     1
  1
185
 73
     1
 44
1.0
  0
POINT
  5
1F10
330
C40
100
AcDbEntity
  8
Defpoints
 62
     0
100
AcDbPoint
 10
370.3229245215397
 20
-1843.188839048609
 30
0.0
  0
POINT
  5
1F11
330
C40
100
AcDbEntity
  8
Defpoints
 62
     0
100
AcDbPoint
 10
462.8555296266448
 20
-1823.419069278841
 30
0.0
  0
POINT
  5
1F12
330
C40
100
AcDbEntity
  8
Defpoints
 62
     0
100
AcDbPoint
 10
462.8555296266448
 20
-1868.391955915477
 30
0.0
  0
ENDBLK
  5
C4B
330
C40
100
AcDbEntity
  8
0
100
AcDbBlockEnd
  0
BLOCK
  5
C56
330
C4C
100
AcDbEntity
  8
0
100
AcDbBlockBegin
  2
*D3
 70
     1
 10
0.0
 20
0.0
 30
0.0
  3
*D3
  1

  0
LINE
  5
1F01
330
C4C
100
AcDbEntity
  8
0
 62
     0
370
    -2
100
AcDbLine
 10
383.3360101071253
 20
-1808.261608067628
 30
0.0
 11
383.3360101071253
 21
-1861.169442151714
 31
0.0
  0
LINE
  5
1F02
330
C4C
100
AcDbEntity
  8
0
 62
     0
370
    -2
100
AcDbLine
 10
433.326000097115
 20
-1799.447664123684
 30
0.0
 11
433.326000097115
 21
-1861.169442151714
 31
0.0
  0
LINE
  5
1F03
330
C4C
100
AcDbEntity
  8
0
 62
     0
370
    -2
100
AcDbLine
 10
385.8360101071253
 20
-1859.919442151714
 30
0.0
 11
430.826000097115
 21
-1859.919442151714
 31
0.0
  0
INSERT
  5
1F04
330
C4C
100
AcDbEntity
  8
0
 62
     0
370
    -2
100
AcDbBlockReference
  2
_Open30
 10
383.3360101071253
 20
-1859.919442151714
 30
0.0
 41
2.5
 42
2.5
 43
2.5
 50
180.0
  0
INSERT
  5
1F05
330
C4C
100
AcDbEntity
  8
0
 62
     0
370
    -2
100
AcDbBlockReference
  2
_Open30
 10
433.326000097115
 20
-1859.919442151714
 30
0.0
 41
2.5
 42
2.5
 43
2.5
  0
MTEXT
  5
1F06
330
C4C
100
AcDbEntity
  8
0
 62
     4
100
AcDbMText
 10
408.3310051021201
 20
-1857.794442151714
 30
0.0
 40
3.0
 41
0.0
 46
0.0
 71
     5
 72
     1
  1
100
 73
     1
 44
1.0
  0
POINT
  5
1F07
330
C4C
100
AcDbEntity
  8
Defpoints
 62
     0
100
AcDbPoint
 10
383.3360101071253
 20
-1808.011608067628
 30
0.0
  0
POINT
  5
1F08
330
C4C
100
AcDbEntity
  8
Defpoints
 62
     0
100
AcDbPoint
 10
433.326000097115
 20
-1799.197664123684
 30
0.0
  0
POINT
  5
1F09
330
C4C
100
AcDbEntity
  8
Defpoints
 62
     0
100
AcDbPoint
 10
433.326000097115
 20
-1859.919442151714
 30
0.0
  0
ENDBLK
  5
C57
330
C4C
100
AcDbEntity
  8
0
100
AcDbBlockEnd
  0
BLOCK
  5
C62
330
C58
100
AcDbEntity
  8
0
100
AcDbBlockBegin
  2
*D4
 70
     1
 10
0.0
 20
0.0
 30
0.0
  3
*D4
  1

  0
LINE
  5
1EF8
330
C58
100
AcDbEntity
  8
0
 62
     0
370
    -2
100
AcDbLine
 10
204.1758106939805
 20
-1843.438839048609
 30
0.0
 11
204.1758106939805
 21
-1861.505282992554
 31
0.0
  0
LINE
  5
1EF9
330
C58
100
AcDbEntity
  8
0
 62
     0
370
    -2
100
AcDbLine
 10
329.1758106939805
 20
-1843.438839048609
 30
0.0
 11
329.1758106939805
 21
-1861.505282992554
 31
0.0
  0
LINE
  5
1EFA
330
C58
100
AcDbEntity
  8
0
 62
     0
370
    -2
100
AcDbLine
 10
206.6758106939805
 20
-1860.255282992554
 30
0.0
 11
326.6758106939805
 21
-1860.255282992554
 31
0.0
  0
INSERT
  5
1EFB
330
C58
100
AcDbEntity
  8
0
 62
     0
370
    -2
100
AcDbBlockReference
  2
_Open30
 10
204.1758106939805
 20
-1860.255282992554
 30
0.0
 41
2.5
 42
2.5
 43
2.5
 50
180.0
  0
INSERT
  5
1EFC
330
C58
100
AcDbEntity
  8
0
 62
     0
370
    -2
100
AcDbBlockReference
  2
_Open30
 10
329.1758106939805
 20
-1860.255282992554
 30
0.0
 41
2.5
 42
2.5
 43
2.5
  0
MTEXT
  5
1EFD
330
C58
100
AcDbEntity
  8
0
 62
     4
100
AcDbMText
 10
266.6758106939805
 20
-1858.130282992554
 30
0.0
 40
3.0
 41
0.0
 46
0.0
 71
     5
 72
     1
  1
250
 73
     1
 44
1.0
  0
POINT
  5
1EFE
330
C58
100
AcDbEntity
  8
Defpoints
 62
     0
100
AcDbPoint
 10
204.1758106939805
 20
-1843.188839048609
 30
0.0
  0
POINT
  5
1EFF
330
C58
100
AcDbEntity
  8
Defpoints
 62
     0
100
AcDbPoint
 10
329.1758106939805
 20
-1843.188839048609
 30
0.0
  0
POINT
  5
1F00
330
C58
100
AcDbEntity
  8
Defpoints
 62
     0
100
AcDbPoint
 10
329.1758106939805
 20
-1860.255282992554
 30
0.0
  0
ENDBLK
  5
C63
330
C58
100
AcDbEntity
  8
0
100
AcDbBlockEnd
  0
BLOCK
  5
C6E
330
C64
100
AcDbEntity
  8
0
100
AcDbBlockBegin
  2
*D5
 70
     1
 10
0.0
 20
0.0
 30
0.0
  3
*D5
  1

  0
LINE
  5
1EE6
330
C64
100
AcDbEntity
  8
0
 62
     0
370
    -2
100
AcDbLine
 10
266.4258106939806
 20
-1690.285936145707
 30
0.0
 11
192.8460146479345
 21
-1690.285936145707
 31
0.0
  0
LINE
  5
1EE7
330
C64
100
AcDbEntity
  8
0
 62
     0
370
    -2
100
AcDbLine
 10
208.6805654487354
 20
-1847.943593803365
 30
0.0
 11
192.8460146479345
 21
-1847.943593803365
 31
0.0
  0
LINE
  5
1EE8
330
C64
100
AcDbEntity
  8
0
 62
     0
370
    -2
100
AcDbLine
 10
194.0960146479345
 20
-1692.785936145707
 30
0.0
 11
194.0960146479345
 21
-1845.443593803365
 31
0.0
  0
INSERT
  5
1EE9
330
C64
100
AcDbEntity
  8
0
 62
     0
370
    -2
100
AcDbBlockReference
  2
_Open30
 10
194.0960146479345
 20
-1690.285936145707
 30
0.0
 41
2.5
 42
2.5
 43
2.5
 50
90.0
  0
INSERT
  5
1EEA
330
C64
100
AcDbEntity
  8
0
 62
     0
370
    -2
100
AcDbBlockReference
  2
_Open30
 10
194.0960146479345
 20
-1847.943593803365
 30
0.0
 41
2.5
 42
2.5
 43
2.5
 50
270.0
  0
MTEXT
  5
1EEB
330
C64
100
AcDbEntity
  8
0
 62
     4
100
AcDbMText
 10
191.9710146479348
 20
-1769.114764974536
 30
0.0
 40
3.0
 41
0.0
 46
0.0
 71
     5
 72
     1
  1
316
 11
1.000000000000000E-16
 21
1.0
 31
0.0
 73
     1
 44
1.0
  0
POINT
  5
1EEC
330
C64
100
AcDbEntity
  8
Defpoints
 62
     0
100
AcDbPoint
 10
266.6758106939806
 20
-1690.285936145707
 30
0.0
  0
POINT
  5
1EED
330
C64
100
AcDbEntity
  8
Defpoints
 62
     0
100
AcDbPoint
 10
208.9305654487354
 20
-1847.943593803365
 30
0.0
  0
POINT
  5
1EEE
330
C64
100
AcDbEntity
  8
Defpoints
 62
     0
100
AcDbPoint
 10
194.0960146479345
 20
-1847.943593803365
 30
0.0
  0
ENDBLK
  5
C6F
330
C64
100
AcDbEntity
  8
0
100
AcDbBlockEnd
  0
BLOCK
  5
1E8B
330
1E8A
100
AcDbEntity
  8
0
100
AcDbBlockBegin
  2
*D6
 70
     1
 10
0.0
 20
0.0
 30
0.0
  3
*D6
  1

  0
LINE
  5
1E98
330
1E8A
100
AcDbEntity
  8
0
 62
     0
370
    -2
100
AcDbLine
 10
355.5795465391472
 20
-1870.28302675856
 30
0.0
 11
367.0000177708204
 21
-1870.28302675856
 31
0.0
  0
LINE
  5
1E99
330
1E8A
100
AcDbEntity
  8
0
 62
     0
370
    -2
100
AcDbLine
 10
355.5795465391472
 20
-1930.28302675856
 30
0.0
 11
367.0000177708204
 21
-1930.28302675856
 31
0.0
  0
LINE
  5
1E9A
330
1E8A
100
AcDbEntity
  8
0
 62
     0
370
    -2
100
AcDbLine
 10
365.7500177708204
 20
-1872.78302675856
 30
0.0
 11
365.7500177708204
 21
-1927.78302675856
 31
0.0
  0
INSERT
  5
1E9B
330
1E8A
100
AcDbEntity
  8
0
 62
     0
370
    -2
100
AcDbBlockReference
  2
_Open30
 10
365.7500177708204
 20
-1870.28302675856
 30
0.0
 41
2.5
 42
2.5
 43
2.5
 50
90.0
  0
INSERT
  5
1E9C
330
1E8A
100
AcDbEntity
  8
0
 62
     0
370
    -2
100
AcDbBlockReference
  2
_Open30
 10
365.7500177708204
 20
-1930.28302675856
 30
0.0
 41
2.5
 42
2.5
 43
2.5
 50
270.0
  0
MTEXT
  5
1E9D
330
1E8A
100
AcDbEntity
  8
0
 62
     4
100
AcDbMText
 10
363.6250177708207
 20
-1881.90802675856
 30
0.0
 40
3.0
 41
0.0
 46
0.0
 71
     5
 72
     1
  1
60
 11
1.000000000000000E-16
 21
1.0
 31
0.0
 73
     1
 44
1.0
  0
POINT
  5
1E9E
330
1E8A
100
AcDbEntity
  8
Defpoints
 62
     0
100
AcDbPoint
 10
355.3295465391472
 20
-1870.28302675856
 30
0.0
  0
POINT
  5
1E9F
330
1E8A
100
AcDbEntity
  8
Defpoints
 62
     0
100
AcDbPoint
 10
355.3295465391472
 20
-1930.28302675856
 30
0.0
  0
POINT
  5
1EA0
330
1E8A
100
AcDbEntity
  8
Defpoints
 62
     0
100
AcDbPoint
 10
365.7500177708204
 20
-1930.28302675856
 30
0.0
  0
ENDBLK
  5
1E8C
330
1E8A
100
AcDbEntity
  8
0
100
AcDbBlockEnd
  0
ENDSEC
  0
SECTION
  2
ENTITIES
  0
DIMENSION
  5
A65
330
36
100
AcDbEntity
  8
0
100
AcDbDimension
  2
*D1
 10
359.2522075545728
 20
-1710.431939649211
 30
0.0
 11
357.1272075545731
 21
-1772.93193964921
 31
0.0
 70
    32
  1
φ250
 71
     5
 42
124.9999999999979
 73
     0
 74
     0
 75
     0
  3
FREE
100
AcDbAlignedDimension
 13
379.9467433403585
 23
-1835.431939649209
 33
0.0
 14
379.9467433403585
 24
-1710.431939649211
 34
0.0
 50
90.0
100
AcDbRotatedDimension
  0
DIMENSION
  5
A66
330
36
100
AcDbEntity
  8
0
100
AcDbDimension
  2
*D2
 10
462.8555296266448
 20
-1868.391955915477
 30
0.0
 11
416.5892270740922
 21
-1866.266955915477
 31
0.0
 70
    32
  1
185
 71
     5
 42
92.53260510510513
 73
     0
 74
     0
 75
     0
  3
FREE
100
AcDbAlignedDimension
 13
370.3229245215397
 23
-1843.188839048609
 33
0.0
 14
462.8555296266448
 24
-1823.419069278841
 34
0.0
100
AcDbRotatedDimension
  0
DIMENSION
  5
A67
330
36
100
AcDbEntity
  8
0
100
AcDbDimension
  2
*D3
 10
433.326000097115
 20
-1859.919442151714
 30
0.0
 11
408.3310051021201
 21
-1857.794442151714
 31
0.0
 70
    32
  1
100
 71
     5
 42
49.98998998998968
 73
     0
 74
     0
 75
     0
  3
FREE
100
AcDbAlignedDimension
 13
383.3360101071253
 23
-1808.011608067628
 33
0.0
 14
433.326000097115
 24
-1799.197664123684
 34
0.0
100
AcDbRotatedDimension
  0
DIMENSION
  5
A68
330
36
100
AcDbEntity
  8
0
100
AcDbDimension
  2
*D4
 10
329.1758106939805
 20
-1860.255282992554
 30
0.0
 11
266.6758106939805
 21
-1858.130282992554
 31
0.0
 70
    32
  1
250
 71
     5
 42
125.0
 73
     0
 74
     0
 75
     0
  3
FREE
100
AcDbAlignedDimension
 13
204.1758106939805
 23
-1843.188839048609
 33
0.0
 14
329.1758106939805
 24
-1843.188839048609
 34
0.0
100
AcDbRotatedDimension
  0
DIMENSION
  5
A69
330
36
100
AcDbEntity
  8
0
100
AcDbDimension
  2
*D5
 10
194.0960146479345
 20
-1847.943593803365
 30
0.0
 11
191.9710146479348
 21
-1769.114764974536
 31
0.0
 70
    32
  1
316
 71
     5
 42
157.6576576576576
 73
     0
 74
     0
 75
     0
  3
FREE
100
AcDbAlignedDimension
 13
266.6758106939806
 23
-1690.285936145707
 33
0.0
 14
208.9305654487354
 24
-1847.943593803365
 34
0.0
 50
270.0
100
AcDbRotatedDimension
  0
CIRCLE
  5
A6A
330
36
100
AcDbEntity
  8
0
 62
     3
100
AcDbCircle
 10
266.6758106939806
 20
-1772.92393914871
 30
0.0
 40
6.0
  0
LINE
  5
A6B
330
36
100
AcDbEntity
  8
0
 62
     3
100
AcDbLine
 10
381.568669016034
 20
-1715.92393914871
 30
0.0
 11
381.7229808278461
 21
-1715.92393914871
 31
0.0
  0
LINE
  5
A6C
330
36
100
AcDbEntity
  8
0
 62
     3
100
AcDbLine
 10
370.3266157127306
 20
-1825.568795254816
 30
0.0
 11
370.3266157127306
 21
-1818.008869078641
 31
0.0
  0
ARC
  5
A6D
330
36
100
AcDbEntity
  8
0
 62
     3
100
AcDbCircle
 10
370.5766157127309
 20
-1818.008869078641
 30
0.0
 40
0.2499999999999999
100
AcDbArc
 50
97.0771780000009
 51
180.0
  0
ARC
  5
A6E
330
36
100
AcDbEntity
  8
0
 62
     3
100
AcDbCircle
 10
370.5766157127309
 20
-1825.568795254816
 30
0.0
 40
0.2499999999999999
100
AcDbArc
 50
180.0
 51
262.9228219999991
  0
ARC
  5
A6F
330
36
100
AcDbEntity
  8
0
 62
     3
100
AcDbCircle
 10
374.8121812782965
 20
-1827.97397918875
 30
0.0
 40
10.56014639639639
100
AcDbArc
 50
71.30663099999812
 51
81.17556299999951
  0
ARC
  5
A70
330
36
100
AcDbEntity
  8
0
 62
     3
100
AcDbCircle
 10
374.2203131601784
 20
-1837.045834794355
 30
0.0
 40
19.63200325325325
100
AcDbArc
 50
83.53094200000112
 51
100.8832540000009
  0
ARC
  5
A71
330
36
100
AcDbEntity
  8
0
 62
     3
100
AcDbCircle
 10
374.2203131601784
 20
-1806.531829539102
 30
0.0
 40
19.63200325325325
100
AcDbArc
 50
259.116745999999
 51
276.4690579999988
  0
ARC
  5
A72
330
36
100
AcDbEntity
  8
0
 62
     3
100
AcDbCircle
 10
374.8121812782965
 20
-1815.603685144706
 30
0.0
 40
10.56014639639639
100
AcDbArc
 50
278.8244370000005
 51
288.6933690000018
  0
ARC
  5
A73
330
36
100
AcDbEntity
  8
0
 62
     7
100
AcDbCircle
 10
374.1454345315497
 20
-1804.531829539101
 30
0.0
 40
19.63200325325325
100
AcDbArc
 50
259.116745999999
 51
276.4690579999988
  0
ARC
  5
A74
330
36
100
AcDbEntity
  8
0
 62
     7
100
AcDbCircle
 10
374.1454345315497
 20
-1843.045834794355
 30
0.0
 40
19.63200325325325
100
AcDbArc
 50
83.53094200000112
 51
100.8832540000009
  0
ARC
  5
A75
330
36
100
AcDbEntity
  8
0
 62
     7
100
AcDbCircle
 10
374.0827868839021
 20
-1802.531485445008
 30
0.0
 40
19.63200325325325
100
AcDbArc
 50
259.116745999999
 51
276.4690579999988
  0
ARC
  5
A76
330
36
100
AcDbEntity
  8
0
 62
     7
100
AcDbCircle
 10
374.0827868839021
 20
-1841.046178888448
 30
0.0
 40
19.63200325325325
100
AcDbArc
 50
83.53094200000112
 51
100.8832540000009
  0
ARC
  5
A77
330
36
100
AcDbEntity
  8
0
 62
     7
100
AcDbCircle
 10
374.1454345315497
 20
-1800.531829539101
 30
0.0
 40
19.63200325325325
100
AcDbArc
 50
259.116745999999
 51
276.4690579999988
  0
ARC
  5
A78
330
36
100
AcDbEntity
  8
0
 62
     7
100
AcDbCircle
 10
374.1454345315497
 20
-1839.045834794355
 30
0.0
 40
19.63200325325325
100
AcDbArc
 50
83.53094200000112
 51
100.8832540000009
  0
ARC
  5
A79
330
36
100
AcDbEntity
  8
0
 62
     7
100
AcDbCircle
 10
374.7373026496679
 20
-1809.603685144707
 30
0.0
 40
10.56014639639639
100
AcDbArc
 50
278.8244370000005
 51
285.5293939999991
  0
ARC
  5
A7A
330
36
100
AcDbEntity
  8
0
 62
     7
100
AcDbCircle
 10
374.7373026496679
 20
-1829.97397918875
 30
0.0
 40
10.56014639639639
100
AcDbArc
 50
74.47060600000094
 51
81.17556299999951
  0
ARC
  5
A7B
330
36
100
AcDbEntity
  8
0
 62
     7
100
AcDbCircle
 10
374.6746537507688
 20
-1831.974323282843
 30
0.0
 40
10.56014639639639
100
AcDbArc
 50
73.92836400000061
 51
81.17556299999951
  0
ARC
  5
A7C
330
36
100
AcDbEntity
  8
0
 62
     7
100
AcDbCircle
 10
374.6746537507688
 20
-1811.603341050612
 30
0.0
 40
10.56014639639639
100
AcDbArc
 50
278.8244370000005
 51
286.0716359999993
  0
ARC
  5
A7D
330
36
100
AcDbEntity
  8
0
 62
     7
100
AcDbCircle
 10
374.7373026496679
 20
-1833.97397918875
 30
0.0
 40
10.56014639639639
100
AcDbArc
 50
74.47060600000094
 51
81.17556299999951
  0
ARC
  5
A7E
330
36
100
AcDbEntity
  8
0
 62
     7
100
AcDbCircle
 10
374.7373026496679
 20
-1813.603685144705
 30
0.0
 40
10.56014639639639
100
AcDbArc
 50
278.8244370000005
 51
285.5293939999991
  0
CIRCLE
  5
A7F
330
36
100
AcDbEntity
  8
0
 62
     7
100
AcDbCircle
 10
297.4017941774641
 20
-1813.827413873434
 30
0.0
 40
3.499999999999998
  0
LINE
  5
A80
330
36
100
AcDbEntity
  8
0
 62
     3
100
AcDbLine
 10
381.6967433403584
 20
-1734.983553763324
 30
0.0
 11
383.3360101071253
 21
-1737.85226997954
 31
0.0
  0
LINE
  5
A81
330
36
100
AcDbEntity
  8
0
 62
     3
100
AcDbLine
 10
381.6967433403584
 20
-1733.880325535097
 30
0.0
 11
383.3430483954136
 21
-1730.999290750311
 31
0.0
  0
LINE
  5
A82
330
36
100
AcDbEntity
  8
0
 62
     3
100
AcDbLine
 10
383.3430483954136
 20
-1730.999290750311
 30
0.0
 11
381.863533880899
 21
-1714.088361070632
 31
0.0
  0
ARC
  5
A83
330
36
100
AcDbEntity
  8
0
 62
     3
100
AcDbCircle
 10
381.3654370340521
 20
-1714.13193964921
 30
0.0
 40
0.5
100
AcDbArc
 50
4.999999999999745
 51
48.50045899999919
  0
ARC
  5
A84
330
36
100
AcDbEntity
  8
0
 62
     3
100
AcDbCircle
 10
379.9467433403585
 20
-1712.181939649211
 30
0.0
 40
1.749999999999999
100
AcDbArc
 50
0.0
 51
180.0
  0
LINE
  5
A85
330
36
100
AcDbEntity
  8
0
 62
     3
100
AcDbLine
 10
381.6967433403584
 20
-1810.880325535096
 30
0.0
 11
383.3360101071253
 21
-1808.011608067628
 31
0.0
  0
LINE
  5
A86
330
36
100
AcDbEntity
  8
0
 62
     3
100
AcDbLine
 10
381.6967433403584
 20
-1811.983553763324
 30
0.0
 11
383.3430483954136
 21
-1814.864587296858
 31
0.0
  0
LINE
  5
A87
330
36
100
AcDbEntity
  8
0
 62
     3
100
AcDbLine
 10
383.3430483954136
 20
-1814.864587296858
 30
0.0
 11
381.863533880899
 21
-1831.775516976538
 31
0.0
  0
ARC
  5
A88
330
36
100
AcDbEntity
  8
0
 62
     3
100
AcDbCircle
 10
379.9467433403585
 20
-1833.681939649211
 30
0.0
 40
1.749999999999999
100
AcDbArc
 50
180.0
 51
0.0
  0
LINE
  5
A89
330
36
100
AcDbEntity
  8
0
 62
     3
100
AcDbLine
 10
434.9652668638819
 20
-1734.983553763324
 30
0.0
 11
433.326000097115
 21
-1737.85226997954
 31
0.0
  0
LINE
  5
A8A
330
36
100
AcDbEntity
  8
0
 62
     3
100
AcDbLine
 10
434.9652668638819
 20
-1733.880325535097
 30
0.0
 11
433.3189618088268
 21
-1730.999290750311
 31
0.0
  0
LINE
  5
A8B
330
36
100
AcDbEntity
  8
0
 62
     3
100
AcDbLine
 10
433.3189618088268
 20
-1730.999290750311
 30
0.0
 11
434.7984763233416
 21
-1714.088361070632
 31
0.0
  0
ARC
  5
A8C
330
36
100
AcDbEntity
  8
0
 62
     3
100
AcDbCircle
 10
436.7152668638819
 20
-1712.181939649211
 30
0.0
 40
1.749999999999999
100
AcDbArc
 50
0.0
 51
180.0
  0
LINE
  5
A8D
330
36
100
AcDbEntity
  8
0
 62
     3
100
AcDbLine
 10
434.9652668638819
 20
-1810.880325535096
 30
0.0
 11
433.326000097115
 21
-1808.011608067628
 31
0.0
  0
LINE
  5
A8E
330
36
100
AcDbEntity
  8
0
 62
     3
100
AcDbLine
 10
434.9652668638819
 20
-1811.983553763324
 30
0.0
 11
433.3189618088268
 21
-1814.864587296858
 31
0.0
  0
LINE
  5
A8F
330
36
100
AcDbEntity
  8
0
 62
     3
100
AcDbLine
 10
433.3189618088268
 20
-1814.864587296858
 30
0.0
 11
434.7984763233416
 21
-1831.775516976538
 31
0.0
  0
ARC
  5
A90
330
36
100
AcDbEntity
  8
0
 62
     3
100
AcDbCircle
 10
436.7152668638819
 20
-1833.681939649211
 30
0.0
 40
1.749999999999999
100
AcDbArc
 50
180.0
 51
0.0
  0
LINE
  5
A91
330
36
100
AcDbEntity
  8
0
 62
     3
100
AcDbLine
 10
324.4210559392258
 20
-1838.434084293856
 30
0.0
 11
208.9305654487354
 21
-1838.434084293856
 31
0.0
  0
LINE
  5
A92
330
36
100
AcDbEntity
  8
0
 62
     3
100
AcDbLine
 10
324.4210559392258
 20
-1847.943593803365
 30
0.0
 11
208.9305654487354
 21
-1847.943593803365
 31
0.0
  0
LINE
  5
A93
330
36
100
AcDbEntity
  8
0
 62
     3
100
AcDbLine
 10
310.2015314147012
 20
-1817.776605565126
 30
0.0
 11
328.1356067400266
 21
-1840.220707166728
 31
0.0
  0
LINE
  5
A94
330
36
100
AcDbEntity
  8
0
 62
     3
100
AcDbLine
 10
302.8914988821688
 20
-1823.861882091653
 30
0.0
 11
314.5354928761627
 21
-1838.434084293856
 31
0.0
  0
LINE
  5
A95
330
36
100
AcDbEntity
  8
0
 62
     3
100
AcDbLine
 10
434.9652668638819
 20
-1785.734571030592
 30
0.0
 11
434.9652668638819
 21
-1833.681939649211
 31
0.0
  0
LINE
  5
A96
330
36
100
AcDbEntity
  8
0
 62
     3
100
AcDbLine
 10
434.3270010981162
 20
-1780.939947657219
 30
0.0
 11
433.326000097115
 21
-1780.939947657219
 31
0.0
  0
LINE
  5
A97
330
36
100
AcDbEntity
  8
0
 62
     3
100
AcDbLine
 10
434.3270010981162
 20
-1764.923931641202
 30
0.0
 11
433.326000097115
 21
-1764.923931641202
 31
0.0
  0
LINE
  5
A98
330
36
100
AcDbEntity
  8
0
 62
     3
100
AcDbLine
 10
383.3360101071253
 20
-1737.85226997954
 30
0.0
 11
383.3360101071253
 21
-1768.177184894456
 31
0.0
  0
LINE
  5
A99
330
36
100
AcDbEntity
  8
0
 62
     3
100
AcDbLine
 10
433.326000097115
 20
-1737.85226997954
 30
0.0
 11
433.326000097115
 21
-1768.177184894456
 31
0.0
  0
LINE
  5
A9A
330
36
100
AcDbEntity
  8
0
 62
     3
100
AcDbLine
 10
433.326000097115
 20
-1777.686694403965
 30
0.0
 11
433.326000097115
 21
-1808.011608067628
 31
0.0
  0
LINE
  5
A9B
330
36
100
AcDbEntity
  8
0
 62
     3
100
AcDbLine
 10
462.8555296266448
 20
-1823.419069278841
 30
0.0
 11
462.8555296266448
 21
-1790.69970741698
 31
0.0
  0
LINE
  5
A9C
330
36
100
AcDbEntity
  8
0
 62
     3
100
AcDbLine
 10
453.3460201171351
 20
-1823.419069278841
 30
0.0
 11
453.3460201171351
 21
-1790.69970741698
 31
0.0
  0
ARC
  5
A9D
330
36
100
AcDbEntity
  8
0
 62
     3
100
AcDbCircle
 10
438.3310051021203
 20
-1792.70170941898
 30
0.0
 40
15.01501501501501
100
AcDbArc
 50
0.0
 51
90.0
  0
ARC
  5
A9E
330
36
100
AcDbEntity
  8
0
 62
     3
100
AcDbCircle
 10
438.3310051021203
 20
-1792.70170941898
 30
0.0
 40
24.52452452452452
100
AcDbArc
 50
0.0
 51
90.0
  0
LINE
  5
A9F
330
36
100
AcDbEntity
  8
0
 62
     3
100
AcDbLine
 10
462.8555296266448
 20
-1717.563213422985
 30
0.0
 11
462.8555296266448
 21
-1790.69970741698
 31
0.0
  0
LINE
  5
AA0
330
36
100
AcDbEntity
  8
0
 62
     3
100
AcDbLine
 10
453.3460201171351
 20
-1717.563213422985
 30
0.0
 11
453.3460201171351
 21
-1771.308945404967
 31
0.0
  0
LINE
  5
AA1
330
36
100
AcDbEntity
  8
0
 62
     3
100
AcDbLine
 10
438.3310051021203
 20
-1838.434084293856
 30
0.0
 11
375.0776792762944
 21
-1838.434084293856
 31
0.0
  0
LINE
  5
AA2
330
36
100
AcDbEntity
  8
0
 62
     3
100
AcDbLine
 10
438.3310051021203
 20
-1847.943593803365
 30
0.0
 11
375.0776792762944
 21
-1847.943593803365
 31
0.0
  0
ARC
  5
AA3
330
36
100
AcDbEntity
  8
0
 62
     3
100
AcDbCircle
 10
438.3310051021203
 20
-1823.419069278841
 30
0.0
 40
24.52452452452452
100
AcDbArc
 50
270.0
 51
0.0
  0
ARC
  5
AA4
330
36
100
AcDbEntity
  8
0
 62
     3
100
AcDbCircle
 10
438.3310051021203
 20
-1823.419069278841
 30
0.0
 40
15.01501501501501
100
AcDbArc
 50
270.0
 51
0.0
  0
ARC
  5
AA5
330
36
100
AcDbEntity
  8
0
 62
     3
100
AcDbCircle
 10
438.3310051021203
 20
-1717.563213422985
 30
0.0
 40
15.01501501501501
100
AcDbArc
 50
0.0
 51
90.0
  0
ARC
  5
AA6
330
36
100
AcDbEntity
  8
0
 62
     3
100
AcDbCircle
 10
438.3310051021203
 20
-1717.563213422985
 30
0.0
 40
24.52452452452452
100
AcDbArc
 50
0.0
 51
90.0
  0
ARC
  5
AA7
330
36
100
AcDbEntity
  8
0
 62
     3
100
AcDbCircle
 10
375.0776792762944
 20
-1843.188839048609
 30
0.0
 40
4.754754754754753
100
AcDbArc
 50
90.0
 51
270.0
  0
ARC
  5
AA8
330
36
100
AcDbEntity
  8
0
 62
     3
100
AcDbCircle
 10
324.4210559392258
 20
-1843.188839048609
 30
0.0
 40
4.754754754754753
100
AcDbArc
 50
270.0
 51
90.0
  0
ARC
  5
AA9
330
36
100
AcDbEntity
  8
0
 62
     3
100
AcDbCircle
 10
208.9305654487354
 20
-1843.188839048609
 30
0.0
 40
4.754754754754753
100
AcDbArc
 50
90.0
 51
270.0
  0
LINE
  5
AAA
330
36
100
AcDbEntity
  8
0
 62
     7
100
AcDbLine
 10
380.9276429900081
 20
-1766.425433142703
 30
0.0
 11
383.3360101071253
 21
-1766.425433142703
 31
0.0
  0
LINE
  5
AAB
330
36
100
AcDbEntity
  8
0
 62
     7
100
AcDbLine
 10
379.5722463433614
 20
-1767.165750960522
 30
0.0
 11
383.3360101071253
 21
-1767.165750960522
 31
0.0
  0
LINE
  5
AAC
330
36
100
AcDbEntity
  8
0
 62
     7
100
AcDbLine
 10
380.4271424895077
 20
-1766.925933643204
 30
0.0
 11
380.4271424895077
 21
-1767.165750960522
 31
0.0
  0
ARC
  5
AAD
330
36
100
AcDbEntity
  8
0
 62
     7
100
AcDbCircle
 10
380.9276429900081
 20
-1766.925933643204
 30
0.0
 40
0.5005005005005005
100
AcDbArc
 50
90.0
 51
180.0
  0
ARC
  5
AAE
330
36
100
AcDbEntity
  8
0
 62
     7
100
AcDbCircle
 10
379.5722463433614
 20
-1767.466051260822
 30
0.0
 40
0.3003003003003003
100
AcDbArc
 50
90.0
 51
180.0
  0
LINE
  5
AAF
330
36
100
AcDbEntity
  8
0
 62
     7
100
AcDbLine
 10
380.9276429900081
 20
-1779.438446155717
 30
0.0
 11
383.3360101071253
 21
-1779.438446155717
 31
0.0
  0
ARC
  5
AB0
330
36
100
AcDbEntity
  8
0
 62
     7
100
AcDbCircle
 10
380.9276429900081
 20
-1778.937945655216
 30
0.0
 40
0.5005005005005005
100
AcDbArc
 50
180.0
 51
270.0
  0
LINE
  5
AB1
330
36
100
AcDbEntity
  8
0
 62
     7
100
AcDbLine
 10
380.4271424895077
 20
-1778.937945655216
 30
0.0
 11
380.4271424895077
 21
-1778.698128337899
 31
0.0
  0
LINE
  5
AB2
330
36
100
AcDbEntity
  8
0
 62
     7
100
AcDbLine
 10
379.5722463433614
 20
-1778.698128337899
 30
0.0
 11
383.3360101071253
 21
-1778.698128337899
 31
0.0
  0
ARC
  5
AB3
330
36
100
AcDbEntity
  8
0
 62
     7
100
AcDbCircle
 10
379.5722463433614
 20
-1778.397828037599
 30
0.0
 40
0.3003003003003003
100
AcDbArc
 50
180.0
 51
270.0
  0
LINE
  5
AB4
330
36
100
AcDbEntity
  8
0
 62
     7
100
AcDbLine
 10
379.2719460430612
 20
-1778.397828037599
 30
0.0
 11
379.2719460430612
 21
-1767.466051260822
 31
0.0
  0
CIRCLE
  5
AB5
330
36
100
AcDbEntity
  8
0
 62
     3
100
AcDbCircle
 10
266.6758106939806
 20
-1697.793443653214
 30
0.0
 40
7.507507507507507
  0
CIRCLE
  5
AB6
330
36
100
AcDbEntity
  8
0
 62
     3
100
AcDbCircle
 10
297.4017941774641
 20
-1813.827413873434
 30
0.0
 40
5.300339089089086
  0
LINE
  5
AB7
330
36
100
AcDbEntity
  8
0
 62
     3
100
AcDbLine
 10
223.6501525358223
 20
-1818.256517977539
 30
0.0
 11
215.5856780613479
 21
-1838.434084293856
 31
0.0
  0
CIRCLE
  5
AB8
330
36
100
AcDbEntity
  8
0
 62
     3
100
AcDbCircle
 10
266.6758106939806
 20
-1772.92393914871
 30
0.0
 40
62.5
  0
CIRCLE
  5
AB9
330
36
100
AcDbEntity
  8
0
 62
     3
100
AcDbCircle
 10
266.6758106939806
 20
-1772.92393914871
 30
0.0
 40
58.99999999999999
  0
ARC
  5
ABA
330
36
100
AcDbEntity
  8
0
 62
     3
100
AcDbCircle
 10
244.8461260092959
 20
-1770.44145916873
 30
0.0
 40
11.06269769769769
100
AcDbArc
 50
256.3652619999999
 51
343.6347379999956
  0
ARC
  5
ABB
330
36
100
AcDbEntity
  8
0
 62
     3
100
AcDbCircle
 10
253.0591490323189
 20
-1772.853273483043
 30
0.0
 40
2.502872872872871
100
AcDbArc
 50
343.6347379999956
 51
30.00000000000055
  0
ARC
  5
ABC
330
36
100
AcDbEntity
  8
0
 62
     3
100
AcDbCircle
 10
242.8283056889754
 20
-1778.760054013575
 30
0.0
 40
2.502872872872871
100
AcDbArc
 50
210.0000000000005
 51
256.3652619999999
  0
ARC
  5
ABD
330
36
100
AcDbEntity
  8
0
 62
     3
100
AcDbCircle
 10
275.4405003836703
 20
-1793.070695905466
 30
0.0
 40
11.06269769769769
100
AcDbArc
 50
16.36526200000438
 51
103.6347380000001
  0
ARC
  5
ABE
330
36
100
AcDbEntity
  8
0
 62
     3
100
AcDbCircle
 10
283.6535246579444
 20
-1790.658881591153
 30
0.0
 40
2.502872872872871
100
AcDbArc
 50
329.9999999999995
 51
16.36526200000438
  0
ARC
  5
ABF
330
36
100
AcDbEntity
  8
0
 62
     3
100
AcDbCircle
 10
273.4226813146011
 20
-1784.752102311873
 30
0.0
 40
2.502872872872871
100
AcDbArc
 50
103.6347380000001
 51
149.9999999999994
  0
ARC
  5
AC0
330
36
100
AcDbEntity
  8
0
 62
     3
100
AcDbCircle
 10
288.5054966299165
 20
-1770.44145916873
 30
0.0
 40
11.06269769769769
100
AcDbArc
 50
196.3652620000044
 51
283.6347380000002
  0
ARC
  5
AC1
330
36
100
AcDbEntity
  8
0
 62
     3
100
AcDbCircle
 10
290.5233156989853
 20
-1778.760054013575
 30
0.0
 40
2.502872872872871
100
AcDbArc
 50
283.6347380000002
 51
329.9999999999995
  0
ARC
  5
AC2
330
36
100
AcDbEntity
  8
0
 62
     3
100
AcDbCircle
 10
280.2924736068935
 20
-1772.853273483043
 30
0.0
 40
2.502872872872871
100
AcDbArc
 50
149.9999999999994
 51
196.3652620000044
  0
LINE
  5
AC3
330
36
100
AcDbEntity
  8
0
 62
     3
100
AcDbLine
 10
427.1471562532714
 20
-1726.137137346909
 30
0.0
 11
421.9425341311493
 21
-1819.720247957518
 31
0.0
  0
LINE
  5
AC4
330
36
100
AcDbEntity
  8
0
 62
     3
100
AcDbLine
 10
421.9425341311493
 20
-1726.137137346909
 30
0.0
 11
416.7379107577756
 21
-1819.720247957518
 31
0.0
  0
LINE
  5
AC5
330
36
100
AcDbEntity
  8
0
 62
     3
100
AcDbLine
 10
416.7379107577756
 20
-1726.137137346909
 30
0.0
 11
411.5332886356536
 21
-1819.720247957518
 31
0.0
  0
LINE
  5
AC6
330
36
100
AcDbEntity
  8
0
 62
     3
100
AcDbLine
 10
432.3517783753936
 20
-1819.720247957518
 30
0.0
 11
432.9694460430611
 21
-1806.708692652213
 31
0.0
  0
ARC
  5
AC7
330
36
100
AcDbEntity
  8
0
 62
     3
100
AcDbCircle
 10
429.7494673143321
 20
-1726.137137346909
 30
0.0
 40
2.602311061061059
100
AcDbArc
 50
353.6335520000005
 51
180.0
  0
ARC
  5
AC8
330
36
100
AcDbEntity
  8
0
 62
     3
100
AcDbCircle
 10
424.5448451922102
 20
-1726.137137346909
 30
0.0
 40
2.602311061061059
100
AcDbArc
 50
353.6335520000005
 51
180.0
  0
ARC
  5
AC9
330
36
100
AcDbEntity
  8
0
 62
     3
100
AcDbCircle
 10
419.3402218188368
 20
-1726.137137346909
 30
0.0
 40
2.602311061061059
100
AcDbArc
 50
353.6335520000005
 51
180.0
  0
ARC
  5
ACA
330
36
100
AcDbEntity
  8
0
 62
     3
100
AcDbCircle
 10
414.1355996967146
 20
-1726.137137346909
 30
0.0
 40
2.602311061061059
100
AcDbArc
 50
353.6335520000005
 51
180.0
  0
ARC
  5
ACB
330
36
100
AcDbEntity
  8
0
 62
     3
100
AcDbCircle
 10
408.9309775745926
 20
-1726.137137346909
 30
0.0
 40
2.602311061061059
100
AcDbArc
 50
353.6335520000005
 51
180.0
  0
ARC
  5
ACC
330
36
100
AcDbEntity
  8
0
 62
     3
100
AcDbCircle
 10
403.7263554524706
 20
-1726.137137346909
 30
0.0
 40
2.602311061061059
100
AcDbArc
 50
353.6335520000005
 51
180.0
  0
ARC
  5
ACD
330
36
100
AcDbEntity
  8
0
 62
     3
100
AcDbCircle
 10
398.5217333303483
 20
-1726.137137346909
 30
0.0
 40
2.602311061061059
100
AcDbArc
 50
353.6335520000005
 51
180.0
  0
ARC
  5
ACE
330
36
100
AcDbEntity
  8
0
 62
     3
100
AcDbCircle
 10
393.3171112082263
 20
-1726.137137346909
 30
0.0
 40
2.602311061061059
100
AcDbArc
 50
353.6335520000005
 51
180.0
  0
ARC
  5
ACF
330
36
100
AcDbEntity
  8
0
 62
     3
100
AcDbCircle
 10
388.1124890861042
 20
-1726.137137346909
 30
0.0
 40
2.602311061061059
100
AcDbArc
 50
353.6335520000005
 51
180.0
  0
ARC
  5
AD0
330
36
100
AcDbEntity
  8
0
 62
     3
100
AcDbCircle
 10
388.1124890861042
 20
-1819.720247957518
 30
0.0
 40
2.602311061061059
100
AcDbArc
 50
173.6335520000003
 51
0.0
  0
ARC
  5
AD1
330
36
100
AcDbEntity
  8
0
 62
     3
100
AcDbCircle
 10
393.3171112082263
 20
-1819.720247957518
 30
0.0
 40
2.602311061061059
100
AcDbArc
 50
173.6335520000003
 51
0.0
  0
ARC
  5
AD2
330
36
100
AcDbEntity
  8
0
 62
     3
100
AcDbCircle
 10
398.5217333303483
 20
-1819.720247957518
 30
0.0
 40
2.602311061061059
100
AcDbArc
 50
173.6335520000003
 51
0.0
  0
ARC
  5
AD3
330
36
100
AcDbEntity
  8
0
 62
     3
100
AcDbCircle
 10
403.7263554524706
 20
-1819.720247957518
 30
0.0
 40
2.602311061061059
100
AcDbArc
 50
173.6335520000003
 51
0.0
  0
ARC
  5
AD4
330
36
100
AcDbEntity
  8
0
 62
     3
100
AcDbCircle
 10
408.9309775745926
 20
-1819.720247957518
 30
0.0
 40
2.602311061061059
100
AcDbArc
 50
173.6335520000003
 51
0.0
  0
ARC
  5
AD5
330
36
100
AcDbEntity
  8
0
 62
     3
100
AcDbCircle
 10
414.1355996967146
 20
-1819.720247957518
 30
0.0
 40
2.602311061061059
100
AcDbArc
 50
173.6335520000003
 51
0.0
  0
ARC
  5
AD6
330
36
100
AcDbEntity
  8
0
 62
     3
100
AcDbCircle
 10
419.3402218188368
 20
-1819.720247957518
 30
0.0
 40
2.602311061061059
100
AcDbArc
 50
173.6335520000003
 51
0.0
  0
ARC
  5
AD7
330
36
100
AcDbEntity
  8
0
 62
     3
100
AcDbCircle
 10
424.5448451922102
 20
-1819.720247957518
 30
0.0
 40
2.602311061061059
100
AcDbArc
 50
173.6335520000003
 51
0.0
  0
ARC
  5
AD8
330
36
100
AcDbEntity
  8
0
 62
     3
100
AcDbCircle
 10
429.7494673143321
 20
-1819.720247957518
 30
0.0
 40
2.602311061061059
100
AcDbArc
 50
173.6335520000003
 51
0.0
  0
LINE
  5
AD9
330
36
100
AcDbEntity
  8
0
 62
     3
100
AcDbLine
 10
252.210145028315
 20
-1766.37700971928
 30
0.0
 11
265.1130479312179
 21
-1788.725493202764
 31
0.0
  0
ARC
  5
ADA
330
36
100
AcDbEntity
  8
0
 62
     3
100
AcDbCircle
 10
248.0247734066931
 20
-1775.94703974931
 30
0.0
 40
11.06269769769769
100
AcDbArc
 50
76.36526199999987
 51
163.6347379999956
  0
ARC
  5
ADB
330
36
100
AcDbEntity
  8
0
 62
     3
100
AcDbCircle
 10
239.8117503836703
 20
-1773.535225434996
 30
0.0
 40
2.502872872872871
100
AcDbArc
 50
163.6347379999956
 51
210.0000000000005
  0
ARC
  5
ADC
330
36
100
AcDbEntity
  8
0
 62
     3
100
AcDbCircle
 10
285.326847981268
 20
-1775.94703974931
 30
0.0
 40
11.06269769769769
100
AcDbArc
 50
16.36526200000438
 51
103.6347380000001
  0
ARC
  5
ADD
330
36
100
AcDbEntity
  8
0
 62
     3
100
AcDbCircle
 10
283.3090289121988
 20
-1767.628446155715
 30
0.0
 40
2.502872872872871
100
AcDbArc
 50
103.6347380000001
 51
149.9999999999994
  0
LINE
  5
ADE
330
36
100
AcDbEntity
  8
0
 62
     3
100
AcDbLine
 10
295.7074235568434
 20
-1774.786661871434
 30
0.0
 11
282.8045194026893
 21
-1797.135146606167
 31
0.0
  0
ARC
  5
ADF
330
36
100
AcDbEntity
  8
0
 62
     3
100
AcDbCircle
 10
278.619149032319
 20
-1787.565115324887
 30
0.0
 40
11.06269769769769
100
AcDbArc
 50
196.3652620000044
 51
283.6347380000002
  0
ARC
  5
AE0
330
36
100
AcDbEntity
  8
0
 62
     3
100
AcDbCircle
 10
280.636968101388
 20
-1795.883710169731
 30
0.0
 40
2.502872872872871
100
AcDbArc
 50
283.6347380000002
 51
329.9999999999995
  0
ARC
  5
AE1
330
36
100
AcDbEntity
  8
0
 62
     3
100
AcDbCircle
 10
293.5398722555421
 20
-1773.535225434996
 30
0.0
 40
2.502872872872871
100
AcDbArc
 50
329.9999999999995
 51
16.36526200000438
  0
ARC
  5
AE2
330
36
100
AcDbEntity
  8
0
 62
     3
100
AcDbCircle
 10
254.7324736068934
 20
-1787.565115324887
 30
0.0
 40
11.06269769769769
100
AcDbArc
 50
256.3652619999999
 51
343.6347379999956
  0
LINE
  5
AE3
330
36
100
AcDbEntity
  8
0
 62
     3
100
AcDbLine
 10
237.644199082369
 20
-1774.786661871434
 30
0.0
 11
250.5471019852719
 21
-1797.135146606167
 31
0.0
  0
ARC
  5
AE4
330
36
100
AcDbEntity
  8
0
 62
     3
100
AcDbCircle
 10
252.7146532865731
 20
-1795.883710169731
 30
0.0
 40
2.502872872872871
100
AcDbArc
 50
210.0000000000005
 51
256.3652619999999
  0
ARC
  5
AE5
330
36
100
AcDbEntity
  8
0
 62
     3
100
AcDbCircle
 10
270.4061260092958
 20
-1789.9769296392
 30
0.0
 40
2.502872872872871
100
AcDbArc
 50
149.9999999999994
 51
196.3652620000044
  0
LINE
  5
AE6
330
36
100
AcDbEntity
  8
0
 62
     3
100
AcDbLine
 10
281.1414776108975
 20
-1766.37700971928
 30
0.0
 11
268.2385747079946
 21
-1788.725493202764
 31
0.0
  0
ARC
  5
AE7
330
36
100
AcDbEntity
  8
0
 62
     3
100
AcDbCircle
 10
257.9111210042909
 20
-1793.070695905466
 30
0.0
 40
11.06269769769769
100
AcDbArc
 50
76.36526199999987
 51
163.6347379999956
  0
ARC
  5
AE8
330
36
100
AcDbEntity
  8
0
 62
     3
100
AcDbCircle
 10
249.6980979812678
 20
-1790.658881591153
 30
0.0
 40
2.502872872872871
100
AcDbArc
 50
163.6347379999956
 51
210.0000000000005
  0
ARC
  5
AE9
330
36
100
AcDbEntity
  8
0
 62
     3
100
AcDbCircle
 10
259.9289413246111
 20
-1784.752102311873
 30
0.0
 40
2.502872872872871
100
AcDbArc
 50
30.00000000000055
 51
76.36526199999987
  0
ARC
  5
AEA
330
36
100
AcDbEntity
  8
0
 62
     3
100
AcDbCircle
 10
262.9454966299164
 20
-1789.9769296392
 30
0.0
 40
2.502872872872871
100
AcDbArc
 50
343.6347379999956
 51
30.00000000000055
  0
ARC
  5
B24
330
36
100
AcDbEntity
  8
0
 62
     7
100
AcDbCircle
 10
266.6758106939806
 20
-1772.924243202765
 30
0.0
 40
26.01749624624623
100
AcDbArc
 50
56.18231000000009
 51
123.8176899999999
  0
LINE
  5
B25
330
36
100
AcDbEntity
  8
0
 62
     7
100
AcDbLine
 10
273.7002689021887
 20
-1763.401073783344
 30
0.0
 11
281.4356642975842
 21
-1752.914074283845
 31
0.0
  0
ARC
  5
B26
330
36
100
AcDbEntity
  8
0
 62
     7
100
AcDbCircle
 10
280.5285997330196
 20
-1752.245007717277
 30
0.0
 40
1.127127127127125
100
AcDbArc
 50
323.5868590000046
 51
56.18231000000009
  0
ARC
  5
B27
330
36
100
AcDbEntity
  8
0
 62
     7
100
AcDbCircle
 10
272.7932043376243
 20
-1762.732007216779
 30
0.0
 40
1.127127127127125
100
AcDbArc
 50
239.0277619999989
 51
323.5868590000046
  0
ARC
  5
B28
330
36
100
AcDbEntity
  8
0
 62
     7
100
AcDbCircle
 10
266.6758106939806
 20
-1772.924243202765
 30
0.0
 40
10.76001626626626
100
AcDbArc
 50
59.02776199999889
 51
120.972238000001
  0
ARC
  5
B29
330
36
100
AcDbEntity
  8
0
 62
     7
100
AcDbCircle
 10
260.5584170503368
 20
-1762.732007216779
 30
0.0
 40
1.127127127127125
100
AcDbArc
 50
216.4131409999955
 51
300.972238000001
  0
LINE
  5
B2A
330
36
100
AcDbEntity
  8
0
 62
     7
100
AcDbLine
 10
251.9159583416282
 20
-1752.914074283845
 30
0.0
 11
259.6513537370237
 21
-1763.401073783344
 31
0.0
  0
ARC
  5
B2B
330
36
100
AcDbEntity
  8
0
 62
     7
100
AcDbCircle
 10
252.8230216549415
 20
-1752.245007717277
 30
0.0
 40
1.127127127127125
100
AcDbArc
 50
123.8176899999999
 51
216.4131409999955
  0
TEXT
  5
B2C
330
36
100
AcDbEntity
  8
0
 62
     7
100
AcDbText
 10
281.6336122455321
 20
-1769.613511220782
 30
0.0
 40
1.371824324324321
  1
N
 50
329.999989
100
AcDbText
  0
TEXT
  5
B2D
330
36
100
AcDbEntity
  8
0
 62
     7
100
AcDbText
 10
240.6931592925791
 20
-1775.978712672233
 30
0.0
 40
1.371824324324321
  1
N
 50
30.0000010000071
100
AcDbText
  0
ARC
  5
B2E
330
36
100
AcDbEntity
  8
0
 62
     3
100
AcDbCircle
 10
250.0425937270136
 20
-1767.628446155715
 30
0.0
 40
2.502872872872871
100
AcDbArc
 50
30.00000000000055
 51
76.36526199999987
  0
CIRCLE
  5
B2F
330
36
100
AcDbEntity
  8
0
 62
     7
100
AcDbCircle
 10
281.9729991324191
 20
-1781.7560775371
 30
0.0
 40
0.7508621121121121
  0
LINE
  5
B30
330
36
100
AcDbEntity
  8
0
 62
     7
100
AcDbLine
 10
290.9592578911777
 20
-1773.649981441003
 30
0.0
 11
290.0055354187052
 21
-1773.099349559121
 31
0.0
  0
LINE
  5
B31
330
36
100
AcDbEntity
  8
0
 62
     7
100
AcDbLine
 10
290.0055354187052
 20
-1773.099349559121
 30
0.0
 11
288.2535246579443
 21
-1776.133921631191
 31
0.0
  0
LINE
  5
B32
330
36
100
AcDbEntity
  8
0
 62
     7
100
AcDbLine
 10
289.2072471304171
 20
-1776.684553513074
 30
0.0
 11
290.9592578911777
 21
-1773.649981441003
 31
0.0
  0
LINE
  5
B33
330
36
100
AcDbEntity
  8
0
 62
     7
100
AcDbLine
 10
289.2072471304171
 20
-1776.684553513074
 30
0.0
 11
288.2535246579443
 21
-1776.133921631191
 31
0.0
  0
LINE
  5
B34
330
36
100
AcDbEntity
  8
0
 62
     7
100
AcDbLine
 10
285.6664213045911
 20
-1770.102849308869
 30
0.0
 11
284.7126988321187
 21
-1769.552217426988
 31
0.0
  0
LINE
  5
B35
330
36
100
AcDbEntity
  8
0
 62
     7
100
AcDbLine
 10
282.5351988321187
 20
-1773.323756466027
 30
0.0
 11
284.7126988321187
 21
-1769.552217426988
 31
0.0
  0
LINE
  5
B36
330
36
100
AcDbEntity
  8
0
 62
     7
100
AcDbLine
 10
283.4889225558423
 20
-1773.87438959916
 30
0.0
 11
285.6664213045911
 21
-1770.102849308869
 31
0.0
  0
LINE
  5
B37
330
36
100
AcDbEntity
  8
0
 62
     7
100
AcDbLine
 10
282.5351988321187
 20
-1773.323756466027
 30
0.0
 11
283.4889225558423
 21
-1773.87438959916
 31
0.0
  0
LINE
  5
B38
330
36
100
AcDbEntity
  8
0
 62
     7
100
AcDbLine
 10
250.6036785618483
 20
-1772.955272982542
 30
0.0
 11
248.8516678010878
 21
-1769.920700910472
 31
0.0
  0
LINE
  5
B39
330
36
100
AcDbEntity
  8
0
 62
     7
100
AcDbLine
 10
248.8516678010878
 20
-1769.920700910472
 30
0.0
 11
247.8979453286151
 21
-1770.471332792355
 31
0.0
  0
LINE
  5
B3A
330
36
100
AcDbEntity
  8
0
 62
     7
100
AcDbLine
 10
247.8979453286151
 20
-1770.471332792355
 30
0.0
 11
249.6499560893759
 21
-1773.505904864425
 31
0.0
  0
LINE
  5
B3B
330
36
100
AcDbEntity
  8
0
 62
     7
100
AcDbLine
 10
250.6036785618483
 20
-1772.955272982542
 30
0.0
 11
249.6499560893759
 21
-1773.505904864425
 31
0.0
  0
LINE
  5
B3C
330
36
100
AcDbEntity
  8
0
 62
     7
100
AcDbLine
 10
244.3571195027893
 20
-1777.053036996558
 30
0.0
 11
245.3108419752619
 21
-1776.502405114677
 31
0.0
  0
LINE
  5
B3D
330
36
100
AcDbEntity
  8
0
 62
     7
100
AcDbLine
 10
245.3108419752619
 20
-1776.502405114677
 30
0.0
 11
243.133343226513
 21
-1772.730866075637
 31
0.0
  0
LINE
  5
B3E
330
36
100
AcDbEntity
  8
0
 62
     7
100
AcDbLine
 10
243.133343226513
 20
-1772.730866075637
 30
0.0
 11
242.1796207540406
 21
-1773.281497957519
 31
0.0
  0
LINE
  5
B3F
330
36
100
AcDbEntity
  8
0
 62
     7
100
AcDbLine
 10
244.3571195027893
 20
-1777.053036996558
 30
0.0
 11
242.1796207540406
 21
-1773.281497957519
 31
0.0
  0
LINE
  5
B40
330
36
100
AcDbEntity
  8
0
 62
     7
100
AcDbLine
 10
258.6128715047914
 20
-1786.827602812374
 30
0.0
 11
260.3648822655521
 21
-1789.862174884445
 31
0.0
  0
LINE
  5
B41
330
36
100
AcDbEntity
  8
0
 62
     7
100
AcDbLine
 10
258.6128715047914
 20
-1786.827602812374
 30
0.0
 11
257.659149032319
 21
-1787.378234694256
 31
0.0
  0
LINE
  5
B42
330
36
100
AcDbEntity
  8
0
 62
     7
100
AcDbLine
 10
259.4111597930797
 20
-1790.412806766328
 30
0.0
 11
257.659149032319
 21
-1787.378234694256
 31
0.0
  0
LINE
  5
B43
330
36
100
AcDbEntity
  8
0
 62
     7
100
AcDbLine
 10
260.3648822655521
 20
-1789.862174884445
 30
0.0
 11
259.4111597930797
 21
-1790.412806766328
 31
0.0
  0
LINE
  5
B44
330
36
100
AcDbEntity
  8
0
 62
     7
100
AcDbLine
 10
252.8945469302168
 20
-1789.637766726288
 30
0.0
 11
255.0720456789657
 21
-1793.409307016578
 31
0.0
  0
LINE
  5
B45
330
36
100
AcDbEntity
  8
0
 62
     7
100
AcDbLine
 10
255.0720456789657
 20
-1793.409307016578
 30
0.0
 11
254.1183232064931
 21
-1793.959938898459
 31
0.0
  0
LINE
  5
B46
330
36
100
AcDbEntity
  8
0
 62
     7
100
AcDbLine
 10
251.9408244577444
 20
-1790.188398608169
 30
0.0
 11
254.1183232064931
 21
-1793.959938898459
 31
0.0
  0
LINE
  5
B47
330
36
100
AcDbEntity
  8
0
 62
     7
100
AcDbLine
 10
251.9408244577444
 20
-1790.188398608169
 30
0.0
 11
252.8945469302168
 21
-1789.637766726288
 31
0.0
  0
TEXT
  5
B48
330
36
100
AcDbEntity
  8
0
 62
     7
100
AcDbText
 10
250.4543629962828
 20
-1792.885613322883
 30
0.0
 40
1.371824324324321
  1
N
 50
30.0000010000071
100
AcDbText
  0
TEXT
  5
B49
330
36
100
AcDbEntity
  8
0
 62
     7
100
AcDbText
 10
271.8724072905772
 20
-1786.520411871433
 30
0.0
 40
1.371824324324321
  1
N
 50
329.999989
100
AcDbText
  0
LINE
  5
B4A
330
36
100
AcDbEntity
  8
0
 62
     7
100
AcDbLine
 10
274.951495128415
 20
-1786.459118077639
 30
0.0
 11
275.9052176008874
 21
-1787.009751210772
 31
0.0
  0
LINE
  5
B4B
330
36
100
AcDbEntity
  8
0
 62
     7
100
AcDbLine
 10
274.951495128415
 20
-1786.459118077639
 30
0.0
 11
272.7739951284149
 21
-1790.23065836793
 31
0.0
  0
LINE
  5
B4C
330
36
100
AcDbEntity
  8
0
 62
     7
100
AcDbLine
 10
275.9052176008874
 20
-1787.009751210772
 30
0.0
 11
273.7277176008876
 21
-1790.78129024981
 31
0.0
  0
LINE
  5
B4D
330
36
100
AcDbEntity
  8
0
 62
     7
100
AcDbLine
 10
273.7277176008876
 20
-1790.78129024981
 30
0.0
 11
272.7739951284149
 21
-1790.23065836793
 31
0.0
  0
LINE
  5
B4E
330
36
100
AcDbEntity
  8
0
 62
     7
100
AcDbLine
 10
281.198054187474
 20
-1790.556883342903
 30
0.0
 11
280.2443317150014
 21
-1790.006250209772
 31
0.0
  0
LINE
  5
B4F
330
36
100
AcDbEntity
  8
0
 62
     7
100
AcDbLine
 10
278.4923197029895
 20
-1793.040822281844
 30
0.0
 11
280.2443317150014
 21
-1790.006250209772
 31
0.0
  0
LINE
  5
B50
330
36
100
AcDbEntity
  8
0
 62
     7
100
AcDbLine
 10
281.198054187474
 20
-1790.556883342903
 30
0.0
 11
279.4460434267133
 21
-1793.591455414975
 31
0.0
  0
LINE
  5
B51
330
36
100
AcDbEntity
  8
0
 62
     7
100
AcDbLine
 10
279.4460434267133
 20
-1793.591455414975
 30
0.0
 11
278.4923197029895
 21
-1793.040822281844
 31
0.0
  0
LINE
  5
B52
330
36
100
AcDbEntity
  8
0
 62
     3
100
AcDbLine
 10
395.5526892863044
 20
-1732.731277737298
 30
0.0
 11
395.9194222692875
 21
-1726.137137346909
 31
0.0
  0
LINE
  5
B53
330
36
100
AcDbEntity
  8
0
 62
     3
100
AcDbLine
 10
394.651302899918
 20
-1748.93890911868
 30
0.0
 11
390.7148001471652
 21
-1819.720247957518
 31
0.0
  0
LINE
  5
B54
330
36
100
AcDbEntity
  8
0
 62
     3
100
AcDbLine
 10
400.8883386857037
 20
-1730.375310520081
 30
0.0
 11
401.1240443914095
 21
-1726.137137346909
 31
0.0
  0
LINE
  5
B55
330
36
100
AcDbEntity
  8
0
 62
     3
100
AcDbLine
 10
399.6928006476657
 20
-1751.871999709272
 30
0.0
 11
395.9194222692875
 21
-1819.720247957518
 31
0.0
  0
LINE
  5
B56
330
36
100
AcDbEntity
  8
0
 62
     3
100
AcDbLine
 10
406.0665056026206
 20
-1730.850997457019
 30
0.0
 11
406.3286665135317
 21
-1726.137137346909
 31
0.0
  0
LINE
  5
B57
330
36
100
AcDbEntity
  8
0
 62
     3
100
AcDbLine
 10
404.8917821291472
 20
-1751.973438648209
 30
0.0
 11
401.1240443914095
 21
-1819.720247957518
 31
0.0
  0
LINE
  5
B58
330
36
100
AcDbEntity
  8
0
 62
     3
100
AcDbLine
 10
411.0753006476659
 20
-1734.372119829392
 30
0.0
 11
411.5332886356536
 21
-1726.137137346909
 31
0.0
  0
LINE
  5
B59
330
36
100
AcDbEntity
  8
0
 62
     3
100
AcDbLine
 10
410.2601342312491
 20
-1749.029440900461
 30
0.0
 11
406.3286665135317
 21
-1819.720247957518
 31
0.0
  0
CIRCLE
  5
B5A
330
36
100
AcDbEntity
  8
0
 62
     7
100
AcDbCircle
 10
402.5005971942125
 20
-1741.246565525086
 30
0.0
 40
10.99015765765765
  0
CIRCLE
  5
B5B
330
36
100
AcDbEntity
  8
0
 62
     7
100
AcDbCircle
 10
436.7580759229409
 20
-1774.162010970531
 30
0.0
 40
10.99015765765765
  0
CIRCLE
  5
B5C
330
36
100
AcDbEntity
  8
0
 62
     7
100
AcDbCircle
 10
379.9158249219402
 20
-1773.657264974534
 30
0.0
 40
10.99015765765765
  0
LINE
  5
B5D
330
36
100
AcDbEntity
  8
0
 62
     3
100
AcDbLine
 10
438.4652668638818
 20
-1833.681939649211
 30
0.0
 11
438.4652668638818
 21
-1785.018762722284
 31
0.0
  0
LINE
  5
B5E
330
36
100
AcDbEntity
  8
0
 62
     3
100
AcDbLine
 10
438.4652668638818
 20
-1712.181939649211
 30
0.0
 11
438.4652668638818
 21
-1763.305259218781
 31
0.0
  0
LINE
  5
B5F
330
36
100
AcDbEntity
  8
0
 62
     3
100
AcDbLine
 10
434.9652668638819
 20
-1712.181939649211
 30
0.0
 11
434.9652668638819
 21
-1763.31906927884
 31
0.0
  0
LINE
  5
B60
330
36
100
AcDbEntity
  8
0
 62
     3
100
AcDbLine
 10
378.1967433403587
 20
-1712.181939649211
 30
0.0
 11
378.1967433403587
 21
-1762.802388848409
 31
0.0
  0
LINE
  5
B61
330
36
100
AcDbEntity
  8
0
 62
     3
100
AcDbLine
 10
381.6967433403584
 20
-1712.181939649211
 30
0.0
 11
381.6967433403584
 21
-1762.812362572133
 31
0.0
  0
LINE
  5
B62
330
36
100
AcDbEntity
  8
0
 62
     3
100
AcDbLine
 10
378.1967433403587
 20
-1833.681939649211
 30
0.0
 11
378.1967433403587
 21
-1784.512139849411
 31
0.0
  0
LINE
  5
B63
330
36
100
AcDbEntity
  8
0
 62
     3
100
AcDbLine
 10
381.6967433403584
 20
-1833.681939649211
 30
0.0
 11
381.6967433403584
 21
-1784.502166125686
 31
0.0
  0
LINE
  5
B64
330
36
100
AcDbEntity
  8
0
 62
     3
100
AcDbLine
 10
430.1701054524705
 20
-1765.365296756317
 30
0.0
 11
432.3517783753936
 21
-1726.137137346909
 31
0.0
  0
LINE
  5
B65
330
36
100
AcDbEntity
  8
0
 62
     3
100
AcDbLine
 10
429.2352918889069
 20
-1782.173957917479
 30
0.0
 11
427.1471562532714
 21
-1819.720247957518
 31
0.0
  0
LINE
  5
B66
330
36
100
AcDbEntity
  8
0
 62
     3
100
AcDbLine
 10
383.3360101071253
 20
-1768.177184894456
 30
0.0
 11
383.3360101071253
 21
-1777.686694403965
 31
0.0
  0
LINE
  5
B67
330
36
100
AcDbEntity
  8
0
 62
     7
100
AcDbLine
 10
436.8295036006186
 20
-1770.242866826388
 30
0.0
 11
434.3270010981162
 21
-1770.242866826388
 31
0.0
  0
LINE
  5
B68
330
36
100
AcDbEntity
  8
0
 62
     7
100
AcDbLine
 10
434.3270010981162
 20
-1770.242866826388
 30
0.0
 11
434.3270010981162
 21
-1775.621012472033
 31
0.0
  0
LINE
  5
B69
330
36
100
AcDbEntity
  8
0
 62
     7
100
AcDbLine
 10
436.8295036006186
 20
-1775.621012472033
 30
0.0
 11
434.3270010981162
 21
-1775.621012472033
 31
0.0
  0
LINE
  5
B6A
330
36
100
AcDbEntity
  8
0
 62
     7
100
AcDbLine
 10
436.8295036006186
 20
-1770.242866826388
 30
0.0
 11
436.8295036006186
 21
-1775.621012472033
 31
0.0
  0
LINE
  5
B6B
330
36
100
AcDbEntity
  8
0
 62
     7
100
AcDbLine
 10
434.3270010981162
 20
-1777.686694403965
 30
0.0
 11
434.3270010981162
 21
-1780.939947657219
 31
0.0
  0
LINE
  5
B6C
330
36
100
AcDbEntity
  8
0
 62
     7
100
AcDbLine
 10
434.3270010981162
 20
-1764.923931641202
 30
0.0
 11
434.3270010981162
 21
-1768.177184894456
 31
0.0
  0
LINE
  5
B6D
330
36
100
AcDbEntity
  8
0
 62
     7
100
AcDbLine
 10
379.4823401872053
 20
-1774.154228187749
 30
0.0
 11
383.3360101071253
 21
-1774.154228187749
 31
0.0
  0
LINE
  5
B6E
330
36
100
AcDbEntity
  8
0
 62
     7
100
AcDbLine
 10
379.4823401872053
 20
-1771.70964985942
 30
0.0
 11
383.3360101071253
 21
-1771.70964985942
 31
0.0
  0
LINE
  5
B6F
330
36
100
AcDbEntity
  8
0
 62
     7
100
AcDbLine
 10
413.4687716186367
 20
-1740.551797006568
 30
0.0
 11
391.532422769788
 21
-1740.551797006568
 31
0.0
  0
LINE
  5
B70
330
36
100
AcDbEntity
  8
0
 62
     7
100
AcDbLine
 10
391.7061139609793
 20
-1739.181939649211
 30
0.0
 11
413.2950804274456
 21
-1739.181939649211
 31
0.0
  0
TEXT
  5
B71
330
36
100
AcDbEntity
  8
0
 62
     3
100
AcDbText
 10
505.3518274043266
 20
-1799.117831646538
 30
0.0
 40
3.2
  1
15A 125V
  7
高3.2
100
AcDbText
  0
LINE
  5
B72
330
36
100
AcDbEntity
  8
0
 62
     7
100
AcDbLine
 10
505.1039728851383
 20
-1799.891863008249
 30
0.0
 11
529.0035755732301
 21
-1799.891863008249
 31
0.0
  0
TEXT
  5
B73
330
36
100
AcDbEntity
  8
0
 62
     3
100
AcDbText
 10
507.6344856300031
 20
-1793.658707474149
 30
0.0
 40
3.2
  1
2Pプラグ
  7
高3.2
100
AcDbText
  0
LINE
  5
B74
330
36
100
AcDbEntity
  8
0
 62
     7
100
AcDbLine
 10
524.5789015666064
 20
-1794.265136216688
 30
0.0
 11
507.6344856300031
 21
-1794.265136216688
 31
0.0
  0
LINE
  5
B76
330
36
100
AcDbEntity
  8
0
 62
     3
100
AcDbLine
 10
427.5404082552732
 20
-1768.177184894456
 30
0.0
 11
438.3310051021203
 21
-1768.177184894456
 31
0.0
  0
LINE
  5
B77
330
36
100
AcDbEntity
  8
0
 62
     3
100
AcDbLine
 10
389.4422238208388
 20
-1768.177184894456
 30
0.0
 11
383.3360101071253
 21
-1768.177184894456
 31
0.0
  0
LINE
  5
B78
330
36
100
AcDbEntity
  8
0
 62
     3
100
AcDbLine
 10
426.3484563033211
 20
-1777.686694403965
 30
0.0
 11
438.3310051021203
 21
-1777.686694403965
 31
0.0
  0
LINE
  5
B79
330
36
100
AcDbEntity
  8
0
 62
     3
100
AcDbLine
 10
390.140659756775
 20
-1777.686694403965
 30
0.0
 11
383.3360101071253
 21
-1777.686694403965
 31
0.0
  0
CIRCLE
  5
B7A
330
36
100
AcDbEntity
  8
0
 62
     7
100
AcDbCircle
 10
293.5225987320185
 20
-1788.42393914871
 30
0.0
 40
2.002002002002001
  0
CIRCLE
  5
B7B
330
36
100
AcDbEntity
  8
0
 62
     7
100
AcDbCircle
 10
239.8290239071937
 20
-1788.42393914871
 30
0.0
 40
2.002002002002001
  0
CIRCLE
  5
B7C
330
36
100
AcDbEntity
  8
0
 62
     7
100
AcDbCircle
 10
251.3786235067934
 20
-1781.7560775371
 30
0.0
 40
1.75201076076076
  0
CIRCLE
  5
B7D
330
36
100
AcDbEntity
  8
0
 62
     7
100
AcDbCircle
 10
251.3786235067934
 20
-1781.7560775371
 30
0.0
 40
0.7508621121121121
  0
CIRCLE
  5
B7E
330
36
100
AcDbEntity
  8
0
 62
     7
100
AcDbCircle
 10
281.9729991324191
 20
-1781.7560775371
 30
0.0
 40
1.75201076076076
  0
LINE
  5
B81
330
36
100
AcDbEntity
  8
0
 62
     3
100
AcDbLine
 10
383.3360101071253
 20
-1808.011608067628
 30
0.0
 11
383.3360101071253
 21
-1778.698128337899
 31
0.0
  0
LINE
  5
B82
330
36
100
AcDbEntity
  8
0
 62
     3
100
AcDbLine
 10
388.4566307277459
 20
-1766.740749709271
 30
0.0
 11
390.7148001471652
 21
-1726.137137346909
 31
0.0
  0
LINE
  5
B83
330
36
100
AcDbEntity
  8
0
 62
     3
100
AcDbLine
 10
387.6370086056238
 20
-1781.478189649211
 30
0.0
 11
385.5101780250431
 21
-1819.720247957518
 31
0.0
  0
LINE
  5
B84
330
36
100
AcDbEntity
  8
0
 62
     3
100
AcDbLine
 10
385.5101780250431
 20
-1726.137137346909
 30
0.0
 11
383.3360101071253
 21
-1763.212845555116
 31
0.0
  0
LINE
  5
B85
330
36
100
AcDbEntity
  8
0
 62
     3
100
AcDbLine
 10
260.1200499332197
 20
-1701.451949659221
 30
0.0
 11
256.2319042875742
 21
-1711.30271917874
 31
0.0
  0
LINE
  5
B86
330
36
100
AcDbEntity
  8
0
 62
     3
100
AcDbLine
 10
268.9347508841708
 20
-1704.953042001562
 30
0.0
 11
266.7481517850716
 21
-1710.423981691252
 31
0.0
  0
CIRCLE
  5
B87
330
36
100
AcDbEntity
  8
0
 62
     7
100
AcDbCircle
 10
363.5776079549732
 20
-1676.496656866428
 30
0.0
 40
5.0
  0
TEXT
  5
B88
330
36
100
AcDbEntity
  8
0
 62
     4
100
AcDbText
 10
361.2435554608233
 20
-1679.690502702251
 30
0.0
 40
6.299999999999998
  1
3
  7
高6.3
100
AcDbText
  0
LINE
  5
B89
330
36
100
AcDbEntity
  8
0
 62
     3
100
AcDbLine
 10
216.9599235568434
 20
-1810.799796255817
 30
0.0
 11
204.5256180012878
 21
-1841.398832792353
 31
0.0
  0
ARC
  5
B8A
330
36
100
AcDbEntity
  8
0
 62
     3
100
AcDbCircle
 10
380.9886327297478
 20
-1703.88785931888
 30
0.0
 40
1.370400400400399
100
AcDbArc
 50
191.7875739999952
 51
0.0
  0
ARC
  5
B8B
330
36
100
AcDbEntity
  8
0
 62
     3
100
AcDbCircle
 10
380.9886327297478
 20
-1691.613645104667
 30
0.0
 40
1.370400400400399
100
AcDbArc
 50
0.0
 51
168.2124260000047
  0
LINE
  5
B8C
330
36
100
AcDbEntity
  8
0
 62
     3
100
AcDbLine
 10
382.3590331301484
 20
-1691.494495955517
 30
0.0
 11
382.3590331301484
 21
-1704.00700846803
 31
0.0
  0
LINE
  5
B8D
330
36
100
AcDbEntity
  8
0
 62
     3
100
AcDbLine
 10
382.3590331301484
 20
-1697.750752211774
 30
0.0
 11
382.3590331301484
 21
-1691.494495955517
 31
0.0
  0
ARC
  5
B90
330
36
100
AcDbEntity
  8
0
 62
     3
100
AcDbCircle
 10
405.2610038508689
 20
-1697.750752211774
 30
0.0
 40
26.40547422422422
100
AcDbArc
 50
165.6859130000007
 51
194.3140869999992
  0
LINE
  5
B91
330
36
100
AcDbEntity
  8
0
 62
     3
100
AcDbLine
 10
438.3310051021203
 20
-1693.03868889846
 30
0.0
 11
407.8845586556735
 21
-1693.03868889846
 31
0.0
  0
LINE
  5
B92
330
36
100
AcDbEntity
  8
0
 62
     3
100
AcDbLine
 10
438.3310051021203
 20
-1702.54819840797
 30
0.0
 11
407.8845586556735
 21
-1702.54819840797
 31
0.0
  0
LINE
  5
B93
330
36
100
AcDbEntity
  8
0
 62
     3
100
AcDbLine
 10
405.8825566536716
 20
-1704.00700846803
 30
0.0
 11
405.8825566536716
 21
-1697.750752211774
 31
0.0
  0
LINE
  5
B94
330
36
100
AcDbEntity
  8
0
 62
     3
100
AcDbLine
 10
407.8845586556735
 20
-1704.00700846803
 30
0.0
 11
407.8845586556735
 21
-1697.750752211774
 31
0.0
  0
LINE
  5
B95
330
36
100
AcDbEntity
  8
0
 62
     3
100
AcDbLine
 10
394.8715456426607
 20
-1704.00700846803
 30
0.0
 11
394.8715456426607
 21
-1697.750752211774
 31
0.0
  0
LINE
  5
B96
330
36
100
AcDbEntity
  8
0
 62
     3
100
AcDbLine
 10
392.8695436406588
 20
-1704.00700846803
 30
0.0
 11
392.8695436406588
 21
-1697.750752211774
 31
0.0
  0
LINE
  5
B99
330
36
100
AcDbEntity
  8
0
 62
     3
100
AcDbLine
 10
405.8825566536716
 20
-1691.494495955517
 30
0.0
 11
405.8825566536716
 21
-1697.750752211774
 31
0.0
  0
LINE
  5
B9A
330
36
100
AcDbEntity
  8
0
 62
     3
100
AcDbLine
 10
407.8845586556735
 20
-1691.494495955517
 30
0.0
 11
407.8845586556735
 21
-1697.750752211774
 31
0.0
  0
LINE
  5
B9B
330
36
100
AcDbEntity
  8
0
 62
     3
100
AcDbLine
 10
394.8715456426607
 20
-1691.494495955517
 30
0.0
 11
394.8715456426607
 21
-1697.750752211774
 31
0.0
  0
LINE
  5
B9C
330
36
100
AcDbEntity
  8
0
 62
     3
100
AcDbLine
 10
392.8695436406588
 20
-1691.494495955517
 30
0.0
 11
392.8695436406588
 21
-1697.750752211774
 31
0.0
  0
ARC
  5
B9F
330
36
100
AcDbEntity
  8
0
 62
     3
100
AcDbCircle
 10
393.8705446416597
 20
-1704.00700846803
 30
0.0
 40
1.001001001001001
100
AcDbArc
 50
180.0
 51
0.0
  0
ARC
  5
BA0
330
36
100
AcDbEntity
  8
0
 62
     3
100
AcDbCircle
 10
406.8835576546726
 20
-1704.00700846803
 30
0.0
 40
1.001001001001001
100
AcDbArc
 50
180.0
 51
0.0
  0
ARC
  5
BA3
330
36
100
AcDbEntity
  8
0
 62
     3
100
AcDbCircle
 10
406.8835576546726
 20
-1691.494495955517
 30
0.0
 40
1.001001001001001
100
AcDbArc
 50
0.0
 51
180.0
  0
ARC
  5
BA4
330
36
100
AcDbEntity
  8
0
 62
     3
100
AcDbCircle
 10
393.8705446416597
 20
-1691.494495955517
 30
0.0
 40
1.001001001001001
100
AcDbArc
 50
0.0
 51
180.0
  0
LINE
  5
BA5
330
36
100
AcDbEntity
  8
0
 62
     3
100
AcDbLine
 10
382.3590331301484
 20
-1704.00700846803
 30
0.0
 11
392.8695436406588
 21
-1704.00700846803
 31
0.0
  0
LINE
  5
BA6
330
36
100
AcDbEntity
  8
0
 62
     3
100
AcDbLine
 10
394.8715456426607
 20
-1704.00700846803
 30
0.0
 11
405.8825566536716
 21
-1704.00700846803
 31
0.0
  0
LINE
  5
BAB
330
36
100
AcDbEntity
  8
0
 62
     3
100
AcDbLine
 10
394.8715456426607
 20
-1691.494495955517
 30
0.0
 11
405.8825566536716
 21
-1691.494495955517
 31
0.0
  0
LINE
  5
BAC
330
36
100
AcDbEntity
  8
0
 62
     3
100
AcDbLine
 10
382.3590331301484
 20
-1691.494495955517
 30
0.0
 11
392.8695436406588
 21
-1691.494495955517
 31
0.0
  0
CIRCLE
  5
BB1
330
36
100
AcDbEntity
  8
0
 62
     7
100
AcDbCircle
 10
292.6655829662528
 20
-1678.921426636196
 30
0.0
 40
5.0
  0
TEXT
  5
BB2
330
36
100
AcDbEntity
  8
0
 62
     4
100
AcDbText
 10
290.4931805831917
 20
-1682.088588164975
 30
0.0
 40
6.299999999999998
  1
8
  7
高6.3
100
AcDbText
  0
CIRCLE
  5
BB3
330
36
100
AcDbEntity
  8
0
 62
     7
100
AcDbCircle
 10
312.8412711544411
 20
-1678.921426636196
 30
0.0
 40
5.0
  0
TEXT
  5
BB4
330
36
100
AcDbEntity
  8
0
 62
     4
100
AcDbText
 10
310.3656381119727
 20
-1682.11229989524
 30
0.0
 40
6.299999999999998
  1
9
  7
高6.3
100
AcDbText
  0
CIRCLE
  5
BB5
330
36
100
AcDbEntity
  8
0
 62
     7
100
AcDbCircle
 10
343.6090181151332
 20
-1831.694286996558
 30
0.0
 40
5.0
  0
TEXT
  5
BB6
330
36
100
AcDbEntity
  8
0
 62
     4
100
AcDbText
 10
341.5374352383182
 20
-1834.725219787644
 30
0.0
 40
6.299999999999998
  1
6
  7
高6.3
100
AcDbText
  0
CIRCLE
  5
BB7
330
36
100
AcDbEntity
  8
0
 62
     7
100
AcDbCircle
 10
390.496655752771
 20
-1676.791654363924
 30
0.0
 40
5.0
  0
TEXT
  5
BB8
330
36
100
AcDbEntity
  8
0
 62
     4
100
AcDbText
 10
389.5072169439377
 20
-1679.953864083547
 30
0.0
 40
6.299999999999998
  1
1
  7
高6.3
100
AcDbText
  0
CIRCLE
  5
BB9
330
36
100
AcDbEntity
  8
0
 62
     7
100
AcDbCircle
 10
419.9898239209391
 20
-1676.496656866428
 30
0.0
 40
5.0
  0
TEXT
  5
BBA
330
36
100
AcDbEntity
  8
0
 62
     4
100
AcDbText
 10
417.9930349230584
 20
-1679.853101699277
 30
0.0
 40
6.299999999999998
  1
5
  7
高6.3
100
AcDbText
  0
CIRCLE
  5
BBB
330
36
100
AcDbEntity
  8
0
 62
     7
100
AcDbCircle
 10
443.8526792762941
 20
-1676.496656866428
 30
0.0
 40
5.0
  0
TEXT
  5
BBC
330
36
100
AcDbEntity
  8
0
 62
     4
100
AcDbText
 10
441.1550257842086
 20
-1679.598876438104
 30
0.0
 40
6.299999999999998
  1
4
  7
高6.3
100
AcDbText
  0
CIRCLE
  5
BBD
330
36
100
AcDbEntity
  8
0
 62
     7
100
AcDbCircle
 10
463.8228794764946
 20
-1676.496656866428
 30
0.0
 40
5.0
  0
TEXT
  5
BBE
330
36
100
AcDbEntity
  8
0
 62
     4
100
AcDbText
 10
461.9062844240551
 20
-1679.67920617687
 30
0.0
 40
6.299999999999998
  1
2
  7
高6.3
100
AcDbText
  0
CIRCLE
  5
BBF
330
36
100
AcDbEntity
  8
0
 62
     7
100
AcDbCircle
 10
485.0962053023206
 20
-1738.940484444005
 30
0.0
 40
5.0
  0
TEXT
  5
BC0
330
36
100
AcDbEntity
  8
0
 62
     4
100
AcDbText
 10
483.4037886476667
 20
-1742.595472911105
 30
0.0
 40
6.299999999999998
  1
7
  7
高6.3
100
AcDbText
  0
ARC
  5
BDD
330
36
100
AcDbEntity
  8
0
 62
     7
100
AcDbCircle
 10
403.2865081051231
 20
-1691.744746205768
 30
0.0
 40
1.001001001001001
100
AcDbArc
 50
351.9682910000017
 51
14.4775119999986
  0
ARC
  5
BDE
330
36
100
AcDbEntity
  8
0
 62
     7
100
AcDbCircle
 10
398.1247988959138
 20
-1691.58138784741
 30
0.0
 40
2.170173923923923
100
AcDbArc
 50
188.0317089999983
 51
270.0
  0
ARC
  5
BDF
330
36
100
AcDbEntity
  8
0
 62
     7
100
AcDbCircle
 10
396.9670936907089
 20
-1691.744746205768
 30
0.0
 40
1.001001001001001
100
AcDbArc
 50
165.5224880000014
 51
188.0317089999983
  0
LINE
  5
BE0
330
36
100
AcDbEntity
  8
0
 62
     7
100
AcDbLine
 10
402.1288028999181
 20
-1693.751561771334
 30
0.0
 11
398.1247988959138
 21
-1693.751561771334
 31
0.0
  0
ARC
  5
BE1
330
36
100
AcDbEntity
  8
0
 62
     7
100
AcDbCircle
 10
402.1288028999181
 20
-1691.58138784741
 30
0.0
 40
2.170173923923923
100
AcDbArc
 50
270.0
 51
351.9682910000017
  0
ARC
  5
BE2
330
36
100
AcDbEntity
  8
0
 62
     7
100
AcDbCircle
 10
403.2865081051231
 20
-1703.756758217779
 30
0.0
 40
1.001001001001001
100
AcDbArc
 50
345.5224880000014
 51
8.031708999998296
  0
ARC
  5
BE3
330
36
100
AcDbEntity
  8
0
 62
     7
100
AcDbCircle
 10
396.9670936907089
 20
-1703.756758217779
 30
0.0
 40
1.001001001001001
100
AcDbArc
 50
171.9682910000017
 51
194.4775119999985
  0
ARC
  5
BE4
330
36
100
AcDbEntity
  8
0
 62
     7
100
AcDbCircle
 10
390.7739955926108
 20
-1703.756758217779
 30
0.0
 40
1.001001001001001
100
AcDbArc
 50
345.5224880000014
 51
8.031708999998296
  0
ARC
  5
BE5
330
36
100
AcDbEntity
  8
0
 62
     7
100
AcDbCircle
 10
384.4545811781964
 20
-1703.756758217779
 30
0.0
 40
1.001001001001001
100
AcDbArc
 50
171.9682910000017
 51
194.4775119999985
  0
ARC
  5
BE6
330
36
100
AcDbEntity
  8
0
 62
     7
100
AcDbCircle
 10
385.6122863834015
 20
-1703.920116576137
 30
0.0
 40
2.170173923923923
100
AcDbArc
 50
90.0
 51
171.9682910000017
  0
ARC
  5
BE7
330
36
100
AcDbEntity
  8
0
 62
     7
100
AcDbCircle
 10
389.6162903874056
 20
-1703.920116576137
 30
0.0
 40
2.170173923923923
100
AcDbArc
 50
8.031708999998296
 51
90.0
  0
ARC
  5
BE8
330
36
100
AcDbEntity
  8
0
 62
     7
100
AcDbCircle
 10
398.1247988959138
 20
-1703.920116576137
 30
0.0
 40
2.170173923923923
100
AcDbArc
 50
90.0
 51
171.9682910000017
  0
ARC
  5
BE9
330
36
100
AcDbEntity
  8
0
 62
     7
100
AcDbCircle
 10
402.1288028999181
 20
-1703.920116576137
 30
0.0
 40
2.170173923923923
100
AcDbArc
 50
8.031708999998296
 51
90.0
  0
ARC
  5
BEA
330
36
100
AcDbEntity
  8
0
 62
     7
100
AcDbCircle
 10
390.7739955926108
 20
-1691.744746205768
 30
0.0
 40
1.001001001001001
100
AcDbArc
 50
351.9682910000017
 51
14.4775119999986
  0
ARC
  5
BEB
330
36
100
AcDbEntity
  8
0
 62
     7
100
AcDbCircle
 10
385.6122863834015
 20
-1691.58138784741
 30
0.0
 40
2.170173923923923
100
AcDbArc
 50
188.0317089999983
 51
270.0
  0
ARC
  5
BEC
330
36
100
AcDbEntity
  8
0
 62
     7
100
AcDbCircle
 10
384.4545811781964
 20
-1691.744746205768
 30
0.0
 40
1.001001001001001
100
AcDbArc
 50
165.5224880000014
 51
188.0317089999983
  0
LINE
  5
BED
330
36
100
AcDbEntity
  8
0
 62
     7
100
AcDbLine
 10
385.6122863834015
 20
-1693.751561771334
 30
0.0
 11
389.6162903874056
 21
-1693.751561771334
 31
0.0
  0
ARC
  5
BEE
330
36
100
AcDbEntity
  8
0
 62
     7
100
AcDbCircle
 10
389.6162903874056
 20
-1691.58138784741
 30
0.0
 40
2.170173923923923
100
AcDbArc
 50
270.0
 51
351.9682910000017
  0
ARC
  5
BEF
330
36
100
AcDbEntity
  8
0
 62
     7
100
AcDbCircle
 10
389.6162903874056
 20
-1697.750752211774
 30
0.0
 40
2.502502502502501
100
AcDbArc
 50
270.0
 51
90.0
  0
LINE
  5
BF0
330
36
100
AcDbEntity
  8
0
 62
     7
100
AcDbLine
 10
385.6122863834015
 20
-1695.248249709271
 30
0.0
 11
389.6162903874056
 21
-1695.248249709271
 31
0.0
  0
ARC
  5
BF1
330
36
100
AcDbEntity
  8
0
 62
     7
100
AcDbCircle
 10
385.6122863834015
 20
-1697.750752211774
 30
0.0
 40
2.502502502502501
100
AcDbArc
 50
90.0
 51
270.0
  0
LINE
  5
BF2
330
36
100
AcDbEntity
  8
0
 62
     7
100
AcDbLine
 10
385.6122863834015
 20
-1700.253254714275
 30
0.0
 11
389.6162903874056
 21
-1700.253254714275
 31
0.0
  0
LINE
  5
BF3
330
36
100
AcDbEntity
  8
0
 62
     7
100
AcDbLine
 10
385.6122863834015
 20
-1701.749941400963
 30
0.0
 11
389.6162903874056
 21
-1701.749941400963
 31
0.0
  0
LINE
  5
BF4
330
36
100
AcDbEntity
  8
0
 62
     7
100
AcDbLine
 10
402.1288028999181
 20
-1701.749941400963
 30
0.0
 11
398.1247988959138
 21
-1701.749941400963
 31
0.0
  0
LINE
  5
BF5
330
36
100
AcDbEntity
  8
0
 62
     7
100
AcDbLine
 10
402.1288028999181
 20
-1700.253254714275
 30
0.0
 11
398.1247988959138
 21
-1700.253254714275
 31
0.0
  0
ARC
  5
BF6
330
36
100
AcDbEntity
  8
0
 62
     7
100
AcDbCircle
 10
402.1288028999181
 20
-1697.750752211774
 30
0.0
 40
2.502502502502501
100
AcDbArc
 50
270.0
 51
90.0
  0
LINE
  5
BF7
330
36
100
AcDbEntity
  8
0
 62
     7
100
AcDbLine
 10
402.1288028999181
 20
-1695.248249709271
 30
0.0
 11
398.1247988959138
 21
-1695.248249709271
 31
0.0
  0
ARC
  5
BF8
330
36
100
AcDbEntity
  8
0
 62
     7
100
AcDbCircle
 10
398.1247988959138
 20
-1697.750752211774
 30
0.0
 40
2.502502502502501
100
AcDbArc
 50
90.0
 51
270.0
  0
ARC
  5
BF9
330
36
100
AcDbEntity
  8
0
 62
     7
100
AcDbCircle
 10
262.6841440273139
 20
-1742.182003463025
 30
0.0
 40
0.5
100
AcDbArc
 50
3.699071000002764
 51
97.39814200000178
  0
CIRCLE
  5
BFA
330
36
100
AcDbEntity
  8
0
 62
     7
100
AcDbCircle
 10
266.6758106939806
 20
-1772.92393914871
 30
0.0
 40
35.0
  0
CIRCLE
  5
BFB
330
36
100
AcDbEntity
  8
0
 62
     7
100
AcDbCircle
 10
266.6758106939806
 20
-1772.92393914871
 30
0.0
 40
38.50000000000001
  0
CIRCLE
  5
BFC
330
36
100
AcDbEntity
  8
0
 62
     7
100
AcDbCircle
 10
266.6758106939806
 20
-1772.92393914871
 30
0.0
 40
42.0
  0
ARC
  5
BFD
330
36
100
AcDbEntity
  8
0
 62
     7
100
AcDbCircle
 10
266.6758106939806
 20
-1772.92393914871
 30
0.0
 40
31.5
100
AcDbArc
 50
97.39814200000178
 51
202.6018580000027
  0
ARC
  5
BFE
330
36
100
AcDbEntity
  8
0
 62
     7
100
AcDbCircle
 10
266.6758106939806
 20
-1741.92393914871
 30
0.0
 40
3.499999999999998
100
AcDbArc
 50
183.6990710000027
 51
356.3009289999972
  0
ARC
  5
BFF
330
36
100
AcDbEntity
  8
0
 62
     7
100
AcDbCircle
 10
266.6758106939806
 20
-1772.92393914871
 30
0.0
 40
31.5
100
AcDbArc
 50
337.3981419999974
 51
82.60185799999822
  0
ARC
  5
C00
330
36
100
AcDbEntity
  8
0
 62
     7
100
AcDbCircle
 10
270.6674773606472
 20
-1742.182003463025
 30
0.0
 40
0.5
100
AcDbArc
 50
82.60185799999822
 51
176.3009289999972
  0
CIRCLE
  5
C01
330
36
100
AcDbEntity
  8
0
 62
     7
100
AcDbCircle
 10
266.6758106939806
 20
-1741.92393914871
 30
0.0
 40
2.002002002002001
  0
ARC
  5
C02
330
36
100
AcDbEntity
  8
0
 62
     7
100
AcDbCircle
 10
238.0566803136002
 20
-1784.838021981543
 30
0.0
 40
0.5
100
AcDbArc
 50
202.6018580000027
 51
296.3009289999995
  0
ARC
  5
C03
330
36
100
AcDbEntity
  8
0
 62
     7
100
AcDbCircle
 10
239.8290239071937
 20
-1788.42393914871
 30
0.0
 40
3.499999999999998
100
AcDbArc
 50
303.6990710000035
 51
116.3009289999995
  0
ARC
  5
C04
330
36
100
AcDbEntity
  8
0
 62
     7
100
AcDbCircle
 10
242.0483469802669
 20
-1791.751792001563
 30
0.0
 40
0.5
100
AcDbArc
 50
123.6990710000035
 51
217.3981419999919
  0
ARC
  5
C05
330
36
100
AcDbEntity
  8
0
 62
     7
100
AcDbCircle
 10
266.6758106939806
 20
-1772.92393914871
 30
0.0
 40
31.5
100
AcDbArc
 50
217.3981419999919
 51
322.6018580000082
  0
ARC
  5
C06
330
36
100
AcDbEntity
  8
0
 62
     7
100
AcDbCircle
 10
291.3032744076943
 20
-1791.751792001563
 30
0.0
 40
0.5
100
AcDbArc
 50
322.6018580000082
 51
56.3009289999965
  0
ARC
  5
C07
330
36
100
AcDbEntity
  8
0
 62
     7
100
AcDbCircle
 10
293.5225987320185
 20
-1788.42393914871
 30
0.0
 40
3.499999999999998
100
AcDbArc
 50
63.69907100000048
 51
236.3009289999965
  0
ARC
  5
C08
330
36
100
AcDbEntity
  8
0
 62
     7
100
AcDbCircle
 10
295.2949410743609
 20
-1784.838021981543
 30
0.0
 40
0.5
100
AcDbArc
 50
243.6990710000005
 51
337.3981419999974
  0
ARC
  5
C09
330
36
100
AcDbEntity
  8
0
 62
     7
100
AcDbCircle
 10
278.619149032319
 20
-1787.565115324887
 30
0.0
 40
10.06154904904905
100
AcDbArc
 50
199.5332530000044
 51
280.4667469999996
  0
ARC
  5
C0A
330
36
100
AcDbEntity
  8
0
 62
     7
100
AcDbCircle
 10
271.4954928761627
 20
-1790.09238884841
 30
0.0
 40
2.502872872872871
100
AcDbArc
 50
149.9999999999994
 51
199.5332530000044
  0
LINE
  5
C0B
330
36
100
AcDbEntity
  8
0
 62
     7
100
AcDbLine
 10
271.8998034367233
 20
-1784.386356566127
 30
0.0
 11
269.3279415748614
 21
-1788.840952411973
 31
0.0
  0
ARC
  5
C0C
330
36
100
AcDbEntity
  8
0
 62
     7
100
AcDbCircle
 10
274.0673547380248
 20
-1785.637793002562
 30
0.0
 40
2.502872872872871
100
AcDbArc
 50
100.4667469999995
 51
149.9999999999994
  0
ARC
  5
C0D
330
36
100
AcDbEntity
  8
0
 62
     7
100
AcDbCircle
 10
275.4405003836703
 20
-1793.070695905466
 30
0.0
 40
10.06154904904905
100
AcDbArc
 50
19.53325300000444
 51
100.4667469999995
  0
ARC
  5
C0E
330
36
100
AcDbEntity
  8
0
 62
     7
100
AcDbCircle
 10
282.5641565398264
 20
-1790.543423633196
 30
0.0
 40
2.502872872872871
100
AcDbArc
 50
329.9999999999995
 51
19.53325300000444
  0
LINE
  5
C0F
330
36
100
AcDbEntity
  8
0
 62
     7
100
AcDbLine
 10
284.7317078411279
 20
-1791.794860069631
 30
0.0
 11
282.1598459792657
 21
-1796.249455915477
 31
0.0
  0
ARC
  5
C10
330
36
100
AcDbEntity
  8
0
 62
     7
100
AcDbCircle
 10
279.9922946779644
 20
-1794.998019479039
 30
0.0
 40
2.502872872872871
100
AcDbArc
 50
280.4667469999996
 51
329.9999999999995
  0
ARC
  5
C11
330
36
100
AcDbEntity
  8
0
 62
     7
100
AcDbCircle
 10
261.8561285117983
 20
-1790.09238884841
 30
0.0
 40
2.502872872872871
100
AcDbArc
 50
340.4667469999956
 51
30.00000000000055
  0
LINE
  5
C12
330
36
100
AcDbEntity
  8
0
 62
     7
100
AcDbLine
 10
261.451819202489
 20
-1784.386356566127
 30
0.0
 11
264.0236798130997
 21
-1788.840952411973
 31
0.0
  0
ARC
  5
C13
330
36
100
AcDbEntity
  8
0
 62
     7
100
AcDbCircle
 10
257.9111210042909
 20
-1793.070695905466
 30
0.0
 40
10.06154904904905
100
AcDbArc
 50
79.53325300000044
 51
160.4667469999955
  0
ARC
  5
C14
330
36
100
AcDbEntity
  8
0
 62
     7
100
AcDbCircle
 10
259.2842666499365
 20
-1785.637793002562
 30
0.0
 40
2.502872872872871
100
AcDbArc
 50
30.00000000000055
 51
79.53325300000044
  0
ARC
  5
C15
330
36
100
AcDbEntity
  8
0
 62
     7
100
AcDbCircle
 10
250.7874660993859
 20
-1790.543423633196
 30
0.0
 40
2.502872872872871
100
AcDbArc
 50
160.4667469999955
 51
210.0000000000005
  0
LINE
  5
C16
330
36
100
AcDbEntity
  8
0
 62
     7
100
AcDbLine
 10
248.6199135468334
 20
-1791.794860069631
 30
0.0
 11
251.1917754086955
 21
-1796.249455915477
 31
0.0
  0
ARC
  5
C17
330
36
100
AcDbEntity
  8
0
 62
     7
100
AcDbCircle
 10
253.3593279612478
 20
-1794.998019479039
 30
0.0
 40
2.502872872872871
100
AcDbArc
 50
210.0000000000005
 51
259.5332530000005
  0
ARC
  5
C18
330
36
100
AcDbEntity
  8
0
 62
     7
100
AcDbCircle
 10
254.7324736068934
 20
-1787.565115324887
 30
0.0
 40
10.06154904904905
100
AcDbArc
 50
259.5332530000005
 51
340.4667469999956
  0
ARC
  5
C19
330
36
100
AcDbEntity
  8
0
 62
     7
100
AcDbCircle
 10
251.9697809142008
 20
-1772.968732692254
 30
0.0
 40
2.502872872872871
100
AcDbArc
 50
340.4667469999956
 51
30.00000000000055
  0
LINE
  5
C1A
330
36
100
AcDbEntity
  8
0
 62
     7
100
AcDbLine
 10
254.1373334667532
 20
-1771.717296255817
 30
0.0
 11
251.5654716048915
 21
-1767.262700409972
 31
0.0
  0
ARC
  5
C1B
330
36
100
AcDbEntity
  8
0
 62
     7
100
AcDbCircle
 10
249.3979190523389
 20
-1768.514136846408
 30
0.0
 40
2.502872872872871
100
AcDbArc
 50
30.00000000000055
 51
79.53325300000044
  0
ARC
  5
C1C
330
36
100
AcDbEntity
  8
0
 62
     7
100
AcDbCircle
 10
248.0247734066931
 20
-1775.94703974931
 30
0.0
 40
10.06154904904905
100
AcDbArc
 50
79.53325300000044
 51
160.4667469999955
  0
ARC
  5
C1D
330
36
100
AcDbEntity
  8
0
 62
     7
100
AcDbCircle
 10
240.9011185017884
 20
-1773.419767477038
 30
0.0
 40
2.502872872872871
100
AcDbArc
 50
160.4667469999955
 51
210.0000000000005
  0
LINE
  5
C1E
330
36
100
AcDbEntity
  8
0
 62
     7
100
AcDbLine
 10
241.3054278110977
 20
-1779.125799759321
 30
0.0
 11
238.733567200487
 21
-1774.671203913474
 31
0.0
  0
ARC
  5
C1F
330
36
100
AcDbEntity
  8
0
 62
     7
100
AcDbCircle
 10
243.4729803636502
 20
-1777.874363322884
 30
0.0
 40
2.502872872872871
100
AcDbArc
 50
210.0000000000005
 51
259.5332530000005
  0
ARC
  5
C20
330
36
100
AcDbEntity
  8
0
 62
     7
100
AcDbCircle
 10
244.8461260092959
 20
-1770.44145916873
 30
0.0
 40
10.06154904904905
100
AcDbArc
 50
259.5332530000005
 51
340.4667469999956
  0
ARC
  5
C21
330
36
100
AcDbEntity
  8
0
 62
     7
100
AcDbCircle
 10
281.3818404737603
 20
-1772.968732692254
 30
0.0
 40
2.502872872872871
100
AcDbArc
 50
149.9999999999994
 51
199.5332530000044
  0
LINE
  5
C22
330
36
100
AcDbEntity
  8
0
 62
     7
100
AcDbLine
 10
279.214289172459
 20
-1771.717296255817
 30
0.0
 11
281.786151034321
 21
-1767.262700409972
 31
0.0
  0
ARC
  5
C23
330
36
100
AcDbEntity
  8
0
 62
     7
100
AcDbCircle
 10
283.9537023356225
 20
-1768.514136846408
 30
0.0
 40
2.502872872872871
100
AcDbArc
 50
100.4667469999995
 51
149.9999999999994
  0
ARC
  5
C24
330
36
100
AcDbEntity
  8
0
 62
     7
100
AcDbCircle
 10
285.326847981268
 20
-1775.94703974931
 30
0.0
 40
10.06154904904905
100
AcDbArc
 50
19.53325300000444
 51
100.4667469999995
  0
ARC
  5
C25
330
36
100
AcDbEntity
  8
0
 62
     7
100
AcDbCircle
 10
292.4505041374239
 20
-1773.419767477038
 30
0.0
 40
2.502872872872871
100
AcDbArc
 50
329.9999999999995
 51
19.53325300000444
  0
LINE
  5
C26
330
36
100
AcDbEntity
  8
0
 62
     7
100
AcDbLine
 10
292.0461935768635
 20
-1779.125799759321
 30
0.0
 11
294.6180554387254
 21
-1774.671203913474
 31
0.0
  0
ARC
  5
C27
330
36
100
AcDbEntity
  8
0
 62
     7
100
AcDbCircle
 10
289.8786422755621
 20
-1777.874363322884
 30
0.0
 40
2.502872872872871
100
AcDbArc
 50
280.4667469999996
 51
329.9999999999995
  0
ARC
  5
C28
330
36
100
AcDbEntity
  8
0
 62
     7
100
AcDbCircle
 10
288.5054966299165
 20
-1770.44145916873
 30
0.0
 40
10.06154904904905
100
AcDbArc
 50
199.5332530000044
 51
280.4667469999996
  0
CIRCLE
  5
C29
330
36
100
AcDbEntity
  8
0
 62
     7
100
AcDbCircle
 10
266.6758106939806
 20
-1772.92393914871
 30
0.0
 40
4.754754754754753
  0
LEADER
  5
C2A
330
36
100
AcDbEntity
  8
0
100
AcDbLeader
  3
1／2
 76
     2
 10
268.2747028033881
 20
-1767.140899807457
 30
0.0
 10
291.3331728750799
 20
-1683.74062608724
 30
0.0
  0
LEADER
  5
C2B
330
36
100
AcDbEntity
  8
0
100
AcDbLeader
  3
1／2
 76
     2
 10
290.8581968301167
 20
-1766.366462508717
 30
0.0
 10
311.6222363599935
 20
-1683.770545542753
 30
0.0
  0
LEADER
  5
C2C
330
36
100
AcDbEntity
  8
0
100
AcDbLeader
  3
1／2
 76
     2
 10
370.3266157127306
 20
-1821.788832166727
 30
0.0
 10
348.2971874028263
 20
-1829.956164811575
 30
0.0
  0
LEADER
  5
C2D
330
36
100
AcDbEntity
  8
0
100
AcDbLeader
  3
1／2
 76
     2
 10
379.9467433403585
 20
-1710.431939649211
 30
0.0
 10
365.7499093964765
 20
-1681.000111812049
 30
0.0
  0
LEADER
  5
C2E
330
36
100
AcDbEntity
  8
0
100
AcDbLeader
  3
1／2
 76
     2
 10
400.3770511481659
 20
-1691.494495955517
 30
0.0
 10
393.285477719526
 20
-1680.941650994977
 30
0.0
  0
LEADER
  5
C2F
330
36
100
AcDbEntity
  8
0
100
AcDbLeader
  3
1／2
 76
     2
 10
402.5005971942125
 20
-1739.181939649211
 30
0.0
 10
418.646138471978
 20
-1681.312724703808
 30
0.0
  0
LEADER
  5
C30
330
36
100
AcDbEntity
  8
0
100
AcDbLeader
  3
1／2
 76
     2
 10
436.7152668638819
 20
-1710.431939649211
 30
0.0
 10
442.8235736944252
 20
-1681.38960502693
 30
0.0
  0
LEADER
  5
C31
330
36
100
AcDbEntity
  8
0
100
AcDbLeader
  3
1／2
 76
     2
 10
455.6724626987874
 20
-1700.221755826317
 30
0.0
 10
462.1983872472338
 20
-1681.225401414092
 30
0.0
  0
LEADER
  5
C32
330
36
100
AcDbEntity
  8
0
100
AcDbLeader
  3
1／2
 76
     2
 10
434.3270010981162
 20
-1766.550558267829
 30
0.0
 10
480.703740481227
 20
-1741.329260866245
 30
0.0
  0
LINE
  5
D15
330
36
100
AcDbEntity
  8
0
 62
     3
100
AcDbLine
 10
535.9392101719912
 20
-1913.61730375856
 30
0.0
 11
535.9392101719912
 21
-1890.61730375856
 31
0.0
  0
LINE
  5
D17
330
36
100
AcDbEntity
  8
0
 62
     3
100
AcDbLine
 10
482.8856001719912
 20
-1920.61730375856
 30
0.0
 11
482.8856001719912
 21
-1906.61730375856
 31
0.0
  0
TEXT
  5
D19
330
36
100
AcDbEntity
  8
0
 62
     3
100
AcDbText
 10
511.9495281719911
 20
-1894.41218775856
 30
0.0
 40
2.0
  1
A
 41
0.7
100
AcDbText
  0
TEXT
  5
D1A
330
36
100
AcDbEntity
  8
0
 62
     3
100
AcDbText
 10
514.484814171991
 20
-1894.41218775856
 30
0.0
 40
2.0
  1
P
 41
0.7
100
AcDbText
  0
TEXT
  5
D1B
330
36
100
AcDbEntity
  8
0
 62
     3
100
AcDbText
 10
517.020100171991
 20
-1894.41218775856
 30
0.0
 40
2.0
  1
P
 41
0.7
100
AcDbText
  0
TEXT
  5
D1C
330
36
100
AcDbEntity
  8
0
 62
     3
100
AcDbText
 10
519.5553861719911
 20
-1894.41218775856
 30
0.0
 40
2.0
  1
D
 41
0.7
100
AcDbText
  0
TEXT
  5
D1D
330
36
100
AcDbEntity
  8
0
 62
     3
100
AcDbText
 10
524.924070171991
 20
-1894.41218775856
 30
0.0
 40
2.0
  1
C
 41
0.7
100
AcDbText
  0
TEXT
  5
D1E
330
36
100
AcDbEntity
  8
0
 62
     3
100
AcDbText
 10
527.459356171991
 20
-1894.41218775856
 30
0.0
 40
2.0
  1
H
 41
0.7
100
AcDbText
  0
TEXT
  5
D1F
330
36
100
AcDbEntity
  8
0
 62
     3
100
AcDbText
 10
529.9946421719911
 20
-1894.41218775856
 30
0.0
 40
2.0
  1
C
 41
0.7
100
AcDbText
  0
TEXT
  5
D20
330
36
100
AcDbEntity
  8
0
 62
     3
100
AcDbText
 10
532.5299281719914
 20
-1894.41218775856
 30
0.0
 40
2.0
  1
K
 41
0.7
100
AcDbText
  0
TEXT
  5
D21
330
36
100
AcDbEntity
  8
0
 62
     3
100
AcDbText
 10
538.2038951719913
 20
-1894.41218775856
 30
0.0
 40
2.0
  1
DESN
 41
1.216762999999998
100
AcDbText
  0
TEXT
  5
D22
330
36
100
AcDbEntity
  8
0
 62
     3
100
AcDbText
 10
453.197536171991
 20
-1923.75868575856
 30
0.0
 40
2.0
  1
NICHIDO IND.CO.LTD
 41
1.274876
100
AcDbText
  0
LINE
  5
D23
330
36
100
AcDbEntity
  8
0
 62
     3
100
AcDbLine
 10
463.5805651719912
 20
-1890.61730375856
 30
0.0
 11
463.5805651719912
 21
-1913.61730375856
 31
0.0
  0
LINE
  5
D24
330
36
100
AcDbEntity
  8
0
 62
     3
100
AcDbLine
 10
509.9392101719912
 20
-1890.61730375856
 30
0.0
 11
509.9392101719912
 21
-1930.28302675856
 31
0.0
  0
LINE
  5
D29
330
36
100
AcDbEntity
  8
0
 62
     3
100
AcDbLine
 10
522.9392101719912
 20
-1890.61730375856
 30
0.0
 11
522.9392101719912
 21
-1920.61730375856
 31
0.0
  0
TEXT
  5
D2A
330
36
100
AcDbEntity
  8
0
 62
     3
100
AcDbText
 10
511.0516551719911
 20
-1919.75261675856
 30
0.0
 40
3.2
  1
作成日
 41
1.017225999999997
100
AcDbText
  0
LINE
  5
D2B
330
36
100
AcDbEntity
  8
0
 62
     3
100
AcDbLine
 10
561.6385731719909
 20
-1890.61730375856
 30
0.0
 11
450.3351311719911
 21
-1890.61730375856
 31
0.0
  0
LINE
  5
D2C
330
36
100
AcDbEntity
  8
0
 62
     3
100
AcDbLine
 10
548.9392101719911
 20
-1913.61730375856
 30
0.0
 11
548.9392101719911
 21
-1890.61730375856
 31
0.0
  0
TEXT
  5
D2D
330
36
100
AcDbEntity
  8
0
 62
     3
100
AcDbText
 10
552.2630131719911
 20
-1894.32636975856
 30
0.0
 40
1.8
  1
D
 41
0.666667
100
AcDbText
  0
TEXT
  5
D2E
330
36
100
AcDbEntity
  8
0
 62
     3
100
AcDbText
 10
555.0796411719914
 20
-1894.32636975856
 30
0.0
 40
1.8
  1
E
 41
0.666667
100
AcDbText
  0
TEXT
  5
D2F
330
36
100
AcDbEntity
  8
0
 62
     3
100
AcDbText
 10
557.8962701719913
 20
-1894.32636975856
 30
0.0
 40
1.8
  1
F
 41
0.666667
100
AcDbText
  0
TEXT
  5
D30
330
36
100
AcDbEntity
  8
0
 62
     3
100
AcDbText
 10
552.2630131719911
 20
-1898.31892275856
 30
0.0
 40
3.2
  1
製図
 41
1.076369
100
AcDbText
  0
LINE
  5
D31
330
36
100
AcDbEntity
  8
0
 62
     3
100
AcDbLine
 10
450.3351311719911
 20
-1890.61730375856
 30
0.0
 11
450.3351311719911
 21
-1930.28302675856
 31
0.0
  0
TEXT
  5
D32
330
36
100
AcDbEntity
  8
0
 62
     3
100
AcDbText
 10
451.7117841719913
 20
-1929.95056075856
 30
0.0
 40
5.0
  1
日動工業株式会社
 41
0.833333
100
AcDbText
  0
LINE
  5
D33
330
36
100
AcDbEntity
  8
0
 62
     3
100
AcDbLine
 10
493.2175351719911
 20
-1906.61730375856
 30
0.0
 11
493.2175351719911
 21
-1930.28302675856
 31
0.0
  0
LINE
  5
D34
330
36
100
AcDbEntity
  8
0
 62
     3
100
AcDbLine
 10
493.2175351719911
 20
-1925.45016475856
 30
0.0
 11
509.9392101719912
 21
-1925.45016475856
 31
0.0
  0
TEXT
  5
D35
330
36
100
AcDbEntity
  8
0
 62
     3
100
AcDbText
 10
493.804137171991
 20
-1924.63373475856
 30
0.0
 40
3.2
  1
出図コード
 41
0.8356860000000002
100
AcDbText
  0
LINE
  5
D45
330
36
100
AcDbEntity
  8
0
 62
     3
100
AcDbLine
 10
450.3351311719908
 20
-1920.61730375856
 30
0.0
 11
561.6385731719909
 21
-1920.61730375856
 31
0.0
  0
LINE
  5
D47
330
36
100
AcDbEntity
  8
0
 62
     3
100
AcDbLine
 10
450.3351311719911
 20
-1899.61730375856
 30
0.0
 11
561.6385731719909
 21
-1899.61730375856
 31
0.0
  0
LINE
  5
D4D
330
36
100
AcDbEntity
  8
0
 62
     3
100
AcDbLine
 10
450.3351311719911
 20
-1906.61730375856
 30
0.0
 11
509.9392101719912
 21
-1906.61730375856
 31
0.0
  0
LINE
  5
D53
330
36
100
AcDbEntity
  8
0
 62
     3
100
AcDbLine
 10
450.3351311719911
 20
-1913.61730375856
 30
0.0
 11
561.6385731719909
 21
-1913.61730375856
 31
0.0
  0
LINE
  5
D57
330
36
100
AcDbEntity
  8
0
 62
     3
100
AcDbLine
 10
561.6385731719909
 20
-1656.22766575856
 30
0.0
 11
561.6385731719909
 21
-1930.28302675856
 31
0.0
  0
LINE
  5
D58
330
36
100
AcDbEntity
  8
0
 62
     3
100
AcDbLine
 10
171.6385731719912
 20
-1656.22766575856
 30
0.0
 11
171.6385731719912
 21
-1930.28302675856
 31
0.0
  0
LINE
  5
D59
330
36
100
AcDbEntity
  8
0
 62
     3
100
AcDbLine
 10
561.6385731719909
 20
-1930.28302675856
 30
0.0
 11
171.6385731719912
 21
-1930.28302675856
 31
0.0
  0
LINE
  5
D5A
330
36
100
AcDbEntity
  8
0
 62
     3
100
AcDbLine
 10
356.2940254512275
 20
-1925.283026758558
 30
0.0
 11
171.6385731719912
 21
-1925.28302675856
 31
0.0
  0
LINE
  5
D5B
330
36
100
AcDbEntity
  8
0
 62
     7
100
AcDbLine
 10
356.2940254512275
 20
-1920.28302675856
 30
0.0
 11
171.6385731719912
 21
-1920.28302675856
 31
0.0
  0
LINE
  5
D5C
330
36
100
AcDbEntity
  8
0
 62
     7
100
AcDbLine
 10
356.2940254512275
 20
-1915.28302675856
 30
0.0
 11
171.6385731719912
 21
-1915.28302675856
 31
0.0
  0
LINE
  5
D5D
330
36
100
AcDbEntity
  8
0
 62
     7
100
AcDbLine
 10
356.2940254512275
 20
-1910.28302675856
 30
0.0
 11
171.6385731719912
 21
-1910.28302675856
 31
0.0
  0
LINE
  5
D5E
330
36
100
AcDbEntity
  8
0
 62
     7
100
AcDbLine
 10
356.2940254512275
 20
-1905.28302675856
 30
0.0
 11
171.6385731719912
 21
-1905.28302675856
 31
0.0
  0
LINE
  5
D5F
330
36
100
AcDbEntity
  8
0
 62
     7
100
AcDbLine
 10
356.2940254512275
 20
-1900.28302675856
 30
0.0
 11
171.6385731719912
 21
-1900.28302675856
 31
0.0
  0
LINE
  5
D60
330
36
100
AcDbEntity
  8
0
 62
     7
100
AcDbLine
 10
356.2940254512275
 20
-1895.28302675856
 30
0.0
 11
171.6385731719912
 21
-1895.28302675856
 31
0.0
  0
LINE
  5
D61
330
36
100
AcDbEntity
  8
0
 62
     7
100
AcDbLine
 10
356.2940254512275
 20
-1890.28302675856
 30
0.0
 11
171.6385731719912
 21
-1890.28302675856
 31
0.0
  0
LINE
  5
D62
330
36
100
AcDbEntity
  8
0
 62
     7
100
AcDbLine
 10
356.2940254512275
 20
-1885.28302675856
 30
0.0
 11
171.6385731719912
 21
-1885.28302675856
 31
0.0
  0
LINE
  5
D63
330
36
100
AcDbEntity
  8
0
 62
     7
100
AcDbLine
 10
356.2940254512275
 20
-1880.28302675856
 30
0.0
 11
171.6385731719912
 21
-1880.28302675856
 31
0.0
  0
LINE
  5
D64
330
36
100
AcDbEntity
  8
0
 62
     7
100
AcDbLine
 10
356.2940254512275
 20
-1875.28302675856
 30
0.0
 11
171.6385731719912
 21
-1875.28302675856
 31
0.0
  0
TEXT
  5
D67
330
36
100
AcDbEntity
  8
0
 62
     3
100
AcDbText
 10
493.6715881719911
 20
-1929.91367010056
 30
0.0
 40
3.2
  1
ZK-A3X
 41
0.8112849999999999
100
AcDbText
  0
LINE
  5
D68
330
36
100
AcDbEntity
  8
0
 62
     2
100
AcDbLine
 10
349.4134631719914
 20
-1653.78766375856
 30
0.0
 11
350.0359601719913
 21
-1654.11261775856
 31
0.0
  0
LINE
  5
D69
330
36
100
AcDbEntity
  8
0
 62
     2
100
AcDbLine
 10
349.4134631719914
 20
-1659.11713575856
 30
0.0
 11
350.0359601719913
 21
-1658.79218075856
 31
0.0
  0
LINE
  5
D6A
330
36
100
AcDbEntity
  8
0
 62
     2
100
AcDbLine
 10
350.0359601719913
 20
-1654.11261775856
 30
0.0
 11
350.0359601719913
 21
-1658.79218075856
 31
0.0
  0
LINE
  5
D6B
330
36
100
AcDbEntity
  8
0
 62
     2
100
AcDbLine
 10
351.6124131719914
 20
-1659.11713575856
 30
0.0
 11
350.9899161719912
 21
-1658.79218075856
 31
0.0
  0
LINE
  5
D6C
330
36
100
AcDbEntity
  8
0
 62
     2
100
AcDbLine
 10
350.9899161719912
 20
-1655.93952575856
 30
0.0
 11
350.9899161719912
 21
-1658.79218075856
 31
0.0
  0
LINE
  5
D6D
330
36
100
AcDbEntity
  8
0
 62
     2
100
AcDbLine
 10
355.2436461719914
 20
-1653.78766375856
 30
0.0
 11
354.6211491719912
 21
-1654.11261775856
 31
0.0
  0
LINE
  5
D6E
330
36
100
AcDbEntity
  8
0
 62
     2
100
AcDbLine
 10
353.0446951719913
 20
-1653.78766375856
 30
0.0
 11
353.6671921719912
 21
-1654.11261775856
 31
0.0
  0
LINE
  5
D6F
330
36
100
AcDbEntity
  8
0
 62
     2
100
AcDbLine
 10
353.6671921719912
 20
-1654.11261775856
 30
0.0
 11
353.6671921719912
 21
-1656.17309975856
 31
0.0
  0
LINE
  5
D70
330
36
100
AcDbEntity
  8
0
 62
     2
100
AcDbLine
 10
354.6211491719912
 20
-1654.11261775856
 30
0.0
 11
354.6211491719912
 21
-1659.41936575856
 31
0.0
  0
LINE
  5
D71
330
36
100
AcDbEntity
  8
0
 62
     2
100
AcDbLine
 10
355.5512131719912
 20
-1653.78766675856
 30
0.0
 11
356.1737081719913
 21
-1654.11262575856
 31
0.0
  0
LINE
  5
D72
330
36
100
AcDbEntity
  8
0
 62
     2
100
AcDbLine
 10
355.5511021719914
 20
-1659.11706375856
 30
0.0
 11
356.1736101719912
 21
-1658.79213075856
 31
0.0
  0
LINE
  5
D73
330
36
100
AcDbEntity
  8
0
 62
     2
100
AcDbLine
 10
356.1737081719913
 20
-1654.11262575856
 30
0.0
 11
356.1737081719913
 21
-1658.79213075856
 31
0.0
  0
LINE
  5
D74
330
36
100
AcDbEntity
  8
0
 62
     2
100
AcDbLine
 10
358.3076941719913
 20
-1653.787700758561
 30
0.0
 11
357.6851921719913
 21
-1654.11264675856
 31
0.0
  0
LINE
  5
D75
330
36
100
AcDbEntity
  8
0
 62
     2
100
AcDbLine
 10
357.6851921719913
 20
-1654.11264675856
 30
0.0
 11
357.6851921719913
 21
-1658.79215175856
 31
0.0
  0
LINE
  5
D76
330
36
100
AcDbEntity
  8
0
 62
     2
100
AcDbLine
 10
358.3076941719913
 20
-1659.11709775856
 30
0.0
 11
357.6851921719913
 21
-1658.79215175856
 31
0.0
  0
LINE
  5
D77
330
36
100
AcDbEntity
  8
0
 62
     2
100
AcDbLine
 10
363.5794841719913
 20
-1653.78775975856
 30
0.0
 11
364.2019801719913
 21
-1654.11271575856
 31
0.0
  0
LINE
  5
D78
330
36
100
AcDbEntity
  8
0
 62
     2
100
AcDbLine
 10
364.2019801719913
 20
-1654.11271575856
 30
0.0
 11
364.2018991719913
 21
-1658.792221758561
 31
0.0
  0
LINE
  5
D79
330
36
100
AcDbEntity
  8
0
 62
     2
100
AcDbLine
 10
363.5793911719912
 20
-1659.11715675856
 30
0.0
 11
364.2018991719913
 21
-1658.792221758561
 31
0.0
  0
LINE
  5
D7A
330
36
100
AcDbEntity
  8
0
 62
     2
100
AcDbLine
 10
366.3684291719913
 20
-1653.78775975856
 30
0.0
 11
365.7459331719913
 21
-1654.11271575856
 31
0.0
  0
LINE
  5
D7B
330
36
100
AcDbEntity
  8
0
 62
     2
100
AcDbLine
 10
366.3685221719912
 20
-1659.11715675856
 30
0.0
 11
365.7460141719913
 21
-1658.792221758561
 31
0.0
  0
LINE
  5
D7C
330
36
100
AcDbEntity
  8
0
 62
     2
100
AcDbLine
 10
366.6594681719912
 20
-1653.78775975856
 30
0.0
 11
367.2819641719914
 21
-1654.11271575856
 31
0.0
  0
LINE
  5
D7D
330
36
100
AcDbEntity
  8
0
 62
     2
100
AcDbLine
 10
366.6593751719914
 20
-1659.11715675856
 30
0.0
 11
367.2818831719914
 21
-1658.792221758561
 31
0.0
  0
LINE
  5
D7E
330
36
100
AcDbEntity
  8
0
 62
     2
100
AcDbLine
 10
369.4484131719914
 20
-1653.78775975856
 30
0.0
 11
368.8259171719912
 21
-1654.11271575856
 31
0.0
  0
LINE
  5
D7F
330
36
100
AcDbEntity
  8
0
 62
     2
100
AcDbLine
 10
368.8259171719912
 20
-1654.11271575856
 30
0.0
 11
368.8259981719913
 21
-1658.792221758561
 31
0.0
  0
LINE
  5
D80
330
36
100
AcDbEntity
  8
0
 62
     2
100
AcDbLine
 10
369.4485061719912
 20
-1659.11715675856
 30
0.0
 11
368.8259981719913
 21
-1658.792221758561
 31
0.0
  0
LINE
  5
D81
330
36
100
AcDbEntity
  8
0
 62
     2
100
AcDbLine
 10
367.2819291719914
 20
-1656.15147775856
 30
0.0
 11
365.7459681719914
 21
-1656.15147775856
 31
0.0
  0
LINE
  5
D82
330
36
100
AcDbEntity
  8
0
 62
     2
100
AcDbLine
 10
367.2819181719912
 20
-1656.75332075856
 30
0.0
 11
365.7459791719913
 21
-1656.75332075856
 31
0.0
  0
LINE
  5
D83
330
36
100
AcDbEntity
  8
0
 62
     2
100
AcDbLine
 10
367.2819641719914
 20
-1654.11271575856
 30
0.0
 11
367.2819291719914
 21
-1656.15147775856
 31
0.0
  0
LINE
  5
D84
330
36
100
AcDbEntity
  8
0
 62
     2
100
AcDbLine
 10
367.2819181719912
 20
-1656.75332075856
 30
0.0
 11
367.2818831719914
 21
-1658.792221758561
 31
0.0
  0
LINE
  5
D85
330
36
100
AcDbEntity
  8
0
 62
     2
100
AcDbLine
 10
365.7459331719913
 20
-1654.11271575856
 30
0.0
 11
365.7459681719914
 21
-1656.15147775856
 31
0.0
  0
LINE
  5
D86
330
36
100
AcDbEntity
  8
0
 62
     2
100
AcDbLine
 10
365.7459791719913
 20
-1656.75332075856
 30
0.0
 11
365.7460141719913
 21
-1658.792221758561
 31
0.0
  0
LINE
  5
D87
330
36
100
AcDbEntity
  8
0
 62
     2
100
AcDbLine
 10
369.7440691719913
 20
-1653.78775975856
 30
0.0
 11
370.3665641719912
 21
-1654.11271575856
 31
0.0
  0
LINE
  5
D88
330
36
100
AcDbEntity
  8
0
 62
     2
100
AcDbLine
 10
370.3665641719912
 20
-1654.11271575856
 30
0.0
 11
370.3664831719914
 21
-1658.792221758561
 31
0.0
  0
LINE
  5
D89
330
36
100
AcDbEntity
  8
0
 62
     2
100
AcDbLine
 10
369.7439761719913
 20
-1659.11715675856
 30
0.0
 11
370.3664831719914
 21
-1658.792221758561
 31
0.0
  0
LINE
  5
D8A
330
36
100
AcDbEntity
  8
0
 62
     2
100
AcDbLine
 10
372.5005121719914
 20
-1653.78775975856
 30
0.0
 11
371.8780161719914
 21
-1654.11271575856
 31
0.0
  0
LINE
  5
D8B
330
36
100
AcDbEntity
  8
0
 62
     2
100
AcDbLine
 10
371.8780161719914
 20
-1654.11271575856
 30
0.0
 11
371.8780981719913
 21
-1658.792221758561
 31
0.0
  0
LINE
  5
D8C
330
36
100
AcDbEntity
  8
0
 62
     2
100
AcDbLine
 10
372.5006051719912
 20
-1659.11715675856
 30
0.0
 11
371.8780981719913
 21
-1658.792221758561
 31
0.0
  0
LINE
  5
D8D
330
36
100
AcDbEntity
  8
0
 62
     2
100
AcDbLine
 10
372.8067401719912
 20
-1653.78775975856
 30
0.0
 11
373.4292361719913
 21
-1654.11271575856
 31
0.0
  0
LINE
  5
D8E
330
36
100
AcDbEntity
  8
0
 62
     2
100
AcDbLine
 10
373.4292361719913
 20
-1654.11271575856
 30
0.0
 11
373.4291541719914
 21
-1658.792221758561
 31
0.0
  0
LINE
  5
D8F
330
36
100
AcDbEntity
  8
0
 62
     2
100
AcDbLine
 10
372.8066471719913
 20
-1659.11715675856
 30
0.0
 11
373.4291541719914
 21
-1658.792221758561
 31
0.0
  0
ARC
  5
D90
330
36
100
AcDbEntity
  8
0
 62
     2
100
AcDbCircle
 10
361.5910401719913
 20
-1656.43898575856
 30
0.0
 40
2.980408
100
AcDbArc
 50
97.70152399999996
 51
270.0
  0
ARC
  5
D91
330
36
100
AcDbEntity
  8
0
 62
     2
100
AcDbCircle
 10
379.9918981719914
 20
-1656.46892375856
 30
0.0
 40
3.012775999999998
100
AcDbArc
 50
0.3142500000008352
 51
69.00558199999995
  0
ARC
  5
D92
330
36
100
AcDbEntity
  8
0
 62
     2
100
AcDbCircle
 10
380.6500061719912
 20
-1656.46892375856
 30
0.0
 40
3.012775999999998
100
AcDbArc
 50
110.994418
 51
148.1166109999993
  0
ARC
  5
D93
330
36
100
AcDbEntity
  8
0
 62
     2
100
AcDbCircle
 10
379.9918981719914
 20
-1656.43587475856
 30
0.0
 40
3.012775999999998
100
AcDbArc
 50
290.994418
 51
359.6857499999992
  0
ARC
  5
D94
330
36
100
AcDbEntity
  8
0
 62
     2
100
AcDbCircle
 10
380.6500061719912
 20
-1656.43587475856
 30
0.0
 40
3.012775999999998
100
AcDbArc
 50
211.8833890000006
 51
249.0055819999999
  0
ARC
  5
D95
330
36
100
AcDbEntity
  8
0
 62
     2
100
AcDbCircle
 10
380.3209521719913
 20
-1655.219819758559
 30
0.0
 40
1.734386999999999
100
AcDbArc
 50
64.3651719999999
 51
115.6348279999999
  0
ARC
  5
D96
330
36
100
AcDbEntity
  8
0
 62
     2
100
AcDbCircle
 10
380.3209521719913
 20
-1657.68497875856
 30
0.0
 40
1.734386999999999
100
AcDbArc
 50
244.365172
 51
295.6348279999999
  0
ARC
  5
D97
330
36
100
AcDbEntity
  8
0
 62
     2
100
AcDbCircle
 10
380.3209521719913
 20
-1655.18687475856
 30
0.0
 40
0.8512219999999999
100
AcDbArc
 50
19.48660599999913
 51
160.5133940000008
  0
ARC
  5
D98
330
36
100
AcDbEntity
  8
0
 62
     2
100
AcDbCircle
 10
380.3209521719913
 20
-1657.717923758561
 30
0.0
 40
0.8512219999999999
100
AcDbArc
 50
199.4866059999991
 51
340.5133940000009
  0
ARC
  5
D99
330
36
100
AcDbEntity
  8
0
 62
     3
100
AcDbCircle
 10
373.5459911719912
 20
-1688.20677075856
 30
0.0
 40
37.20000000000001
100
AcDbArc
 50
69.50571500000038
 51
81.68998800000016
  0
ARC
  5
D9A
330
36
100
AcDbEntity
  8
0
 62
     3
100
AcDbCircle
 10
373.5459911719912
 20
-1624.69802775856
 30
0.0
 40
37.20000000000001
100
AcDbArc
 50
278.3100119999998
 51
290.4942849999996
  0
ARC
  5
D9B
330
36
100
AcDbEntity
  8
0
 62
     3
100
AcDbCircle
 10
385.4148541719914
 20
-1656.45239975856
 30
0.0
 40
3.299999999999998
100
AcDbArc
 50
290.4942849999996
 51
69.50571500000038
  0
ARC
  5
D9C
330
36
100
AcDbEntity
  8
0
 62
     3
100
AcDbCircle
 10
346.4148541719914
 20
-1656.45239975856
 30
0.0
 40
3.299999999999998
100
AcDbArc
 50
110.4942849999996
 51
249.5057150000003
  0
ARC
  5
D9D
330
36
100
AcDbEntity
  8
0
 62
     3
100
AcDbCircle
 10
358.2837171719913
 20
-1688.20677075856
 30
0.0
 40
37.20000000000001
100
AcDbArc
 50
98.31001199999986
 51
110.4942849999996
  0
ARC
  5
D9E
330
36
100
AcDbEntity
  8
0
 62
     3
100
AcDbCircle
 10
358.2837171719913
 20
-1624.69802775856
 30
0.0
 40
37.20000000000001
100
AcDbArc
 50
249.5057150000003
 51
261.6899880000001
  0
ARC
  5
D9F
330
36
100
AcDbEntity
  8
0
 62
     3
100
AcDbCircle
 10
365.9148541719913
 20
-1740.45239975856
 30
0.0
 40
90.0
100
AcDbArc
 50
81.68998800000016
 51
98.31001199999986
  0
ARC
  5
DA0
330
36
100
AcDbEntity
  8
0
 62
     3
100
AcDbCircle
 10
365.9148541719913
 20
-1572.45239975856
 30
0.0
 40
90.0
100
AcDbArc
 50
261.6899880000001
 51
278.3100119999998
  0
ARC
  5
DA1
330
36
100
AcDbEntity
  8
0
 62
     3
100
AcDbCircle
 10
365.9148541719913
 20
-1740.45239975856
 30
0.0
 40
89.1
100
AcDbArc
 50
81.68998800000016
 51
98.31001199999986
  0
ARC
  5
DA2
330
36
100
AcDbEntity
  8
0
 62
     3
100
AcDbCircle
 10
365.9148541719913
 20
-1572.45239975856
 30
0.0
 40
89.1
100
AcDbArc
 50
261.6899880000001
 51
278.3100119999998
  0
ARC
  5
DA3
330
36
100
AcDbEntity
  8
0
 62
     3
100
AcDbCircle
 10
373.5459911719912
 20
-1624.69802775856
 30
0.0
 40
36.3
100
AcDbArc
 50
278.3100119999998
 51
290.4942849999996
  0
ARC
  5
DA4
330
36
100
AcDbEntity
  8
0
 62
     3
100
AcDbCircle
 10
373.5459911719912
 20
-1688.20677075856
 30
0.0
 40
36.3
100
AcDbArc
 50
69.50571500000038
 51
81.68998800000016
  0
ARC
  5
DA5
330
36
100
AcDbEntity
  8
0
 62
     3
100
AcDbCircle
 10
385.4148541719914
 20
-1656.45239975856
 30
0.0
 40
2.399999999999999
100
AcDbArc
 50
290.4942849999996
 51
69.50571500000038
  0
ARC
  5
DA6
330
36
100
AcDbEntity
  8
0
 62
     3
100
AcDbCircle
 10
346.4148541719914
 20
-1656.45239975856
 30
0.0
 40
2.399999999999999
100
AcDbArc
 50
110.4942849999996
 51
249.5057150000003
  0
ARC
  5
DA7
330
36
100
AcDbEntity
  8
0
 62
     3
100
AcDbCircle
 10
358.2837171719913
 20
-1688.20677075856
 30
0.0
 40
36.3
100
AcDbArc
 50
98.31001199999986
 51
110.4942849999996
  0
ARC
  5
DA8
330
36
100
AcDbEntity
  8
0
 62
     3
100
AcDbCircle
 10
358.2837171719913
 20
-1624.69802775856
 30
0.0
 40
36.3
100
AcDbArc
 50
249.5057150000003
 51
261.6899880000001
  0
LINE
  5
DA9
330
36
100
AcDbEntity
  8
0
 62
     2
100
AcDbLine
 10
372.5005131719914
 20
-1659.41936575856
 30
0.0
 11
369.7440671719913
 21
-1659.41936575856
 31
0.0
  0
LINE
  5
DAA
330
36
100
AcDbEntity
  8
0
 62
     2
100
AcDbLine
 10
372.5005131719914
 20
-1659.11713575856
 30
0.0
 11
372.5005131719914
 21
-1659.41936575856
 31
0.0
  0
LINE
  5
DAB
330
36
100
AcDbEntity
  8
0
 62
     2
100
AcDbLine
 10
369.4484141719914
 20
-1653.48557375856
 30
0.0
 11
366.6594671719912
 21
-1653.48557375856
 31
0.0
  0
LINE
  5
DAC
330
36
100
AcDbEntity
  8
0
 62
     2
100
AcDbLine
 10
369.4484141719914
 20
-1653.48557375856
 30
0.0
 11
369.4484141719914
 21
-1653.78766375856
 31
0.0
  0
LINE
  5
DAD
330
36
100
AcDbEntity
  8
0
 62
     2
100
AcDbLine
 10
369.4484141719914
 20
-1659.11713575856
 30
0.0
 11
369.4484141719914
 21
-1659.41950675856
 31
0.0
  0
LINE
  5
DAE
330
36
100
AcDbEntity
  8
0
 62
     2
100
AcDbLine
 10
369.4484141719914
 20
-1659.41950675856
 30
0.0
 11
366.6594671719912
 21
-1659.41950675856
 31
0.0
  0
LINE
  5
DAF
330
36
100
AcDbEntity
  8
0
 62
     2
100
AcDbLine
 10
372.5005131719914
 20
-1653.48543275856
 30
0.0
 11
372.5005131719914
 21
-1653.78766375856
 31
0.0
  0
LINE
  5
DB0
330
36
100
AcDbEntity
  8
0
 62
     2
100
AcDbLine
 10
372.5005131719914
 20
-1653.48543275856
 30
0.0
 11
369.7440671719913
 21
-1653.48543275856
 31
0.0
  0
LINE
  5
DB1
330
36
100
AcDbEntity
  8
0
 62
     2
100
AcDbLine
 10
369.7440671719913
 20
-1653.48543275856
 30
0.0
 11
369.7440671719913
 21
-1653.78766375856
 31
0.0
  0
LINE
  5
DB2
330
36
100
AcDbEntity
  8
0
 62
     2
100
AcDbLine
 10
372.8067391719912
 20
-1659.11713575856
 30
0.0
 11
372.8067391719912
 21
-1659.41936575856
 31
0.0
  0
LINE
  5
DB3
330
36
100
AcDbEntity
  8
0
 62
     2
100
AcDbLine
 10
375.6414541719914
 20
-1659.41936575856
 30
0.0
 11
372.8067391719912
 21
-1659.41936575856
 31
0.0
  0
LINE
  5
DB4
330
36
100
AcDbEntity
  8
0
 62
     2
100
AcDbLine
 10
374.9406871719912
 20
-1654.43938975856
 30
0.0
 11
374.9406871719912
 21
-1658.46540875856
 31
0.0
  0
LINE
  5
DB5
330
36
100
AcDbEntity
  8
0
 62
     2
100
AcDbLine
 10
374.9406871719912
 20
-1658.46540875856
 30
0.0
 11
375.2121861719913
 21
-1658.46540875856
 31
0.0
  0
ARC
  5
DB6
330
36
100
AcDbEntity
  8
0
 62
     2
100
AcDbCircle
 10
373.8239201719912
 20
-1656.45239975856
 30
0.0
 40
2.445299
100
AcDbArc
 50
304.5919550000003
 51
55.40804499999964
  0
LINE
  5
DB7
330
36
100
AcDbEntity
  8
0
 62
     2
100
AcDbLine
 10
375.6414541719914
 20
-1653.48543275856
 30
0.0
 11
372.8067391719912
 21
-1653.48543275856
 31
0.0
  0
LINE
  5
DB8
330
36
100
AcDbEntity
  8
0
 62
     2
100
AcDbLine
 10
372.8067391719912
 20
-1653.48543275856
 30
0.0
 11
372.8067391719912
 21
-1653.78766375856
 31
0.0
  0
LINE
  5
DB9
330
36
100
AcDbEntity
  8
0
 62
     2
100
AcDbLine
 10
369.7440671719913
 20
-1659.11713575856
 30
0.0
 11
369.7440671719913
 21
-1659.41936575856
 31
0.0
  0
LINE
  5
DBA
330
36
100
AcDbEntity
  8
0
 62
     2
100
AcDbLine
 10
374.9406871719912
 20
-1654.43938975856
 30
0.0
 11
375.2121861719913
 21
-1654.43938975856
 31
0.0
  0
LINE
  5
DBB
330
36
100
AcDbEntity
  8
0
 62
     2
100
AcDbLine
 10
358.3076021719914
 20
-1659.11713575856
 30
0.0
 11
358.3075971719912
 21
-1659.419393758559
 31
0.0
  0
LINE
  5
DBC
330
36
100
AcDbEntity
  8
0
 62
     2
100
AcDbLine
 10
355.5511511719914
 20
-1659.419337758559
 30
0.0
 11
358.3075971719912
 21
-1659.41938575856
 31
0.0
  0
LINE
  5
DBD
330
36
100
AcDbEntity
  8
0
 62
     2
100
AcDbLine
 10
349.4134631719914
 20
-1659.41936575856
 30
0.0
 11
351.6124131719914
 21
-1659.41936575856
 31
0.0
  0
ARC
  5
DBE
330
36
100
AcDbEntity
  8
0
 62
     2
100
AcDbCircle
 10
342.2964021719913
 20
-1656.382532758559
 30
0.0
 40
21.019379
100
AcDbArc
 50
353.8660060000014
 51
357.6940340000006
  0
LINE
  5
DBF
330
36
100
AcDbEntity
  8
0
 62
     2
100
AcDbLine
 10
361.8915161719913
 20
-1657.22305775856
 30
0.0
 11
363.2987601719912
 21
-1657.22826475856
 31
0.0
  0
LWPOLYLINE
  5
DC0
330
36
100
AcDbEntity
  8
0
 62
     2
100
AcDbPolyline
 90
       64
 70
     0
 43
0.0
 10
361.8971991719913
 20
-1655.68703675856
 10
361.8705891719912
 20
-1655.51665475856
 10
361.8386301719913
 20
-1655.35350475856
 10
361.8015701719913
 20
-1655.19884875856
 10
361.7596951719913
 20
-1655.05388275856
 10
361.7133301719912
 20
-1654.91972575856
 10
361.6628321719913
 20
-1654.79741575856
 10
361.6085921719914
 20
-1654.68789775856
 10
361.5510291719914
 20
-1654.59201875856
 10
361.4905871719912
 20
-1654.51051975856
 10
361.4277351719912
 20
-1654.44402975856
 10
361.3629581719913
 20
-1654.39306475856
 10
361.2967561719914
 20
-1654.35801575856
 10
361.2296421719912
 20
-1654.33915575856
 10
361.1621341719914
 20
-1654.33663075856
 10
361.0947541719913
 20
-1654.35045875856
 10
361.0280231719912
 20
-1654.38053475856
 10
360.9624561719913
 20
-1654.426623758561
 10
360.8985601719912
 20
-1654.48837175856
 10
360.8368291719913
 20
-1654.56530075856
 10
360.7777411719912
 20
-1654.656815758559
 10
360.7217521719913
 20
-1654.76220975856
 10
360.6692951719912
 20
-1654.88066775856
 10
360.6207751719913
 20
-1655.01127475856
 10
360.5765681719912
 20
-1655.15302075856
 10
360.5370141719912
 20
-1655.30481075856
 10
360.5024201719912
 20
-1655.46547075856
 10
360.4730541719913
 20
-1655.63375875856
 10
360.4491411719914
 20
-1655.80837575856
 10
360.4308681719912
 20
-1655.98796975856
 10
360.4183741719913
 20
-1656.17115275856
 10
360.4117581719913
 20
-1656.35651075856
 10
360.4110691719912
 20
-1656.54260975856
 10
360.4163141719912
 20
-1656.72801175856
 10
360.4274511719913
 20
-1656.91128275856
 10
360.4443951719912
 20
-1657.09100675856
 10
360.4670151719914
 20
-1657.26579475856
 10
360.4951351719912
 20
-1657.43429675856
 10
360.5285391719912
 20
-1657.59520775856
 10
360.5669691719914
 20
-1657.74728575856
 10
360.6101261719912
 20
-1657.88935575856
 10
360.6576781719913
 20
-1658.02031775856
 10
360.7092571719913
 20
-1658.13916175856
 10
360.7644651719913
 20
-1658.24496675856
 10
360.8228741719914
 20
-1658.33691675856
 10
360.8840341719912
 20
-1658.414299758559
 10
360.9474701719912
 20
-1658.47651875856
 10
361.0126951719914
 20
-1658.52309275856
 10
361.0792021719912
 20
-1658.55366075856
 10
361.1464781719913
 20
-1658.56798775856
 10
361.2140031719913
 20
-1658.56596175856
 10
361.2812541719914
 20
-1658.54759875856
 10
361.3477141719912
 20
-1658.513041758561
 10
361.4128661719913
 20
-1658.46255675856
 10
361.4762091719914
 20
-1658.39653375856
 10
361.5372511719913
 20
-1658.31548375856
 10
361.5955221719914
 20
-1658.220033758559
 10
361.6505721719914
 20
-1658.110920758559
 10
361.7019731719914
 20
-1657.98898775856
 10
361.7493301719912
 20
-1657.85517775856
 10
361.7922761719914
 20
-1657.71052475856
 10
361.8304801719913
 20
-1657.55614775856
 10
361.8636451719912
 20
-1657.39323875856
 10
361.8915161719913
 20
-1657.22305775856
  0
LINE
  5
DC1
330
36
100
AcDbEntity
  8
0
 62
     2
100
AcDbLine
 10
361.8971991719913
 20
-1655.68703675856
 30
0.0
 11
363.3044431719913
 21
-1655.69224375856
 31
0.0
  0
ARC
  5
DC2
330
36
100
AcDbEntity
  8
0
 62
     2
100
AcDbCircle
 10
342.2964021719913
 20
-1656.382532758559
 30
0.0
 40
21.019379
100
AcDbArc
 50
1.88196599999886
 51
5.709993999999716
  0
LINE
  5
DC3
330
36
100
AcDbEntity
  8
0
 62
     2
100
AcDbLine
 10
358.3077001719912
 20
-1653.48546175856
 30
0.0
 11
358.3076951719913
 21
-1653.78766375856
 31
0.0
  0
LINE
  5
DC4
330
36
100
AcDbEntity
  8
0
 62
     2
100
AcDbLine
 10
355.5512551719913
 20
-1653.48540475856
 30
0.0
 11
358.3077001719912
 21
-1653.48545275856
 31
0.0
  0
LINE
  5
DC5
330
36
100
AcDbEntity
  8
0
 62
     2
100
AcDbLine
 10
355.5511561719914
 20
-1659.11713575856
 30
0.0
 11
355.5511511719914
 21
-1659.419337758559
 31
0.0
  0
LINE
  5
DC6
330
36
100
AcDbEntity
  8
0
 62
     2
100
AcDbLine
 10
355.5512551719913
 20
-1653.48540475856
 30
0.0
 11
355.5512491719913
 21
-1653.78766375856
 31
0.0
  0
LINE
  5
DC7
330
36
100
AcDbEntity
  8
0
 62
     2
100
AcDbLine
 10
351.6124131719914
 20
-1659.11713575856
 30
0.0
 11
351.6124131719914
 21
-1659.41936575856
 31
0.0
  0
LINE
  5
DC8
330
36
100
AcDbEntity
  8
0
 62
     2
100
AcDbLine
 10
350.9899161719912
 20
-1655.93952575856
 30
0.0
 11
353.1648161719912
 21
-1659.41936575856
 31
0.0
  0
LINE
  5
DC9
330
36
100
AcDbEntity
  8
0
 62
     2
100
AcDbLine
 10
353.1648161719912
 20
-1659.41936575856
 30
0.0
 11
354.6211491719912
 21
-1659.41936575856
 31
0.0
  0
LINE
  5
DCA
330
36
100
AcDbEntity
  8
0
 62
     2
100
AcDbLine
 10
355.2436461719914
 20
-1653.48543275856
 30
0.0
 11
355.2436461719914
 21
-1653.78766375856
 31
0.0
  0
LINE
  5
DCB
330
36
100
AcDbEntity
  8
0
 62
     2
100
AcDbLine
 10
353.0446951719913
 20
-1653.48543275856
 30
0.0
 11
355.2436461719914
 21
-1653.48543275856
 31
0.0
  0
LINE
  5
DCC
330
36
100
AcDbEntity
  8
0
 62
     2
100
AcDbLine
 10
353.0446951719913
 20
-1653.48543275856
 30
0.0
 11
353.0446951719913
 21
-1653.78766375856
 31
0.0
  0
LINE
  5
DCD
330
36
100
AcDbEntity
  8
0
 62
     2
100
AcDbLine
 10
353.6671921719912
 20
-1656.17309975856
 30
0.0
 11
351.9034111719912
 21
-1653.48543275856
 31
0.0
  0
LINE
  5
DCE
330
36
100
AcDbEntity
  8
0
 62
     2
100
AcDbLine
 10
349.4134631719914
 20
-1653.48543275856
 30
0.0
 11
351.9034111719912
 21
-1653.48543275856
 31
0.0
  0
LINE
  5
DCF
330
36
100
AcDbEntity
  8
0
 62
     2
100
AcDbLine
 10
363.5794831719914
 20
-1653.48557375856
 30
0.0
 11
366.3684301719912
 21
-1653.48557375856
 31
0.0
  0
LINE
  5
DD0
330
36
100
AcDbEntity
  8
0
 62
     2
100
AcDbLine
 10
363.5794831719914
 20
-1653.78766375856
 30
0.0
 11
363.5794831719914
 21
-1653.48557375856
 31
0.0
  0
LINE
  5
DD1
330
36
100
AcDbEntity
  8
0
 62
     2
100
AcDbLine
 10
363.5794831719914
 20
-1659.41950675856
 30
0.0
 11
363.5794831719914
 21
-1659.11713575856
 31
0.0
  0
LINE
  5
DD2
330
36
100
AcDbEntity
  8
0
 62
     2
100
AcDbLine
 10
363.5794831719914
 20
-1659.41950675856
 30
0.0
 11
366.3684301719912
 21
-1659.41950675856
 31
0.0
  0
LINE
  5
DD3
330
36
100
AcDbEntity
  8
0
 62
     2
100
AcDbLine
 10
366.6594671719912
 20
-1659.11713575856
 30
0.0
 11
366.6594671719912
 21
-1659.41950675856
 31
0.0
  0
LINE
  5
DD4
330
36
100
AcDbEntity
  8
0
 62
     2
100
AcDbLine
 10
366.3684301719912
 20
-1659.11713575856
 30
0.0
 11
366.3684301719912
 21
-1659.41950675856
 31
0.0
  0
LINE
  5
DD5
330
36
100
AcDbEntity
  8
0
 62
     2
100
AcDbLine
 10
366.3684301719912
 20
-1653.78766375856
 30
0.0
 11
366.3684301719912
 21
-1653.48557375856
 31
0.0
  0
LINE
  5
DD6
330
36
100
AcDbEntity
  8
0
 62
     2
100
AcDbLine
 10
366.6594671719912
 20
-1653.78766375856
 30
0.0
 11
366.6594671719912
 21
-1653.48557375856
 31
0.0
  0
LINE
  5
DD7
330
36
100
AcDbEntity
  8
0
 62
     2
100
AcDbLine
 10
349.4134631719914
 20
-1659.11713575856
 30
0.0
 11
349.4134631719914
 21
-1659.41936575856
 31
0.0
  0
LINE
  5
DD8
330
36
100
AcDbEntity
  8
0
 62
     2
100
AcDbLine
 10
349.4134631719914
 20
-1653.48543275856
 30
0.0
 11
349.4134631719914
 21
-1653.78766375856
 31
0.0
  0
ARC
  5
DD9
330
36
100
AcDbEntity
  8
0
 62
     2
100
AcDbCircle
 10
375.9414541719913
 20
-1655.82990275856
 30
0.0
 40
2.344468999999999
100
AcDbArc
 50
17.3087489999987
 51
23.76507099999946
  0
ARC
  5
DDA
330
36
100
AcDbEntity
  8
0
 62
     2
100
AcDbCircle
 10
373.9439201719912
 20
-1656.45239975856
 30
0.0
 40
4.436751
100
AcDbArc
 50
342.6912510000013
 51
17.30856599999895
  0
ARC
  5
DDB
330
36
100
AcDbEntity
  8
0
 62
     2
100
AcDbCircle
 10
375.9414541719913
 20
-1657.07489675856
 30
0.0
 40
2.344468999999999
100
AcDbArc
 50
336.2349290000004
 51
342.6912510000013
  0
ARC
  5
DDC
330
36
100
AcDbEntity
  8
0
 62
     2
100
AcDbCircle
 10
375.6414541719914
 20
-1655.82990275856
 30
0.0
 40
2.344468999999999
100
AcDbArc
 50
17.3087489999987
 51
90.0
  0
ARC
  5
DDD
330
36
100
AcDbEntity
  8
0
 62
     2
100
AcDbCircle
 10
373.6439201719912
 20
-1656.45239975856
 30
0.0
 40
4.436751
100
AcDbArc
 50
342.6912510000013
 51
17.30856599999895
  0
ARC
  5
DDE
330
36
100
AcDbEntity
  8
0
 62
     2
100
AcDbCircle
 10
375.6414541719914
 20
-1657.07489675856
 30
0.0
 40
2.344468999999999
100
AcDbArc
 50
270.0
 51
342.6912510000013
  0
ARC
  5
DDF
330
36
100
AcDbEntity
  8
0
 62
     2
100
AcDbCircle
 10
361.1786821719913
 20
-1656.45239975856
 30
0.0
 40
2.966965999999997
100
AcDbArc
 50
46.75287999999944
 51
89.74999800000003
  0
ARC
  5
DE0
330
36
100
AcDbEntity
  8
0
 62
     2
100
AcDbCircle
 10
361.1786821719913
 20
-1656.45239975856
 30
0.0
 40
2.966965999999997
100
AcDbArc
 50
273.976333
 51
312.8231199999998
  0
ARC
  5
DE1
330
36
100
AcDbEntity
  8
0
 62
     2
100
AcDbCircle
 10
377.5241221719912
 20
-1656.49820175856
 30
0.0
 40
3.936983999999998
100
AcDbArc
 50
0.6665839999989771
 51
23.90392799999917
  0
ARC
  5
DE2
330
36
100
AcDbEntity
  8
0
 62
     2
100
AcDbCircle
 10
383.1177821719913
 20
-1656.49820175856
 30
0.0
 40
3.936983999999998
100
AcDbArc
 50
156.0960720000008
 51
179.333416000001
  0
ARC
  5
DE3
330
36
100
AcDbEntity
  8
0
 62
     2
100
AcDbCircle
 10
377.5241221719912
 20
-1656.40659675856
 30
0.0
 40
3.936983999999998
100
AcDbArc
 50
336.0960720000008
 51
359.333416000001
  0
ARC
  5
DE4
330
36
100
AcDbEntity
  8
0
 62
     2
100
AcDbCircle
 10
383.1177821719913
 20
-1656.40659675856
 30
0.0
 40
3.936983999999998
100
AcDbArc
 50
180.666583999999
 51
203.9039279999991
  0
LINE
  5
DE5
330
36
100
AcDbEntity
  8
0
 62
     3
100
AcDbLine
 10
390.2952981719912
 20
-1656.22766575856
 30
0.0
 11
561.6385731719909
 21
-1656.22766575856
 31
0.0
  0
LINE
  5
DE6
330
36
100
AcDbEntity
  8
0
 62
     3
100
AcDbLine
 10
341.7412641719912
 20
-1656.22766575856
 30
0.0
 11
171.6385731719912
 21
-1656.22766575856
 31
0.0
  0
TEXT
  5
DE7
330
36
100
AcDbEntity
  8
0
 62
     3
100
AcDbText
 10
452.1525281719913
 20
-1894.44777775856
 30
0.0
 40
2.0
  1
CONPONENTS
 41
0.5331600000000001
100
AcDbText
  0
TEXT
  5
DE8
330
36
100
AcDbEntity
  8
0
 62
     3
100
AcDbText
 10
451.8028011719912
 20
-1913.37995475856
 30
0.0
 40
3.0
  1
材
 41
0.833333
100
AcDbText
  0
TEXT
  5
DE9
330
36
100
AcDbEntity
  8
0
 62
     3
100
AcDbText
 10
459.3384441719911
 20
-1913.37995475856
 30
0.0
 40
3.0
  1
質
 41
0.833333
100
AcDbText
  0
TEXT
  5
DEA
330
36
100
AcDbEntity
  8
0
 62
     3
100
AcDbText
 10
451.8908721719911
 20
-1902.75543075856
 30
0.0
 40
2.0
  1
MODEL
 41
1.031072999999999
100
AcDbText
  0
TEXT
  5
DEB
330
36
100
AcDbEntity
  8
0
 62
     3
100
AcDbText
 10
451.8028011719912
 20
-1909.697646758561
 30
0.0
 40
2.0
  1
MATERIAL
 41
0.659278
100
AcDbText
  0
TEXT
  5
DEC
330
36
100
AcDbEntity
  8
0
 62
     3
100
AcDbText
 10
483.1100821719912
 20
-1913.37995475856
 30
0.0
 40
3.0
  1
備
 41
0.833333
100
AcDbText
  0
TEXT
  5
DED
330
36
100
AcDbEntity
  8
0
 62
     3
100
AcDbText
 10
489.8430831719911
 20
-1913.37995475856
 30
0.0
 40
3.0
  1
考
 41
0.833333
100
AcDbText
  0
TEXT
  5
DEE
330
36
100
AcDbEntity
  8
0
 62
     3
100
AcDbText
 10
483.6009604993168
 20
-1909.697646758561
 30
0.0
 40
2.0
  1
REMARKS
 41
0.675794
100
AcDbText
  0
TEXT
  5
DEF
330
36
100
AcDbEntity
  8
0
 62
     3
100
AcDbText
 10
453.3925301719913
 20
-1916.61776775856
 30
0.0
 40
2.0
  1
3AD
 41
1.42614
100
AcDbText
  0
TEXT
  5
DF0
330
36
100
AcDbEntity
  8
0
 62
     3
100
AcDbText
 10
462.703510171991
 20
-1916.45203375856
 30
0.0
 40
2.0
  1
ANGLE
 41
1.669883999999995
100
AcDbText
  0
TEXT
  5
DF1
330
36
100
AcDbEntity
  8
0
 62
     3
100
AcDbText
 10
483.6373971719912
 20
-1916.82887475856
 30
0.0
 40
2.0
  1
SCALE
 41
0.7719630000000001
100
AcDbText
  0
TEXT
  5
DF2
330
36
100
AcDbEntity
  8
0
 62
     3
100
AcDbText
 10
453.0786601719911
 20
-1920.61730375856
 30
0.0
 40
3.0
  1
第
 41
0.833333
100
AcDbText
  0
TEXT
  5
DF3
330
36
100
AcDbEntity
  8
0
 62
     3
100
AcDbText
 10
460.8655101719912
 20
-1920.61730375856
 30
0.0
 40
3.0
  1
三
 41
0.833333
100
AcDbText
  0
TEXT
  5
DF4
330
36
100
AcDbEntity
  8
0
 62
     3
100
AcDbText
 10
468.6523601719911
 20
-1920.61730375856
 30
0.0
 40
3.0
  1
角
 41
0.833333
100
AcDbText
  0
TEXT
  5
DF5
330
36
100
AcDbEntity
  8
0
 62
     3
100
AcDbText
 10
476.4392101719912
 20
-1920.61730375856
 30
0.0
 40
3.0
  1
法
 41
0.833333
100
AcDbText
  0
TEXT
  5
DF6
330
36
100
AcDbEntity
  8
0
 62
     3
100
AcDbText
 10
483.5006021719912
 20
-1920.32887475856
 30
0.0
 40
3.0
  1
尺
 41
0.833333
100
AcDbText
  0
TEXT
  5
DF7
330
36
100
AcDbEntity
  8
0
 62
     3
100
AcDbText
 10
490.2336041719911
 20
-1920.32887475856
 30
0.0
 40
3.0
  1
度
 41
0.833333
100
AcDbText
  0
TEXT
  5
DF8
330
36
100
AcDbEntity
  8
0
 62
     3
100
AcDbText
 10
512.8168741719912
 20
-1898.15957475856
 30
0.0
 40
3.0
  1
承認
 41
1.089472999999999
100
AcDbText
  0
TEXT
  5
DF9
330
36
100
AcDbEntity
  8
0
 62
     3
100
AcDbText
 10
526.0597541719912
 20
-1898.21730375856
 30
0.0
 40
3.0
  1
検図
 41
0.931761
100
AcDbText
  0
TEXT
  5
DFA
330
36
100
AcDbEntity
  8
0
 62
     3
100
AcDbText
 10
539.0601511719912
 20
-1898.21730375856
 30
0.0
 40
3.0
  1
設
 41
0.833333
100
AcDbText
  0
TEXT
  5
DFB
330
36
100
AcDbEntity
  8
0
 62
     3
100
AcDbText
 10
543.5500191719913
 20
-1898.21730375856
 30
0.0
 40
3.0
  1
計
 41
0.833333
100
AcDbText
  0
TEXT
  5
DFC
330
36
100
AcDbEntity
  8
0
 62
     3
100
AcDbText
 10
452.2226341719912
 20
-1898.04475175856
 30
0.0
 40
3.0
  1
品
 41
0.833333
100
AcDbText
  0
TEXT
  5
DFD
330
36
100
AcDbEntity
  8
0
 62
     3
100
AcDbText
 10
459.7582761719911
 20
-1898.04475175856
 30
0.0
 40
3.0
  1
名
 41
0.833333
100
AcDbText
  0
TEXT
  5
DFE
330
36
100
AcDbEntity
  8
0
 62
     3
100
AcDbText
 10
451.8908721719911
 20
-1906.268044457793
 30
0.0
 40
3.0
  1
型
 41
0.833333
100
AcDbText
  0
TEXT
  5
DFF
330
36
100
AcDbEntity
  8
0
 62
     3
100
AcDbText
 10
459.4389621719913
 20
-1906.268044457793
 30
0.0
 40
3.0
  1
式
 41
0.833333
100
AcDbText
  0
LINE
  5
E0D
330
36
100
AcDbEntity
  8
0
 62
     3
100
AcDbLine
 10
159.2366501719912
 20
-1789.78302675856
 30
0.0
 11
156.6385731719912
 21
-1791.28302675856
 31
0.0
  0
LINE
  5
E0E
330
36
100
AcDbEntity
  8
0
 62
     3
100
AcDbLine
 10
159.2366501719912
 20
-1789.78302675856
 30
0.0
 11
156.6385731719912
 21
-1788.28302675856
 31
0.0
  0
LINE
  5
E0F
330
36
100
AcDbEntity
  8
0
 62
     3
100
AcDbLine
 10
156.6385731719912
 20
-1791.28302675856
 30
0.0
 11
156.6385731719912
 21
-1788.28302675856
 31
0.0
  0
TEXT
  5
E10
330
36
100
AcDbEntity
  8
0
 62
     3
100
AcDbText
 10
471.4328881115814
 20
-1905.706672280611
 30
0.0
 40
4.5
  1
NR-304D
  7
高4.5
100
AcDbText
  0
TEXT
  5
E11
330
36
100
AcDbEntity
  8
0
 62
     3
100
AcDbText
 10
525.7385881719913
 20
-1919.844229024712
 30
0.0
 40
3.2
  1
2008.8.29
  7
高3.2
100
AcDbText
  0
TEXT
  5
E12
330
36
100
AcDbEntity
  8
0
 62
     3
100
AcDbText
 10
469.6265503290767
 20
-1897.999307801295
 30
0.0
 40
4.5
  1
2P電工ドラム
  7
高4.5
100
AcDbText
  0
TEXT
  5
E14
330
36
100
AcDbEntity
  8
0
 62
     7
100
AcDbText
 10
505.1385731719906
 20
-1670.72766575856
 30
0.0
 40
2.5
  1
A型フレームをF型に変更
  7
高2.5
100
AcDbText
  0
TEXT
  5
E15
330
36
100
AcDbEntity
  8
0
 62
     7
100
AcDbText
 10
549.1385731719906
 20
-1670.72766575856
 30
0.0
 40
2.5
  1
牧田
  7
高2.5
100
AcDbText
  0
LINE
  5
E16
330
36
100
AcDbEntity
  8
0
 62
     7
100
AcDbLine
 10
210.448761005111
 20
-1930.28302675856
 30
0.0
 11
210.448761005111
 21
-1870.28302675856
 31
0.0
  0
LINE
  5
E17
330
36
100
AcDbEntity
  8
0
 62
     7
100
AcDbLine
 10
178.3035733516244
 20
-1930.28302675856
 30
0.0
 11
178.3035733516244
 21
-1870.28302675856
 31
0.0
  0
TEXT
  5
E21
330
36
100
AcDbEntity
  8
0
 62
     3
100
AcDbText
 10
173.1385731719912
 20
-1909.78302675856
 30
0.0
 40
3.2
  1
4
 41
0.8
  7
高3.2
100
AcDbText
  0
LINE
  5
E22
330
36
100
AcDbEntity
  8
0
 62
     7
100
AcDbLine
 10
226.8237621662586
 20
-1930.28302675856
 30
0.0
 11
226.8237621662586
 21
-1870.28302675856
 31
0.0
  0
LINE
  5
E23
330
36
100
AcDbEntity
  8
0
 62
     7
100
AcDbLine
 10
277.6542474836353
 20
-1930.28302675856
 30
0.0
 11
277.6542474836353
 21
-1870.28302675856
 31
0.0
  0
TEXT
  5
E2A
330
36
100
AcDbEntity
  8
0
 62
     3
100
AcDbText
 10
468.155410171991
 20
-1912.848513425913
 30
0.0
 40
3.2
  1
別　掲
  7
高3.2
100
AcDbText
  0
TEXT
  5
E2B
330
36
100
AcDbEntity
  8
0
 62
     3
100
AcDbText
 10
179.8035733516244
 20
-1929.78302675856
 30
0.0
 40
3.2
  1
部　品　名
 41
0.8
  7
高3.2
100
AcDbText
  0
TEXT
  5
E2C
330
36
100
AcDbEntity
  8
0
 62
     3
100
AcDbText
 10
173.1385731719912
 20
-1924.78302675856
 30
0.0
 40
3.2
  1
1
 41
0.8
  7
高3.2
100
AcDbText
  0
TEXT
  5
E2D
330
36
100
AcDbEntity
  8
0
 62
     3
100
AcDbText
 10
173.1385731719912
 20
-1919.78302675856
 30
0.0
 40
3.2
  1
2
 41
0.8
  7
高3.2
100
AcDbText
  0
TEXT
  5
E2E
330
36
100
AcDbEntity
  8
0
 62
     3
100
AcDbText
 10
173.1385731719912
 20
-1914.78302675856
 30
0.0
 40
3.2
  1
3
 41
0.8
  7
高3.2
100
AcDbText
  0
TEXT
  5
E2F
330
36
100
AcDbEntity
  8
0
 62
     3
100
AcDbText
 10
173.1385731719912
 20
-1904.78302675856
 30
0.0
 40
3.2
  1
5
 41
0.8
  7
高3.2
100
AcDbText
  0
TEXT
  5
E30
330
36
100
AcDbEntity
  8
0
 62
     3
100
AcDbText
 10
173.1385731719912
 20
-1899.78302675856
 30
0.0
 40
3.2
  1
6
 41
0.8
  7
高3.2
100
AcDbText
  0
TEXT
  5
E31
330
36
100
AcDbEntity
  8
0
 62
     3
100
AcDbText
 10
173.1385731719912
 20
-1894.78302675856
 30
0.0
 40
3.2
  1
7
 41
0.8
  7
高3.2
100
AcDbText
  0
TEXT
  5
E32
330
36
100
AcDbEntity
  8
0
 62
     3
100
AcDbText
 10
173.1385731719912
 20
-1889.78302675856
 30
0.0
 40
3.2
  1
8
 41
0.8
  7
高3.2
100
AcDbText
  0
TEXT
  5
E33
330
36
100
AcDbEntity
  8
0
 62
     3
100
AcDbText
 10
173.1385731719912
 20
-1884.78302675856
 30
0.0
 40
3.2
  1
9
 41
0.8
  7
高3.2
100
AcDbText
  0
TEXT
  5
E34
330
36
100
AcDbEntity
  8
0
 62
     3
100
AcDbText
 10
173.1385731719912
 20
-1879.78302675856
 30
0.0
 40
3.2
  1
10
 41
0.8
  7
高3.2
100
AcDbText
  0
TEXT
  5
E35
330
36
100
AcDbEntity
  8
0
 62
     3
100
AcDbText
 10
179.8035733516246
 20
-1879.78302675856
 30
0.0
 40
3.2
  1
プラグ付き電線
 41
0.8
  7
高3.2
100
AcDbText
  0
TEXT
  5
E36
330
36
100
AcDbEntity
  8
0
 62
     3
100
AcDbText
 10
179.8035733516246
 20
-1889.78302675856
 30
0.0
 40
3.2
  1
ブッシング
 41
0.8
  7
高3.2
100
AcDbText
  0
TEXT
  5
E37
330
36
100
AcDbEntity
  8
0
 62
     3
100
AcDbText
 10
179.8035733516246
 20
-1884.78302675856
 30
0.0
 40
3.2
  1
2Pダブルコンセント
 41
0.8
  7
高3.2
100
AcDbText
  0
TEXT
  5
E38
330
36
100
AcDbEntity
  8
0
 62
     3
100
AcDbText
 10
179.8035733516246
 20
-1899.78302675856
 30
0.0
 40
3.2
  1
ハンドルツマミ(小)
 41
0.8
  7
高3.2
100
AcDbText
  0
TEXT
  5
E39
330
36
100
AcDbEntity
  8
0
 62
     3
100
AcDbText
 10
179.8035733516246
 20
-1904.78302675856
 30
0.0
 40
3.2
  1
巻胴
 41
0.8
  7
高3.2
100
AcDbText
  0
TEXT
  5
E3A
330
36
100
AcDbEntity
  8
0
 62
     3
100
AcDbText
 10
179.8035733516246
 20
-1909.78302675856
 30
0.0
 40
3.2
  1
側板(A板)
 41
0.8
  7
高3.2
100
AcDbText
  0
TEXT
  5
E3B
330
36
100
AcDbEntity
  8
0
 62
     3
100
AcDbText
 10
179.8035733516246
 20
-1914.78302675856
 30
0.0
 40
3.2
  1
側板(B板)
 41
0.8
  7
高3.2
100
AcDbText
  0
TEXT
  5
E3C
330
36
100
AcDbEntity
  8
0
 62
     3
100
AcDbText
 10
211.948761005111
 20
-1924.78302675856
 30
0.0
 40
3.2
  1
HDPE
 41
0.8
  7
高3.2
100
AcDbText
  0
TEXT
  5
E3D
330
36
100
AcDbEntity
  8
0
 62
     3
100
AcDbText
 10
211.948761005111
 20
-1929.78302675856
 30
0.0
 40
3.2
  1
材　質
 41
0.8
  7
高3.2
100
AcDbText
  0
TEXT
  5
E3E
330
36
100
AcDbEntity
  8
0
 62
     3
100
AcDbText
 10
211.948761005111
 20
-1919.78302675856
 30
0.0
 40
3.2
  1
STKM
 41
0.8
  7
高3.2
100
AcDbText
  0
TEXT
  5
E3F
330
36
100
AcDbEntity
  8
0
 62
     3
100
AcDbText
 10
211.948761005111
 20
-1914.78302675856
 30
0.0
 40
3.2
  1
SPCC
 41
0.8
  7
高3.2
100
AcDbText
  0
TEXT
  5
E40
330
36
100
AcDbEntity
  8
0
 62
     3
100
AcDbText
 10
211.948761005111
 20
-1909.78302675856
 30
0.0
 40
3.2
  1
SPCC
 41
0.8
  7
高3.2
100
AcDbText
  0
TEXT
  5
E41
330
36
100
AcDbEntity
  8
0
 62
     3
100
AcDbText
 10
211.948761005111
 20
-1904.78302675856
 30
0.0
 40
3.2
  1
ABS樹脂
 41
0.8
  7
高3.2
100
AcDbText
  0
TEXT
  5
E42
330
36
100
AcDbEntity
  8
0
 62
     3
100
AcDbText
 10
211.948761005111
 20
-1879.78302675856
 30
0.0
 40
3.2
  1
VCT
 41
0.8
  7
高3.2
100
AcDbText
  0
TEXT
  5
E43
330
36
100
AcDbEntity
  8
0
 62
     3
100
AcDbText
 10
228.3237621662586
 20
-1929.78302675856
 30
0.0
 40
3.2
  1
仕　　様
 41
0.8
  7
高3.2
100
AcDbText
  0
TEXT
  5
E44
330
36
100
AcDbEntity
  8
0
 62
     3
100
AcDbText
 10
228.3237621662586
 20
-1914.78302675856
 30
0.0
 40
3.2
  1
塗装色：オレンジ
 41
0.8
  7
高3.2
100
AcDbText
  0
TEXT
  5
E45
330
36
100
AcDbEntity
  8
0
 62
     3
100
AcDbText
 10
228.3237621662586
 20
-1909.78302675856
 30
0.0
 40
3.2
  1
塗装色：オレンジ
 41
0.8
  7
高3.2
100
AcDbText
  0
TEXT
  5
E46
330
36
100
AcDbEntity
  8
0
 62
     3
100
AcDbText
 10
228.3237621662586
 20
-1884.78302675856
 30
0.0
 40
3.2
  1
15A 125V
 41
0.8
  7
高3.2
100
AcDbText
  0
TEXT
  5
E47
330
36
100
AcDbEntity
  8
0
 62
     3
100
AcDbText
 10
228.3237621662586
 20
-1879.78302675856
 30
0.0
 40
3.2
  1
1.25sqx2芯x30m
 41
0.8
  7
高3.2
100
AcDbText
  0
TEXT
  5
E48
330
36
100
AcDbEntity
  8
0
 62
     3
100
AcDbText
 10
260.9459869749517
 20
-1914.78302675856
 30
0.0
 40
3.2
  1
R-01
 41
0.8
  7
高3.2
100
AcDbText
  0
TEXT
  5
E49
330
36
100
AcDbEntity
  8
0
 62
     3
100
AcDbText
 10
260.9459869749517
 20
-1909.78302675856
 30
0.0
 40
3.2
  1
R-00
 41
0.8
  7
高3.2
100
AcDbText
  0
TEXT
  5
E4A
330
36
100
AcDbEntity
  8
0
 62
     3
100
AcDbText
 10
260.9459869749517
 20
-1899.78302675856
 30
0.0
 40
3.2
  1
H-01
 41
0.8
  7
高3.2
100
AcDbText
  0
TEXT
  5
E4B
330
36
100
AcDbEntity
  8
0
 62
     3
100
AcDbText
 10
260.9459869749517
 20
-1884.78302675856
 30
0.0
 40
3.2
  1
2P0-D
 41
0.8
  7
高3.2
100
AcDbText
  0
TEXT
  5
E4C
330
36
100
AcDbEntity
  8
0
 62
     3
100
AcDbText
 10
260.9459869749517
 20
-1889.78302675856
 30
0.0
 40
3.2
  1
CP-19
 41
0.8
  7
高3.2
100
AcDbText
  0
TEXT
  5
E4D
330
36
100
AcDbEntity
  8
0
 62
     3
100
AcDbText
 10
279.1542474836353
 20
-1929.78302675856
 30
0.0
 40
3.2
  1
個数
 41
0.8
  7
高3.2
100
AcDbText
  0
TEXT
  5
E4E
330
36
100
AcDbEntity
  8
0
 62
     3
100
AcDbText
 10
211.948761005111
 20
-1884.78302675856
 30
0.0
 40
3.2
  1
ABS樹脂
 41
0.8
  7
高3.2
100
AcDbText
  0
TEXT
  5
E4F
330
36
100
AcDbEntity
  8
0
 62
     3
100
AcDbText
 10
211.948761005111
 20
-1899.78302675856
 30
0.0
 40
3.2
  1
ABS樹脂
 41
0.8
  7
高3.2
100
AcDbText
  0
TEXT
  5
E50
330
36
100
AcDbEntity
  8
0
 62
     3
100
AcDbText
 10
173.1385731719912
 20
-1929.78302675856
 30
0.0
 40
3.2
  1
NO
 41
0.8
  7
高3.2
100
AcDbText
  0
TEXT
  5
E51
330
36
100
AcDbEntity
  8
0
 62
     3
100
AcDbText
 10
228.3237621662586
 20
-1899.78302675856
 30
0.0
 40
3.2
  1
軸%%C8 M5ナット
 41
0.8
  7
高3.2
100
AcDbText
  0
TEXT
  5
E52
330
36
100
AcDbEntity
  8
0
 62
     3
100
AcDbText
 10
228.3237621662586
 20
-1919.78302675856
 30
0.0
 40
3.2
  1
%%C19.1x1.6t
 41
0.8
  7
高3.2
100
AcDbText
  0
TEXT
  5
E53
330
36
100
AcDbEntity
  8
0
 62
     3
100
AcDbText
 10
211.948761005111
 20
-1889.78302675856
 30
0.0
 40
3.2
  1
PC樹脂
 41
0.8
  7
高3.2
100
AcDbText
  0
TEXT
  5
E54
330
36
100
AcDbEntity
  8
0
 62
     3
100
AcDbText
 10
179.8035733516246
 20
-1894.78302675856
 30
0.0
 40
3.2
  1
平ワッシャー
 41
0.8
  7
高3.2
100
AcDbText
  0
TEXT
  5
E55
330
36
100
AcDbEntity
  8
0
 62
     3
100
AcDbText
 10
211.948761005111
 20
-1894.78302675856
 30
0.0
 40
3.2
  1
SPCC
 41
0.8
  7
高3.2
100
AcDbText
  0
TEXT
  5
E56
330
36
100
AcDbEntity
  8
0
 62
     3
100
AcDbText
 10
228.3237621662586
 20
-1894.78302675856
 30
0.0
 40
3.2
  1
%%C31x2t
 41
0.8
  7
高3.2
100
AcDbText
  0
TEXT
  5
E57
330
36
100
AcDbEntity
  8
0
 62
     3
100
AcDbText
 10
495.0883831719912
 20
-1919.98259375856
 30
0.0
 40
3.2
  1
FREE
  7
高3.2
100
AcDbText
  0
TEXT
  5
E58
330
36
100
AcDbEntity
  8
0
 62
     3
100
AcDbText
 10
179.8035733516246
 20
-1919.78302675856
 30
0.0
 40
3.2
  1
NRフレーム
 41
0.8
  7
高3.2
100
AcDbText
  0
LINE
  5
E59
330
36
100
AcDbEntity
  8
0
 62
     7
100
AcDbLine
 10
285.9937295240475
 20
-1930.28302675856
 30
0.0
 11
285.9937295240475
 21
-1870.28302675856
 31
0.0
  0
TEXT
  5
E5A
330
36
100
AcDbEntity
  8
0
 62
     3
100
AcDbText
 10
279.1542474836353
 20
-1924.783026758559
 30
0.0
 40
3.2
  1
1
 41
0.8
  7
高3.2
100
AcDbText
  0
TEXT
  5
E5B
330
36
100
AcDbEntity
  8
0
 62
     3
100
AcDbText
 10
260.9459869749517
 20
-1919.78302675856
 30
0.0
 40
3.2
  1
NR-100F
 41
0.8
  7
高3.2
100
AcDbText
  0
TEXT
  5
E5C
330
36
100
AcDbEntity
  8
0
 62
     3
100
AcDbText
 10
260.9459869749517
 20
-1904.78302675856
 30
0.0
 40
3.2
  1
P-100
 41
0.8
  7
高3.2
100
AcDbText
  0
TEXT
  5
E5D
330
36
100
AcDbEntity
  8
0
 62
     3
100
AcDbText
 10
228.3237621662586
 20
-1904.78302675856
 30
0.0
 40
3.2
  1
%%C135x100
 41
0.8
  7
高3.2
100
AcDbText
  0
TEXT
  5
E5E
330
36
100
AcDbEntity
  8
0
 62
     3
100
AcDbText
 10
260.9459869749517
 20
-1924.78302675856
 30
0.0
 40
3.2
  1
G-05
 41
0.8
  7
高3.2
100
AcDbText
  0
TEXT
  5
E5F
330
36
100
AcDbEntity
  8
0
 62
     7
100
AcDbText
 10
487.1385731719906
 20
-1670.72766575856
 30
0.0
 40
2.5
  1
08.12.5
  7
高2.5
100
AcDbText
  0
TEXT
  5
E60
330
36
100
AcDbEntity
  8
0
 62
     3
100
AcDbText
 10
179.8035733516246
 20
-1924.78302675856
 30
0.0
 40
3.2
  1
丸グリップ
 41
0.8
  7
高3.2
100
AcDbText
  0
TEXT
  5
E61
330
36
100
AcDbEntity
  8
0
 62
     3
100
AcDbText
 10
279.1542474836353
 20
-1919.78302675856
 30
0.0
 40
3.2
  1
1
 41
0.8
  7
高3.2
100
AcDbText
  0
TEXT
  5
E62
330
36
100
AcDbEntity
  8
0
 62
     3
100
AcDbText
 10
279.1542474836353
 20
-1914.78302675856
 30
0.0
 40
3.2
  1
1
 41
0.8
  7
高3.2
100
AcDbText
  0
TEXT
  5
E63
330
36
100
AcDbEntity
  8
0
 62
     3
100
AcDbText
 10
279.1542474836353
 20
-1909.78302675856
 30
0.0
 40
3.2
  1
1
 41
0.8
  7
高3.2
100
AcDbText
  0
TEXT
  5
E64
330
36
100
AcDbEntity
  8
0
 62
     3
100
AcDbText
 10
279.1542474836353
 20
-1904.78302675856
 30
0.0
 40
3.2
  1
1
 41
0.8
  7
高3.2
100
AcDbText
  0
TEXT
  5
E65
330
36
100
AcDbEntity
  8
0
 62
     3
100
AcDbText
 10
279.1542474836353
 20
-1899.78302675856
 30
0.0
 40
3.2
  1
1
 41
0.8
  7
高3.2
100
AcDbText
  0
TEXT
  5
E66
330
36
100
AcDbEntity
  8
0
 62
     3
100
AcDbText
 10
279.1542474836353
 20
-1894.78302675856
 30
0.0
 40
3.2
  1
1
 41
0.8
  7
高3.2
100
AcDbText
  0
TEXT
  5
E67
330
36
100
AcDbEntity
  8
0
 62
     3
100
AcDbText
 10
279.1542474836353
 20
-1889.78302675856
 30
0.0
 40
3.2
  1
1
 41
0.8
  7
高3.2
100
AcDbText
  0
TEXT
  5
E68
330
36
100
AcDbEntity
  8
0
 62
     3
100
AcDbText
 10
279.1542474836353
 20
-1879.78302675856
 30
0.0
 40
3.2
  1
1
 41
0.8
  7
高3.2
100
AcDbText
  0
TEXT
  5
E69
330
36
100
AcDbEntity
  8
0
 62
     3
100
AcDbText
 10
279.1542474836353
 20
-1884.78302675856
 30
0.0
 40
3.2
  1
2
 41
0.8
  7
高3.2
100
AcDbText
  0
TEXT
  5
E6E
330
36
100
AcDbEntity
  8
0
 62
     3
100
AcDbText
 10
513.9457872724635
 20
-1928.942540147196
 30
0.0
 40
6.299999999999998
  1
NR-304D
 41
0.9
  7
高6.3
100
AcDbText
  0
LINE
  5
E6F
330
36
100
AcDbEntity
  8
0
 62
     3
100
AcDbLine
 10
535.9392101719912
 20
-1890.61730375856
 30
0.0
 11
535.9392101719912
 21
-1884.61730375856
 31
0.0
  0
LINE
  5
E70
330
36
100
AcDbEntity
  8
0
 62
     3
100
AcDbLine
 10
509.9392101719912
 20
-1890.61730375856
 30
0.0
 11
509.9392101719912
 21
-1884.61730375856
 31
0.0
  0
LINE
  5
E71
330
36
100
AcDbEntity
  8
0
 62
     3
100
AcDbLine
 10
561.6385731719909
 20
-1884.61730375856
 30
0.0
 11
509.9392101719912
 21
-1884.61730375856
 31
0.0
  0
TEXT
  5
E72
330
36
100
AcDbEntity
  8
0
 62
     3
100
AcDbText
 10
515.9348081719913
 20
-1889.82095475856
 30
0.0
 40
4.5
  1
コード
  7
高4.5
100
AcDbText
  0
TEXT
  5
E75
330
36
100
AcDbEntity
  8
0
 62
     3
100
AcDbText
 10
546.0425907791273
 20
-1889.97316675856
 30
0.0
 40
4.5
  1
15
  7
高4.5
100
AcDbText
  0
LINE
  5
E76
330
36
100
AcDbEntity
  8
0
100
AcDbLine
 10
259.4459869749517
 20
-1930.28302675856
 30
0.0
 11
259.4459869749517
 21
-1870.28302675856
 31
0.0
  0
TEXT
  5
E77
330
36
100
AcDbEntity
  8
0
 62
     3
100
AcDbText
 10
260.9459869749517
 20
-1894.78302675856
 30
0.0
 40
3.2
  1
-
 41
0.8
  7
高3.2
100
AcDbText
  0
TEXT
  5
E78
330
36
100
AcDbEntity
  8
0
 62
     3
100
AcDbText
 10
260.9459869749517
 20
-1879.78302675856
 30
0.0
 40
3.2
  1
-
 41
0.8
  7
高3.2
100
AcDbText
  0
TEXT
  5
E79
330
36
100
AcDbEntity
  8
0
 62
     3
100
AcDbText
 10
228.3237621662586
 20
-1889.78302675856
 30
0.0
 40
3.2
  1
-
 41
0.8
  7
高3.2
100
AcDbText
  0
TEXT
  5
E7A
330
36
100
AcDbEntity
  8
0
 62
     3
100
AcDbText
 10
228.3237621662586
 20
-1924.78302675856
 30
0.0
 40
3.2
  1
-
 41
0.8
  7
高3.2
100
AcDbText
  0
TEXT
  5
E7B
330
36
100
AcDbEntity
  8
0
 62
     3
100
AcDbText
 10
260.9459869749517
 20
-1929.78302675856
 30
0.0
 40
3.2
  1
備　考
 41
0.8
  7
高3.2
100
AcDbText
  0
TEXT
  5
E7D
330
36
100
AcDbEntity
  8
0
 62
     3
100
AcDbText
 10
287.4937295240476
 20
-1924.78302675856
 30
0.0
 40
3.2
  1
54567●
 41
0.8
  7
高3.2
100
AcDbText
  0
TEXT
  5
E7E
330
36
100
AcDbEntity
  8
0
 62
     3
100
AcDbText
 10
287.4937295240475
 20
-1929.78302675856
 30
0.0
 40
3.2
  1
コード
 41
0.8
  7
高3.2
100
AcDbText
  0
TEXT
  5
E7F
330
36
100
AcDbEntity
  8
0
 62
     3
100
AcDbText
 10
287.4937295240476
 20
-1919.78302675856
 30
0.0
 40
3.2
  1
53795
 41
0.8
  7
高3.2
100
AcDbText
  0
TEXT
  5
E80
330
36
100
AcDbEntity
  8
0
 62
     3
100
AcDbText
 10
287.4937295240476
 20
-1914.78302675856
 30
0.0
 40
3.2
  1
50853
 41
0.8
  7
高3.2
100
AcDbText
  0
TEXT
  5
E81
330
36
100
AcDbEntity
  8
0
 62
     3
100
AcDbText
 10
287.4937295240476
 20
-1909.78302675856
 30
0.0
 40
3.2
  1
50852
 41
0.8
  7
高3.2
100
AcDbText
  0
TEXT
  5
E82
330
36
100
AcDbEntity
  8
0
 62
     3
100
AcDbText
 10
287.4937295240476
 20
-1904.78302675856
 30
0.0
 40
3.2
  1
51554
 41
0.8
  7
高3.2
100
AcDbText
  0
TEXT
  5
E83
330
36
100
AcDbEntity
  8
0
 62
     3
100
AcDbText
 10
287.4937295240476
 20
-1879.78302675856
 30
0.0
 40
3.2
  1
51147
 41
0.8
  7
高3.2
100
AcDbText
  0
TEXT
  5
E84
330
36
100
AcDbEntity
  8
0
 62
     3
100
AcDbText
 10
287.4937295240476
 20
-1884.78302675856
 30
0.0
 40
3.2
  1
51398
 41
0.8
  7
高3.2
100
AcDbText
  0
TEXT
  5
E85
330
36
100
AcDbEntity
  8
0
 62
     3
100
AcDbText
 10
287.4937295240476
 20
-1899.78302675856
 30
0.0
 40
3.2
  1
8075
 41
0.8
  7
高3.2
100
AcDbText
  0
TEXT
  5
E86
330
36
100
AcDbEntity
  8
0
 62
     3
100
AcDbText
 10
287.4937295240476
 20
-1889.78302675856
 30
0.0
 40
3.2
  1
50054
 41
0.8
  7
高3.2
100
AcDbText
  0
TEXT
  5
E87
330
36
100
AcDbEntity
  8
0
 62
     3
100
AcDbText
 10
287.4937295240476
 20
-1894.78302675856
 30
0.0
 40
3.2
  1
51686
 41
0.8
  7
高3.2
100
AcDbText
  0
ARC
  5
13F5
330
36
100
AcDbEntity
  8
0
 62
     3
100
AcDbCircle
 10
606.180903514645
 20
-1792.673601909106
 30
0.0
 40
99.98879999999998
100
AcDbArc
 50
161.4767469999966
 51
168.0130150000004
  0
LINE
  5
13F6
330
36
100
AcDbEntity
  8
0
 62
     3
100
AcDbLine
 10
508.372379514645
 20
-1771.906978909106
 30
0.0
 11
508.372379514645
 21
-1773.906754909106
 31
0.0
  0
LINE
  5
13F7
330
36
100
AcDbEntity
  8
0
 62
     3
100
AcDbLine
 10
508.372379514645
 20
-1773.906754909106
 30
0.0
 11
524.3705875146447
 21
-1773.906754909106
 31
0.0
  0
ARC
  5
13F8
330
36
100
AcDbEntity
  8
0
 62
     3
100
AcDbCircle
 10
426.5620625146445
 20
-1792.673601909106
 30
0.0
 40
99.98879999999998
100
AcDbArc
 50
11.98698499999956
 51
18.52325300000339
  0
LINE
  5
13F9
330
36
100
AcDbEntity
  8
0
 62
     3
100
AcDbLine
 10
522.3708115146449
 20
-1757.908546909106
 30
0.0
 11
521.3709235146446
 21
-1760.908210909106
 31
0.0
  0
LINE
  5
13FA
330
36
100
AcDbEntity
  8
0
 62
     3
100
AcDbLine
 10
522.3708115146449
 20
-1756.908658909106
 30
0.0
 11
522.3708115146449
 21
-1757.908546909106
 31
0.0
  0
LINE
  5
13FB
330
36
100
AcDbEntity
  8
0
 62
     3
100
AcDbLine
 10
510.3721555146448
 20
-1756.908658909106
 30
0.0
 11
522.3708115146449
 21
-1756.908658909106
 31
0.0
  0
LINE
  5
13FC
330
36
100
AcDbEntity
  8
0
 62
     3
100
AcDbLine
 10
519.8710915146448
 20
-1751.909218909106
 30
0.0
 11
519.8710915146448
 21
-1756.908658909106
 31
0.0
  0
LINE
  5
13FD
330
36
100
AcDbEntity
  8
0
 62
     3
100
AcDbLine
 10
512.8718755146449
 20
-1751.909218909106
 30
0.0
 11
512.8718755146449
 21
-1756.908658909106
 31
0.0
  0
LINE
  5
13FE
330
36
100
AcDbEntity
  8
0
 62
     3
100
AcDbLine
 10
520.371035514645
 20
-1742.910226909106
 30
0.0
 11
512.3719315146446
 21
-1742.910226909106
 31
0.0
  0
ARC
  5
13FF
330
36
100
AcDbEntity
  8
0
 62
     3
100
AcDbCircle
 10
520.371035514645
 20
-1743.410170909106
 30
0.0
 40
0.499944
100
AcDbArc
 50
0.0
 51
90.0
  0
ARC
  5
1400
330
36
100
AcDbEntity
  8
0
 62
     3
100
AcDbCircle
 10
520.371035514645
 20
-1743.410170909106
 30
0.0
 40
0.499944
100
AcDbArc
 50
270.0
 51
0.0
  0
ARC
  5
1401
330
36
100
AcDbEntity
  8
0
 62
     3
100
AcDbCircle
 10
520.371035514645
 20
-1747.409722909106
 30
0.0
 40
0.499944
100
AcDbArc
 50
270.0
 51
0.0
  0
LINE
  5
1402
330
36
100
AcDbEntity
  8
0
 62
     3
100
AcDbLine
 10
519.8710915146448
 20
-1747.909666909106
 30
0.0
 11
519.8710915146448
 21
-1750.909330909106
 31
0.0
  0
ARC
  5
1403
330
36
100
AcDbEntity
  8
0
 62
     3
100
AcDbCircle
 10
520.371035514645
 20
-1751.409274909106
 30
0.0
 40
0.499944
100
AcDbArc
 50
0.0
 51
90.0
  0
ARC
  5
1404
330
36
100
AcDbEntity
  8
0
 62
     3
100
AcDbCircle
 10
520.371035514645
 20
-1751.409274909106
 30
0.0
 40
0.499944
100
AcDbArc
 50
270.0
 51
0.0
  0
ARC
  5
1405
330
36
100
AcDbEntity
  8
0
 62
     3
100
AcDbCircle
 10
512.3719315146446
 20
-1751.409274909106
 30
0.0
 40
0.499944
100
AcDbArc
 50
90.0
 51
180.0
  0
LINE
  5
1406
330
36
100
AcDbEntity
  8
0
 62
     3
100
AcDbLine
 10
512.8718755146449
 20
-1747.909666909106
 30
0.0
 11
512.8718755146449
 21
-1750.909330909106
 31
0.0
  0
ARC
  5
1407
330
36
100
AcDbEntity
  8
0
 62
     3
100
AcDbCircle
 10
512.3719315146446
 20
-1751.409274909106
 30
0.0
 40
0.499944
100
AcDbArc
 50
180.0
 51
270.0
  0
LINE
  5
1408
330
36
100
AcDbEntity
  8
0
 62
     3
100
AcDbLine
 10
510.3721555146448
 20
-1756.908658909106
 30
0.0
 11
510.3721555146448
 21
-1757.908546909106
 31
0.0
  0
LINE
  5
1409
330
36
100
AcDbEntity
  8
0
 62
     3
100
AcDbLine
 10
510.3721555146448
 20
-1757.908546909106
 30
0.0
 11
511.3720435146446
 21
-1760.908210909106
 31
0.0
  0
LINE
  5
140A
330
36
100
AcDbEntity
  8
0
 62
     3
100
AcDbLine
 10
524.3705875146447
 20
-1771.906978909106
 30
0.0
 11
524.3705875146447
 21
-1773.906754909106
 31
0.0
  0
ARC
  5
140B
330
36
100
AcDbEntity
  8
0
 62
     3
100
AcDbCircle
 10
512.3719315146446
 20
-1747.409722909106
 30
0.0
 40
0.499944
100
AcDbArc
 50
180.0
 51
270.0
  0
ARC
  5
140C
330
36
100
AcDbEntity
  8
0
 62
     3
100
AcDbCircle
 10
512.3719315146446
 20
-1747.409722909106
 30
0.0
 40
0.499944
100
AcDbArc
 50
90.0
 51
180.0
  0
LINE
  5
140D
330
36
100
AcDbEntity
  8
0
 62
     3
100
AcDbLine
 10
512.8718755146449
 20
-1743.910114909106
 30
0.0
 11
512.8718755146449
 21
-1746.909778909106
 31
0.0
  0
LINE
  5
140E
330
36
100
AcDbEntity
  8
0
 62
     3
100
AcDbLine
 10
519.8710915146448
 20
-1743.910114909106
 30
0.0
 11
519.8710915146448
 21
-1746.909778909106
 31
0.0
  0
ARC
  5
140F
330
36
100
AcDbEntity
  8
0
 62
     3
100
AcDbCircle
 10
520.371035514645
 20
-1747.409722909106
 30
0.0
 40
0.499944
100
AcDbArc
 50
0.0
 51
90.0
  0
ARC
  5
1410
330
36
100
AcDbEntity
  8
0
 62
     3
100
AcDbCircle
 10
512.3719315146446
 20
-1743.410170909106
 30
0.0
 40
0.499944
100
AcDbArc
 50
180.0
 51
270.0
  0
ARC
  5
1411
330
36
100
AcDbEntity
  8
0
 62
     3
100
AcDbCircle
 10
512.3719315146446
 20
-1743.410170909106
 30
0.0
 40
0.499944
100
AcDbArc
 50
90.0
 51
180.0
  0
LINE
  5
1412
330
36
100
AcDbEntity
  8
0
 62
     3
100
AcDbLine
 10
518.9711915146448
 20
-1705.667766823082
 30
0.0
 11
518.9711915146448
 21
-1726.221756694812
 31
0.0
  0
LINE
  5
1413
330
36
100
AcDbEntity
  8
0
 62
     3
100
AcDbLine
 10
518.9711915146448
 20
-1736.221756694812
 30
0.0
 11
518.9711915146448
 21
-1742.910226909106
 31
0.0
  0
LINE
  5
1414
330
36
100
AcDbEntity
  8
0
 62
     3
100
AcDbLine
 10
513.7717745146447
 20
-1707.128586823082
 30
0.0
 11
513.7717745146447
 21
-1726.221756694812
 31
0.0
  0
LINE
  5
1415
330
36
100
AcDbEntity
  8
0
 62
     3
100
AcDbLine
 10
513.7717745146447
 20
-1736.221756694812
 30
0.0
 11
513.7717745146447
 21
-1742.910226909106
 31
0.0
  0
LINE
  5
1421
330
36
100
AcDbEntity
  8
0
 62
     7
100
AcDbLine
 10
518.9711915146448
 20
-1744.910002909106
 30
0.0
 11
518.9711915146448
 21
-1745.909890909106
 31
0.0
  0
LINE
  5
1422
330
36
100
AcDbEntity
  8
0
 62
     7
100
AcDbLine
 10
520.371035514645
 20
-1743.910114909106
 30
0.0
 11
512.3719315146446
 21
-1743.910114909106
 31
0.0
  0
LINE
  5
1423
330
36
100
AcDbEntity
  8
0
 62
     7
100
AcDbLine
 10
520.371035514645
 20
-1746.909778909106
 30
0.0
 11
512.3719315146446
 21
-1746.909778909106
 31
0.0
  0
LINE
  5
1424
330
36
100
AcDbEntity
  8
0
 62
     7
100
AcDbLine
 10
520.371035514645
 20
-1747.909666909106
 30
0.0
 11
512.3719315146446
 21
-1747.909666909106
 31
0.0
  0
LINE
  5
1425
330
36
100
AcDbEntity
  8
0
 62
     7
100
AcDbLine
 10
513.7717745146447
 20
-1744.910002909106
 30
0.0
 11
513.7717745146447
 21
-1745.909890909106
 31
0.0
  0
LINE
  5
1426
330
36
100
AcDbEntity
  8
0
 62
     7
100
AcDbLine
 10
518.9711915146448
 20
-1748.909554909106
 30
0.0
 11
518.9711915146448
 21
-1749.909442909106
 31
0.0
  0
LINE
  5
1427
330
36
100
AcDbEntity
  8
0
 62
     7
100
AcDbLine
 10
513.7717745146447
 20
-1748.909554909106
 30
0.0
 11
513.7717745146447
 21
-1749.909442909106
 31
0.0
  0
LINE
  5
1428
330
36
100
AcDbEntity
  8
0
 62
     7
100
AcDbLine
 10
512.3719315146446
 20
-1751.909218909106
 30
0.0
 11
520.371035514645
 21
-1751.909218909106
 31
0.0
  0
LINE
  5
1429
330
36
100
AcDbEntity
  8
0
 62
     7
100
AcDbLine
 10
512.3719315146446
 20
-1750.909330909106
 30
0.0
 11
520.371035514645
 21
-1750.909330909106
 31
0.0
  0
LINE
  5
142A
330
36
100
AcDbEntity
  8
0
 62
     7
100
AcDbLine
 10
518.9711915146448
 20
-1753.908994909106
 30
0.0
 11
518.9711915146448
 21
-1754.908882909106
 31
0.0
  0
LINE
  5
142B
330
36
100
AcDbEntity
  8
0
 62
     7
100
AcDbLine
 10
513.7717745146447
 20
-1753.908994909106
 30
0.0
 11
513.7717745146447
 21
-1754.908882909106
 31
0.0
  0
LINE
  5
142C
330
36
100
AcDbEntity
  8
0
 62
     7
100
AcDbLine
 10
510.3721555146448
 20
-1757.908546909106
 30
0.0
 11
522.3708115146449
 21
-1757.908546909106
 31
0.0
  0
LINE
  5
142D
330
36
100
AcDbEntity
  8
0
 62
     7
100
AcDbLine
 10
511.3720435146446
 20
-1760.908210909106
 30
0.0
 11
521.3709235146446
 21
-1760.908210909106
 31
0.0
  0
LINE
  5
142E
330
36
100
AcDbEntity
  8
0
 62
     7
100
AcDbLine
 10
508.372379514645
 20
-1771.906978909106
 30
0.0
 11
524.3705875146447
 21
-1771.906978909106
 31
0.0
  0
LINE
  5
142F
330
36
100
AcDbEntity
  8
0
 62
     7
100
AcDbLine
 10
512.3719315146446
 20
-1782.905746909106
 30
0.0
 11
513.3718195146448
 21
-1782.905746909106
 31
0.0
  0
LINE
  5
1430
330
36
100
AcDbEntity
  8
0
 62
     7
100
AcDbLine
 10
519.3711475146447
 20
-1782.905746909106
 30
0.0
 11
520.371035514645
 21
-1782.905746909106
 31
0.0
  0
LINE
  5
1431
330
36
100
AcDbEntity
  8
0
 62
     7
100
AcDbLine
 10
512.3719315146446
 20
-1773.906754909106
 30
0.0
 11
512.3719315146446
 21
-1782.905746909106
 31
0.0
  0
LINE
  5
1432
330
36
100
AcDbEntity
  8
0
 62
     7
100
AcDbLine
 10
512.3719315146446
 20
-1782.905746909106
 30
0.0
 11
512.6219035146448
 21
-1783.905634909106
 31
0.0
  0
LINE
  5
1433
330
36
100
AcDbEntity
  8
0
 62
     7
100
AcDbLine
 10
512.6219035146448
 20
-1783.905634909106
 30
0.0
 11
513.1218475146447
 21
-1783.905634909106
 31
0.0
  0
LINE
  5
1434
330
36
100
AcDbEntity
  8
0
 62
     7
100
AcDbLine
 10
513.3718195146448
 20
-1782.905746909106
 30
0.0
 11
513.1218475146447
 21
-1783.905634909106
 31
0.0
  0
LINE
  5
1435
330
36
100
AcDbEntity
  8
0
 62
     7
100
AcDbLine
 10
513.3718195146448
 20
-1773.906754909106
 30
0.0
 11
513.3718195146448
 21
-1782.905746909106
 31
0.0
  0
LINE
  5
1436
330
36
100
AcDbEntity
  8
0
 62
     7
100
AcDbLine
 10
519.3711475146447
 20
-1773.906754909106
 30
0.0
 11
519.3711475146447
 21
-1782.905746909106
 31
0.0
  0
LINE
  5
1437
330
36
100
AcDbEntity
  8
0
 62
     7
100
AcDbLine
 10
519.3711475146447
 20
-1782.905746909106
 30
0.0
 11
519.621119514645
 21
-1783.905634909106
 31
0.0
  0
LINE
  5
1438
330
36
100
AcDbEntity
  8
0
 62
     7
100
AcDbLine
 10
519.621119514645
 20
-1783.905634909106
 30
0.0
 11
520.1210635146447
 21
-1783.905634909106
 31
0.0
  0
LINE
  5
1439
330
36
100
AcDbEntity
  8
0
 62
     7
100
AcDbLine
 10
520.371035514645
 20
-1782.905746909106
 30
0.0
 11
520.1210635146447
 21
-1783.905634909106
 31
0.0
  0
LINE
  5
143A
330
36
100
AcDbEntity
  8
0
 62
     7
100
AcDbLine
 10
520.371035514645
 20
-1773.906754909106
 30
0.0
 11
520.371035514645
 21
-1782.905746909106
 31
0.0
  0
LWPOLYLINE
  5
1445
330
36
100
AcDbEntity
  8
0
 62
     7
100
AcDbPolyline
 90
        7
 70
     0
 43
0.0
 10
511.0798245146447
 20
-1705.649776823082
 10
512.8468875146449
 20
-1706.769842823082
 10
514.6517695146448
 20
-1707.221108823082
 10
517.0598655146448
 20
-1706.364572823082
 10
519.4386625146448
 20
-1705.649776823082
 10
520.8018235146449
 20
-1706.116982823082
 10
522.1315145146449
 20
-1707.039648823082
  0
CIRCLE
  5
1486
330
36
100
AcDbEntity
  8
0
 62
     7
100
AcDbCircle
 10
492.2985575146447
 20
-1727.021221909106
 30
0.0
 40
5.0
  0
TEXT
  5
1487
330
36
100
AcDbEntity
  8
0
 62
     4
100
AcDbText
 10
489.4048971319707
 20
-1729.295221141412
 30
0.0
 40
4.5
  1
10
  7
高4.5
100
AcDbText
  0
LINE
  5
14B1
330
36
100
AcDbEntity
  8
0
 62
     3
100
AcDbLine
 10
519.4214835146448
 20
-1726.521756694812
 30
0.0
 11
519.4214835146448
 21
-1735.921756694812
 31
0.0
  0
LINE
  5
14B2
330
36
100
AcDbEntity
  8
0
 62
     3
100
AcDbLine
 10
517.6214835146448
 20
-1726.221756694812
 30
0.0
 11
517.6214835146448
 21
-1736.221756694812
 31
0.0
  0
LINE
  5
14B3
330
36
100
AcDbEntity
  8
0
 62
     3
100
AcDbLine
 10
530.2303510146447
 20
-1726.221756694812
 30
0.0
 11
530.2303510146447
 21
-1736.221756694812
 31
0.0
  0
LINE
  5
14B4
330
36
100
AcDbEntity
  8
0
 62
     3
100
AcDbLine
 10
532.6714835146447
 20
-1726.221756694812
 30
0.0
 11
532.6714835146447
 21
-1736.221756694812
 31
0.0
  0
LINE
  5
14B5
330
36
100
AcDbEntity
  8
0
 62
     3
100
AcDbLine
 10
516.3714835146448
 20
-1726.221756694812
 30
0.0
 11
516.3714835146448
 21
-1736.221756694812
 31
0.0
  0
ARC
  5
14B6
330
36
100
AcDbEntity
  8
0
 62
     3
100
AcDbCircle
 10
517.9214835146447
 20
-1735.921756694812
 30
0.0
 40
0.3
100
AcDbArc
 50
180.0
 51
270.0
  0
ARC
  5
14B7
330
36
100
AcDbEntity
  8
0
 62
     3
100
AcDbCircle
 10
519.1214835146448
 20
-1735.921756694812
 30
0.0
 40
0.3
100
AcDbArc
 50
270.0
 51
0.0
  0
ARC
  5
14B8
330
36
100
AcDbEntity
  8
0
 62
     3
100
AcDbCircle
 10
519.1214835146448
 20
-1726.521756694812
 30
0.0
 40
0.3
100
AcDbArc
 50
0.0
 51
90.0
  0
ARC
  5
14B9
330
36
100
AcDbEntity
  8
0
 62
     3
100
AcDbCircle
 10
517.9214835146447
 20
-1726.521756694812
 30
0.0
 40
0.3
100
AcDbArc
 50
90.0
 51
180.0
  0
ARC
  5
14BA
330
36
100
AcDbEntity
  8
0
 62
     3
100
AcDbCircle
 10
511.1714835146448
 20
-1726.521756694812
 30
0.0
 40
0.3
100
AcDbArc
 50
90.0
 51
180.0
  0
LINE
  5
14BB
330
36
100
AcDbEntity
  8
0
 62
     3
100
AcDbLine
 10
510.8714835146447
 20
-1726.521756694812
 30
0.0
 11
510.8714835146447
 21
-1735.921756694812
 31
0.0
  0
ARC
  5
14BC
330
36
100
AcDbEntity
  8
0
 62
     3
100
AcDbCircle
 10
511.1714835146448
 20
-1735.921756694812
 30
0.0
 40
0.3
100
AcDbArc
 50
180.0
 51
270.0
  0
ARC
  5
14BD
330
36
100
AcDbEntity
  8
0
 62
     3
100
AcDbCircle
 10
535.621483514645
 20
-1735.921756694812
 30
0.0
 40
0.3
100
AcDbArc
 50
270.0
 51
0.0
  0
LINE
  5
14BE
330
36
100
AcDbEntity
  8
0
 62
     3
100
AcDbLine
 10
535.9214835146448
 20
-1726.521756694812
 30
0.0
 11
535.9214835146448
 21
-1735.921756694812
 31
0.0
  0
LINE
  5
14BF
330
36
100
AcDbEntity
  8
0
 62
     3
100
AcDbLine
 10
535.621483514645
 20
-1726.221756694812
 30
0.0
 11
511.1714835146448
 21
-1726.221756694812
 31
0.0
  0
ARC
  5
14C0
330
36
100
AcDbEntity
  8
0
 62
     3
100
AcDbCircle
 10
535.621483514645
 20
-1726.521756694812
 30
0.0
 40
0.3
100
AcDbArc
 50
0.0
 51
90.0
  0
LINE
  5
14C1
330
36
100
AcDbEntity
  8
0
 62
     3
100
AcDbLine
 10
535.621483514645
 20
-1736.221756694812
 30
0.0
 11
511.1714835146448
 21
-1736.221756694812
 31
0.0
  0
LEADER
  5
1651
330
36
100
AcDbEntity
  8
0
100
AcDbLeader
  3
1／3
 76
     2
 10
513.7717745146447
 20
-1739.565991801959
 30
0.0
 10
496.6158124318475
 20
-1729.543385658725
 30
0.0
1001
ACAD
1000
DSTYLE
1002
{
1070
   147
1040
0.625
1070
    77
1070
     0
1002
}
  0
CIRCLE
  5
1652
330
36
100
AcDbEntity
  8
0
 62
     7
100
AcDbCircle
 10
542.0185920584559
 20
-1715.773133099911
 30
0.0
 40
5.0
  0
TEXT
  5
1653
330
36
100
AcDbEntity
  8
0
 62
     4
100
AcDbText
 10
540.0279258314513
 20
-1717.985287018788
 30
0.0
 40
4.5
  1
11
  7
高4.5
100
AcDbText
  0
LEADER
  5
1654
330
36
100
AcDbEntity
  8
0
100
AcDbLeader
  3
1／3
 76
     2
 10
523.3964835146447
 20
-1726.221756694812
 30
0.0
 10
537.6580841806831
 20
-1718.219757518959
 30
0.0
1001
ACAD
1000
DSTYLE
1002
{
1070
   147
1040
0.625
1070
    77
1070
     0
1002
}
  0
LINE
  5
16C5
330
36
100
AcDbEntity
  8
0
 62
     3
100
AcDbLine
 10
356.2940254512275
 20
-1870.28302675856
 30
0.0
 11
171.6385731719912
 21
-1870.28302675856
 31
0.0
  0
TEXT
  5
16C6
330
36
100
AcDbEntity
  8
0
 62
     3
100
AcDbText
 10
173.1385731719912
 20
-1874.78302675856
 30
0.0
 40
3.2
  1
11
 41
0.8
  7
高3.2
100
AcDbText
  0
TEXT
  5
16C7
330
36
100
AcDbEntity
  8
0
 62
     3
100
AcDbText
 10
179.8035733516246
 20
-1874.78302675856
 30
0.0
 40
3.2
  1
ケーブルクリップ
 41
0.8
  7
高3.2
100
AcDbText
  0
TEXT
  5
16C8
330
36
100
AcDbEntity
  8
0
 62
     3
100
AcDbText
 10
211.948761005111
 20
-1874.78302675856
 30
0.0
 40
3.2
  1
PA樹脂
 41
0.8
  7
高3.2
100
AcDbText
  0
TEXT
  5
16C9
330
36
100
AcDbEntity
  8
0
 62
     3
100
AcDbText
 10
228.3237621662586
 20
-1874.78302675856
 30
0.0
 40
3.2
  1
-
 41
0.8
  7
高3.2
100
AcDbText
  0
TEXT
  5
16CA
330
36
100
AcDbEntity
  8
0
 62
     3
100
AcDbText
 10
279.1542474836353
 20
-1874.78302675856
 30
0.0
 40
3.2
  1
1
 41
0.8
  7
高3.2
100
AcDbText
  0
TEXT
  5
16CB
330
36
100
AcDbEntity
  8
0
 62
     3
100
AcDbText
 10
260.9459869749517
 20
-1874.78302675856
 30
0.0
 40
3.2
  1
NC-01
 41
0.8
  7
高3.2
100
AcDbText
  0
TEXT
  5
16CC
330
36
100
AcDbEntity
  8
0
 62
     3
100
AcDbText
 10
287.4937295240476
 20
-1874.78302675856
 30
0.0
 40
3.2
  1
8060
 41
0.8
  7
高3.2
100
AcDbText
  0
LINE
  5
172D
330
36
100
AcDbEntity
  8
0
 62
     3
100
AcDbLine
 10
356.2940254512275
 20
-1930.28302675856
 30
0.0
 11
356.2940254512275
 21
-1870.28302675856
 31
0.0
  0
TEXT
  5
172F
330
36
100
AcDbEntity
  8
0
 62
     3
100
AcDbText
 10
306.4414484599064
 20
-1904.899723961497
 30
0.0
 40
3.2
  1
NR巻胴　100L(二役兼用)
 41
0.6
  7
高3.2
100
AcDbText
  0
TEXT
  5
1730
330
36
100
AcDbEntity
  8
0
 62
     3
100
AcDbText
 10
306.3781775435318
 20
-1929.78302675856
 30
0.0
 40
3.2
  1
コード番号名称
 41
0.6
  7
高3.2
100
AcDbText
  0
TEXT
  5
173D
330
36
100
AcDbEntity
  8
0
 62
     3
100
AcDbText
 10
306.4414484599065
 20
-1909.899723961497
 30
0.0
 40
3.2
  1
NR-A板 オレンジ
 41
0.6
  7
高3.2
100
AcDbText
  0
TEXT
  5
173E
330
36
100
AcDbEntity
  8
0
 62
     3
100
AcDbText
 10
306.4414484599065
 20
-1914.899723961497
 30
0.0
 40
3.2
  1
NR-B板 オレンジ
 41
0.6
  7
高3.2
100
AcDbText
  0
TEXT
  5
173F
330
36
100
AcDbEntity
  8
0
 62
     3
100
AcDbText
 10
306.4414484599065
 20
-1919.899723961496
 30
0.0
 40
3.2
  1
新NR－フレーム　黒(1本脚タイプ)
 41
0.6
  7
高3.2
100
AcDbText
  0
TEXT
  5
1740
330
36
100
AcDbEntity
  8
0
 62
     3
100
AcDbText
 10
306.4414484599065
 20
-1924.899723961497
 30
0.0
 40
3.2
  1
ドラム用丸グリップ
 41
0.6
  7
高3.2
100
AcDbText
  0
TEXT
  5
1741
330
36
100
AcDbEntity
  8
0
 62
     3
100
AcDbText
 10
306.4414484599064
 20
-1899.899723961497
 30
0.0
 40
3.2
  1
ハンドルツマミセット(小)
 41
0.6
  7
高3.2
100
AcDbText
  0
TEXT
  5
1742
330
36
100
AcDbEntity
  8
0
 62
     3
100
AcDbText
 10
306.4414484599064
 20
-1894.894389457023
 30
0.0
 40
3.2
  1
平ワッシャーφ19.5x31x2　三価クロメート
 41
0.6
  7
高3.2
100
AcDbText
  0
TEXT
  5
1743
330
36
100
AcDbEntity
  8
0
 62
     3
100
AcDbText
 10
306.4414484599064
 20
-1889.899723961496
 30
0.0
 40
3.2
  1
19m/m絶縁ブッシング　(樹脂)
 41
0.6
  7
高3.2
100
AcDbText
  0
TEXT
  5
1744
330
36
100
AcDbEntity
  8
0
 62
     3
100
AcDbText
 10
306.4414484599064
 20
-1885.012862362163
 30
0.0
 40
3.2
  1
2PO-D(コンセントワンタッチ茶)
 41
0.6
  7
高3.2
100
AcDbText
  0
TEXT
  5
1745
330
36
100
AcDbEntity
  8
0
 62
     3
100
AcDbText
 10
306.4414484599064
 20
-1879.899723961496
 30
0.0
 40
3.2
  1
VCT1.25X2X30M　P付(緑)
 41
0.6
  7
高3.2
100
AcDbText
  0
TEXT
  5
1747
330
36
100
AcDbEntity
  8
0
 62
     3
100
AcDbText
 10
306.4414484599064
 20
-1874.899723961497
 30
0.0
 40
3.2
  1
NC-01ケーブルクリップ(10ヶ入)
 41
0.6
  7
高3.2
100
AcDbText
  0
LINE
  5
174A
330
36
100
AcDbEntity
  8
0
 62
     7
100
AcDbLine
 10
304.8781775435318
 20
-1930.28302675856
 30
0.0
 11
304.8781775435318
 21
-1870.28302675856
 31
0.0
  0
TEXT
  5
18EE
330
36
100
AcDbEntity
  8
0
100
AcDbText
 10
487.1385731719906
 20
-1675.72766575856
 30
0.0
 40
2.5
  1
'11.06.07
  7
高2.5
100
AcDbText
  0
TEXT
  5
18EF
330
36
100
AcDbEntity
  8
0
100
AcDbText
 10
505.1385731719906
 20
-1675.72766575856
 30
0.0
 40
2.5
  1
グリップ変更　No.3895
  7
高2.5
100
AcDbText
  0
TEXT
  5
18F0
330
36
100
AcDbEntity
  8
0
100
AcDbText
 10
549.1385731719906
 20
-1675.72766575856
 30
0.0
 40
2.5
  1
今村
  7
高2.5
100
AcDbText
  0
TEXT
  5
1D11
330
36
100
AcDbEntity
  8
0
 62
     3
100
AcDbText
 10
549.1385731719906
 20
-1665.727665758559
 30
0.0
 40
3.2
  1
担　当
  7
高3.2
100
AcDbText
  0
TEXT
  5
1D12
330
36
100
AcDbEntity
  8
0
 62
     3
100
AcDbText
 10
505.1385731719906
 20
-1665.727665758559
 30
0.0
 40
3.2
  1
変更・追記内容
  7
高3.2
100
AcDbText
  0
TEXT
  5
1D13
330
36
100
AcDbEntity
  8
0
 62
     3
100
AcDbText
 10
480.25208817233
 20
-1670.398204268468
 30
0.0
 40
2.0
  1
1
  7
高2
100
AcDbText
  0
TEXT
  5
1D14
330
36
100
AcDbEntity
  8
0
 62
     3
100
AcDbText
 10
479.9435766955727
 20
-1675.568020980741
 30
0.0
 40
2.0
  1
2
  7
高2
100
AcDbText
  0
TEXT
  5
1D15
330
36
100
AcDbEntity
  8
0
 62
     3
100
AcDbText
 10
487.1385731719906
 20
-1665.727665758559
 30
0.0
 40
3.2
  1
日　付
  7
高3.2
100
AcDbText
  0
TEXT
  5
1D16
330
36
100
AcDbEntity
  8
0
 62
     3
100
AcDbText
 10
487.1385731719906
 20
-1660.72766575856
 30
0.0
 40
3.2
  1
図　　　　面　　　　略　　　　歴
  7
高3.2
100
AcDbText
  0
TEXT
  5
1D17
330
36
100
AcDbEntity
  8
0
 62
     3
100
AcDbText
 10
477.1385731719907
 20
-1665.727665758559
 30
0.0
 40
3.2
  1
記号
  7
高3.2
100
AcDbText
  0
LINE
  5
1D18
330
36
100
AcDbEntity
  8
0
 62
     7
100
AcDbLine
 10
480.6385731719906
 20
-1672.436769758559
 30
0.0
 11
478.7385731719906
 21
-1675.72766575856
 31
0.0
  0
LINE
  5
1D19
330
36
100
AcDbEntity
  8
0
 62
     7
100
AcDbLine
 10
480.6385731719906
 20
-1672.436769758559
 30
0.0
 11
482.5385731719906
 21
-1675.72766575856
 31
0.0
  0
LINE
  5
1D1A
330
36
100
AcDbEntity
  8
0
 62
     7
100
AcDbLine
 10
478.7385731719906
 20
-1675.72766575856
 30
0.0
 11
482.5385731719906
 21
-1675.72766575856
 31
0.0
  0
LINE
  5
1D1B
330
36
100
AcDbEntity
  8
0
 62
     7
100
AcDbLine
 10
480.6385731719906
 20
-1667.436768758559
 30
0.0
 11
478.7385731719906
 21
-1670.72766575856
 31
0.0
  0
LINE
  5
1D1C
330
36
100
AcDbEntity
  8
0
 62
     7
100
AcDbLine
 10
480.6385731719906
 20
-1667.436768758559
 30
0.0
 11
482.5385731719906
 21
-1670.72766575856
 31
0.0
  0
LINE
  5
1D1D
330
36
100
AcDbEntity
  8
0
 62
     7
100
AcDbLine
 10
478.7385731719906
 20
-1670.72766575856
 30
0.0
 11
482.5385731719906
 21
-1670.72766575856
 31
0.0
  0
LINE
  5
1D1E
330
36
100
AcDbEntity
  8
0
 62
     3
100
AcDbLine
 10
475.6385731719906
 20
-1661.22766575856
 30
0.0
 11
561.6385731719906
 21
-1661.22766575856
 31
0.0
  0
LINE
  5
1D1F
330
36
100
AcDbEntity
  8
0
 62
     3
100
AcDbLine
 10
475.6385731719906
 20
-1666.22766575856
 30
0.0
 11
561.6385731719906
 21
-1666.22766575856
 31
0.0
  0
LINE
  5
1D20
330
36
100
AcDbEntity
  8
0
 62
     7
100
AcDbLine
 10
475.6385731719906
 20
-1671.22766575856
 30
0.0
 11
561.6385731719906
 21
-1671.22766575856
 31
0.0
  0
LINE
  5
1D21
330
36
100
AcDbEntity
  8
0
 62
     3
100
AcDbLine
 10
475.6385731719906
 20
-1676.22766575856
 30
0.0
 11
561.6385731719906
 21
-1676.22766575856
 31
0.0
  0
LINE
  5
1D22
330
36
100
AcDbEntity
  8
0
 62
     7
100
AcDbLine
 10
547.6385731719906
 20
-1676.22766575856
 30
0.0
 11
547.6385731719906
 21
-1661.22766575856
 31
0.0
  0
LINE
  5
1D23
330
36
100
AcDbEntity
  8
0
 62
     7
100
AcDbLine
 10
503.6385731719906
 20
-1676.22766575856
 30
0.0
 11
503.6385731719906
 21
-1661.22766575856
 31
0.0
  0
LINE
  5
1D24
330
36
100
AcDbEntity
  8
0
 62
     7
100
AcDbLine
 10
485.6385731719907
 20
-1676.22766575856
 30
0.0
 11
485.6385731719907
 21
-1661.22766575856
 31
0.0
  0
LINE
  5
1D25
330
36
100
AcDbEntity
  8
0
 62
     3
100
AcDbLine
 10
475.6385731719906
 20
-1676.22766575856
 30
0.0
 11
475.6385731719906
 21
-1656.22766575856
 31
0.0
  0
TEXT
  5
1D26
330
36
100
AcDbEntity
  8
0
100
AcDbText
 10
172.6768291080308
 20
-1935.452139746216
 30
0.0
 40
3.2
  1
コード番号末尾に●の記載がある物は過去に変更があった部品
  7
高3.2
100
AcDbText
  0
LINE
  5
1FA0
330
36
100
AcDbEntity
  8
0
 62
     3
100
AcDbLine
 10
484.5782349621831
 20
-1820.830285362712
 30
0.0
 11
484.5782349621831
 21
-1857.830285362712
 31
0.0
  0
LINE
  5
1FA1
330
36
100
AcDbEntity
  8
0
 62
     3
100
AcDbLine
 10
552.5782349621832
 20
-1820.830285362712
 30
0.0
 11
552.5782349621832
 21
-1857.830285362712
 31
0.0
  0
LINE
  5
1FA2
330
36
100
AcDbEntity
  8
0
 62
     7
100
AcDbLine
 10
484.5782349621831
 20
-1843.830285362712
 30
0.0
 11
552.5782349621832
 21
-1843.830285362712
 31
0.0
  0
LINE
  5
1FA3
330
36
100
AcDbEntity
  8
0
 62
     7
100
AcDbLine
 10
514.5782349621832
 20
-1836.830285362712
 30
0.0
 11
514.5782349621832
 21
-1857.830285362712
 31
0.0
  0
LINE
  5
1FA4
330
36
100
AcDbEntity
  8
0
 62
     7
100
AcDbLine
 10
484.5782349621831
 20
-1850.830285362712
 30
0.0
 11
552.5782349621832
 21
-1850.830285362712
 31
0.0
  0
LINE
  5
1FA5
330
36
100
AcDbEntity
  8
0
 62
     7
100
AcDbLine
 10
484.5782349621831
 20
-1828.830285362712
 30
0.0
 11
552.5782349621832
 21
-1828.830285362712
 31
0.0
  0
TEXT
  5
1FA6
330
36
100
AcDbEntity
  8
0
 62
     3
100
AcDbText
 10
486.274100532566
 20
-1842.944596362712
 30
0.0
 40
4.5
  1
定格電圧
 41
0.833333
100
AcDbText
  0
TEXT
  5
1FA7
330
36
100
AcDbEntity
  8
0
 62
     3
100
AcDbText
 10
486.274100532566
 20
-1849.744596362712
 30
0.0
 40
4.5
  1
定格電流
 41
0.833333
100
AcDbText
  0
TEXT
  5
1FA8
330
36
100
AcDbEntity
  8
0
 62
     3
100
AcDbText
 10
516.5706419854291
 20
-1842.693394362712
 30
0.0
 40
4.5
  1
125V
 41
0.9600000000000001
100
AcDbText
  0
TEXT
  5
1FA9
330
36
100
AcDbEntity
  8
0
 62
     3
100
AcDbText
 10
516.5706419854291
 20
-1850.113727362712
 30
0.0
 40
4.5
  1
4A
100
AcDbText
  0
TEXT
  5
1FAA
330
36
100
AcDbEntity
  8
0
 62
     3
100
AcDbText
 10
486.274100532566
 20
-1856.787806914288
 30
0.0
 40
4.5
  1
限度電流
 41
0.833333
100
AcDbText
  0
TEXT
  5
1FAB
330
36
100
AcDbEntity
  8
0
 62
     3
100
AcDbText
 10
516.5706419854291
 20
-1856.692915581616
 30
0.0
 40
4.5
  1
15A
  7
高4.5
100
AcDbText
  0
LINE
  5
1FAD
330
36
100
AcDbEntity
  8
0
 62
     7
100
AcDbLine
 10
484.5782349621831
 20
-1836.830285362712
 30
0.0
 11
552.5782349621832
 21
-1836.830285362712
 31
0.0
  0
TEXT
  5
1FAE
330
36
100
AcDbEntity
  8
0
 62
     3
100
AcDbText
 10
500.3068377984821
 20
-1835.693394362712
 30
0.0
 40
4.5
  1
単相100V仕様
 41
0.9600000000000001
100
AcDbText
  0
LINE
  5
1FAF
330
36
100
AcDbEntity
  8
0
 62
     3
100
AcDbLine
 10
484.5782349621831
 20
-1820.830285362712
 30
0.0
 11
552.5782349621832
 21
-1820.830285362712
 31
0.0
  0
TEXT
  5
1FB0
330
36
100
AcDbEntity
  8
0
 62
     3
100
AcDbText
 10
495.8198249955659
 20
-1827.693394362712
 30
0.0
 40
4.5
  1
電工ドラム(屋内型)
 41
0.9600000000000001
100
AcDbText
  0
LINE
  5
1FB3
330
36
100
AcDbEntity
  8
0
 62
     3
100
AcDbLine
 10
484.5782349621831
 20
-1857.830285362712
 30
0.0
 11
552.5782349621832
 21
-1857.830285362712
 31
0.0
  0
TEXT
  5
1FB4
330
36
100
AcDbEntity
  8
0
 62
     7
100
AcDbText
 10
484.5782357410389
 20
-1862.623754739624
 30
0.0
 40
2.5
  1
注）定格電流は電線を巻取った状態の最大電流で、
 41
0.8
  7
高2.5
100
AcDbText
  0
TEXT
  5
1FB5
330
36
100
AcDbEntity
  8
0
 62
     7
100
AcDbText
 10
484.5782357410389
 20
-1865.623754739624
 30
0.0
 40
2.5
  1
　　限度電流は電線を全て引き出した状態の最大電流です。
 41
0.8
  7
高2.5
100
AcDbText
  0
ENDSEC
  0
SECTION
  2
OBJECTS
  0
DICTIONARY
  5
C
330
0
100
AcDbDictionary
281
     1
  3
ACAD_2007HEADERVARS_RT
350
1F19
  3
ACAD_COLOR
350
2F
  3
ACAD_DETAILVIEWSTYLE
350
1FF8
  3
ACAD_DGNDEFINITIONS
350
1F59
  3
ACAD_DWFDEFINITIONS
350
1F58
  3
ACAD_GROUP
350
D
  3
ACAD_LAYOUT
350
2E
  3
ACAD_MATERIAL
350
10
  3
ACAD_MLEADERSTYLE
350
177E
  3
ACAD_MLINESTYLE
350
2B
  3
ACAD_PDFDEFINITIONS
350
1F57
  3
ACAD_PLOTSETTINGS
350
2D
  3
ACAD_PLOTSTYLENAME
350
E
  3
ACAD_SCALELIST
350
176C
  3
ACAD_SECTIONVIEWSTYLE
350
1FF9
  3
ACAD_TABLESTYLE
350
30
  3
ACAD_VISUALSTYLE
350
14
  3
ACDB_RECOMPOSE_DATA
350
1FF6
  3
AcDbVariableDictionary
350
9B9
  0
DICTIONARY
  5
4E1
330
2
100
AcDbDictionary
280
     1
281
     1
  3
ACAD_LAYERSTATES
360
4E2
  0
DICTIONARY
  5
17DC
330
25
100
AcDbDictionary
280
     1
281
     1
  3
ADSK_XREC_LAYER_RECONCILED
360
17DD
  0
DICTIONARY
  5
9AA
330
36
100
AcDbDictionary
280
     1
281
     1
  3
ACAD_SORTENTS
360
9AB
  0
DICTIONARY
  5
1F19
102
{ACAD_REACTORS
330
C
102
}
330
C
100
AcDbDictionary
281
     1
  3
DIMARCSYM
350
1F1B
  3
DIMFXL
350
1F1A
  3
DIMJOGANG
350
1F1C
  0
DICTIONARY
  5
2F
102
{ACAD_REACTORS
330
C
102
}
330
C
100
AcDbDictionary
281
     1
  0
DICTIONARY
  5
1FF8
102
{ACAD_REACTORS
330
C
102
}
330
C
100
AcDbDictionary
281
     1
  0
DICTIONARY
  5
1F59
102
{ACAD_REACTORS
330
C
102
}
330
C
100
AcDbDictionary
281
     1
  0
DICTIONARY
  5
1F58
102
{ACAD_REACTORS
330
C
102
}
330
C
100
AcDbDictionary
281
     1
  0
DICTIONARY
  5
D
102
{ACAD_REACTORS
330
C
102
}
330
C
100
AcDbDictionary
281
     1
  0
DICTIONARY
  5
2E
102
{ACAD_REACTORS
330
C
102
}
330
C
100
AcDbDictionary
281
     1
  3
Model
350
39
  3
レイアウト1
350
35
  0
DICTIONARY
  5
10
102
{ACAD_REACTORS
330
C
102
}
330
C
100
AcDbDictionary
281
     1
  3
ByBlock
350
12
  3
ByLayer
350
11
  3
Global
350
13
  0
DICTIONARY
  5
177E
102
{ACAD_REACTORS
330
C
102
}
330
C
100
AcDbDictionary
281
     1
  3
Standard
350
177F
  0
DICTIONARY
  5
2B
102
{ACAD_REACTORS
330
C
102
}
330
C
100
AcDbDictionary
281
     1
  3
Standard
350
2C
  0
DICTIONARY
  5
1F57
102
{ACAD_REACTORS
330
C
102
}
330
C
100
AcDbDictionary
281
     1
  0
DICTIONARY
  5
2D
102
{ACAD_REACTORS
330
C
102
}
330
C
100
AcDbDictionary
281
     1
  0
ACDBDICTIONARYWDFLT
  5
E
102
{ACAD_REACTORS
330
C
102
}
330
C
100
AcDbDictionary
281
     1
  3
Normal
350
F
100
AcDbDictionaryWithDefault
340
F
  0
DICTIONARY
  5
176C
102
{ACAD_REACTORS
330
C
102
}
330
C
100
AcDbDictionary
281
     1
  3
A0
350
176D
  3
A1
350
176E
  3
A2
350
176F
  3
A3
350
1770
  3
A4
350
1771
  3
A5
350
1772
  3
A6
350
1773
  3
A7
350
1774
  3
A8
350
1775
  3
A9
350
1776
  3
B0
350
1777
  3
B1
350
1778
  3
B2
350
1779
  3
B3
350
177A
  3
B4
350
177B
  3
B5
350
177C
  3
B6
350
177D
  0
DICTIONARY
  5
1FF9
102
{ACAD_REACTORS
330
C
102
}
330
C
100
AcDbDictionary
281
     1
  0
DICTIONARY
  5
30
102
{ACAD_REACTORS
330
C
102
}
330
C
100
AcDbDictionary
281
     1
  3
Standard
350
31
  0
DICTIONARY
  5
14
102
{ACAD_REACTORS
330
C
102
}
330
C
100
AcDbDictionary
281
     1
  3
2dWireframe
350
1A
  3
3D Hidden
350
1C
  3
3dWireframe
350
1B
  3
Basic
350
19
  3
Brighten
350
20
  3
ColorChange
350
24
  3
Conceptual
350
1D
  3
Dim
350
1F
  3
EdgeColorOff
350
176B
  3
Facepattern
350
23
  3
Flat
350
15
  3
FlatWithEdges
350
16
  3
Gouraud
350
17
  3
GouraudWithEdges
350
18
  3
Hidden
350
1763
  3
JitterOff
350
1769
  3
Linepattern
350
22
  3
OverhangOff
350
176A
  3
Realistic
350
1E
  3
Shaded
350
1768
  3
Shaded with edges
350
1767
  3
Shades of Gray
350
1764
  3
Sketchy
350
1765
  3
Thicken
350
21
  3
Wireframe
350
1762
  3
X-Ray
350
1766
  0
XRECORD
  5
1FF6
102
{ACAD_REACTORS
330
C
102
}
330
C
100
AcDbXrecord
280
     1
 90
        1
330
31
  0
DICTIONARY
  5
9B9
102
{ACAD_REACTORS
330
C
102
}
330
C
100
AcDbDictionary
281
     1
  3
CANNOSCALE
350
1FBC
  3
CMLEADERSTYLE
350
17E0
  3
CTABLESTYLE
350
9BA
  3
DIMASSOC
350
A1F
  3
INDEXCTL
350
A1E
  3
LIGHTINGUNITS
350
1FBD
  3
MSLTSCALE
350
1FF7
  3
SORTENTS
350
A1D
  3
XCLIPFRAME
350
1F15
  0
DICTIONARY
  5
4E2
102
{ACAD_REACTORS
330
4E1
102
}
330
4E1
100
AcDbDictionary
281
     1
  0
XRECORD
  5
17DD
102
{ACAD_REACTORS
330
17DC
102
}
330
17DC
100
AcDbXrecord
280
     1
290
     1
  0
SORTENTSTABLE
  5
9AB
102
{ACAD_REACTORS
330
9AA
102
}
330
9AA
100
AcDbSortentsTable
330
36
331
172F
  5
1730
331
1730
  5
1731
331
173D
  5
173E
331
173E
  5
173F
331
173F
  5
1740
331
1740
  5
1741
331
1741
  5
1742
331
1742
  5
1743
331
1743
  5
1744
331
1744
  5
1745
331
1745
  5
1746
331
1747
  5
1748
331
174A
  5
172E
331
1FA1
  5
1FA2
331
1FA2
  5
1FA3
331
1FA3
  5
1FA4
331
1FA4
  5
1FA6
331
1FA5
  5
1FA7
331
1FA6
  5
1FA8
331
1FA7
  5
1FA9
331
1FA8
  5
1FAA
331
1FA9
  5
1FAB
331
1FAA
  5
1FAC
331
1FAB
  5
1FAD
331
0
  5
1FAE
331
1FAD
  5
1FAF
331
1FAE
  5
1FB0
331
1FAF
  5
1FB1
331
1FB0
  5
1FB2
331
0
  5
1FB3
331
0
  5
1FB4
331
1FB3
  5
1FB5
331
1FB4
  5
1FB6
331
1FB5
  5
1FB7
331
0
  5
1FB8
331
0
  5
1FBB
331
0
  5
1FA1
331
0
  5
1FA5
331
0
  5
1FB9
  0
XRECORD
  5
1F1B
102
{ACAD_REACTORS
330
1F19
102
}
330
1F19
100
AcDbXrecord
280
     1
 70
     2
  0
XRECORD
  5
1F1A
102
{ACAD_REACTORS
330
1F19
102
}
330
1F19
100
AcDbXrecord
280
     1
 40
1.25
  0
XRECORD
  5
1F1C
102
{ACAD_REACTORS
330
1F19
102
}
330
1F19
100
AcDbXrecord
280
     1
 40
1.570796326794896
  0
LAYOUT
  5
39
102
{ACAD_REACTORS
330
2E
102
}
330
2E
100
AcDbPlotSettings
  1

  2
none_device
  4
Letter_(8.50_x_11.00_Inches)
  6

 40
6.349999904632567
 41
6.349999904632567
 42
6.350006103515625
 43
6.350006103515625
 44
215.8999938964844
 45
279.3999938964844
 46
0.0
 47
0.0
 48
0.0
 49
0.0
140
0.0
141
0.0
142
1.0
143
90.34103336426745
 70
 11952
 72
     0
 73
     1
 74
     0
  7

 75
     0
 76
     0
 77
     2
 78
   300
147
0.0110691671631413
148
3825.356052329799
149
50284.17142155877
100
AcDbLayout
  1
Model
 70
     1
 71
     0
 10
0.0
 20
0.0
 11
12.0
 21
9.0
 12
0.0
 22
0.0
 32
0.0
 14
0.0
 24
0.0
 34
0.0
 15
561.6385731719909
 25
-1650.45239975856
 35
0.0
146
0.0
 13
0.0
 23
0.0
 33
0.0
 16
1.0
 26
0.0
 36
0.0
 17
0.0
 27
1.0
 37
0.0
 76
     0
330
36
331
56
1001
ACAD_PSEXT
1000
なし
1000
なし
1000
適切ではありません
1000
新しいプロッタ環境設定名を選択しない限り、レイアウトは印刷されません。
1070
     0
  0
LAYOUT
  5
35
102
{ACAD_REACTORS
330
2E
102
}
330
2E
100
AcDbPlotSettings
  1

  2
DocuPrint 305
  4

  6

 40
0.0
 41
0.0
 42
0.0
 43
0.0
 44
0.0
 45
0.0
 46
0.0
 47
0.0
 48
0.0
 49
0.0
140
0.0
141
0.0
142
1.0
143
1.0
 70
   688
 72
     0
 73
     0
 74
     5
  7

 75
    16
 76
     0
 77
     2
 78
   300
147
1.0
148
0.0
149
0.0
100
AcDbLayout
  1
レイアウト1
 70
     1
 71
     1
 10
0.0
 20
0.0
 11
12.0
 21
9.0
 12
0.0
 22
0.0
 32
0.0
 14
1.000000000000000E+20
 24
1.000000000000000E+20
 34
1.000000000000000E+20
 15
-1.000000000000000E+20
 25
-1.000000000000000E+20
 35
-1.000000000000000E+20
146
0.0
 13
0.0
 23
0.0
 33
0.0
 16
1.0
 26
0.0
 36
0.0
 17
0.0
 27
1.0
 37
0.0
 76
     0
330
32
  0
MATERIAL
  5
12
102
{ACAD_REACTORS
330
10
102
}
330
10
100
AcDbMaterial
  1
ByBlock
 72
     1
 94
      127
  0
MATERIAL
  5
11
102
{ACAD_REACTORS
330
10
102
}
330
10
100
AcDbMaterial
  1
ByLayer
 72
     1
 94
      127
  0
MATERIAL
  5
13
102
{ACAD_REACTORS
330
10
102
}
330
10
100
AcDbMaterial
  1
Global
 72
     1
 94
      127
  0
MLEADERSTYLE
  5
177F
102
{ACAD_REACTORS
330
177E
102
}
102
{ACAD_XDICTIONARY
360
1FBE
102
}
330
177E
100
AcDbMLeaderStyle
170
     2
171
     1
172
     0
 90
        2
 40
0.0
 41
0.0
173
     1
 91
-1056964608
340
28
 92
       -2
290
     1
 42
0.09
291
     1
 43
0.36
  3
Standard
341
0
 44
0.18
300

342
26
174
     1
178
     6
175
     1
176
     0
 93
-1056964608
 45
0.18
292
     0
297
     0
 46
0.18
343
0
 94
-1056964608
 47
1.0
 49
1.0
140
1.0
293
     1
141
0.0
294
     1
177
     0
142
1.0
295
     0
296
     0
143
0.125
1001
ACAD_MLEADERVER
1070
     2
  0
MLINESTYLE
  5
2C
102
{ACAD_REACTORS
330
2B
102
}
330
2B
100
AcDbMlineStyle
  2
STANDARD
 70
     0
  3

 62
   256
 51
90.0
 52
90.0
 71
     2
 49
0.5
 62
   256
  6
BYLAYER
 49
-0.5
 62
   256
  6
BYLAYER
  0
ACDBPLACEHOLDER
  5
F
102
{ACAD_REACTORS
330
E
102
}
330
E
  0
SCALE
  5
176D
102
{ACAD_REACTORS
330
176C
102
}
330
176C
100
AcDbScale
 70
     0
300
1:1
140
1.0
141
1.0
290
     1
  0
SCALE
  5
176E
102
{ACAD_REACTORS
330
176C
102
}
330
176C
100
AcDbScale
 70
     0
300
1/128" = 1'-0"
140
0.0078125
141
12.0
290
     0
  0
SCALE
  5
176F
102
{ACAD_REACTORS
330
176C
102
}
330
176C
100
AcDbScale
 70
     0
300
1/64" = 1'-0"
140
0.015625
141
12.0
290
     0
  0
SCALE
  5
1770
102
{ACAD_REACTORS
330
176C
102
}
330
176C
100
AcDbScale
 70
     0
300
1/32" = 1'-0"
140
0.03125
141
12.0
290
     0
  0
SCALE
  5
1771
102
{ACAD_REACTORS
330
176C
102
}
330
176C
100
AcDbScale
 70
     0
300
1/16" = 1'-0"
140
0.0625
141
12.0
290
     0
  0
SCALE
  5
1772
102
{ACAD_REACTORS
330
176C
102
}
330
176C
100
AcDbScale
 70
     0
300
3/32" = 1'-0"
140
0.09375
141
12.0
290
     0
  0
SCALE
  5
1773
102
{ACAD_REACTORS
330
176C
102
}
330
176C
100
AcDbScale
 70
     0
300
1/8" = 1'-0"
140
0.125
141
12.0
290
     0
  0
SCALE
  5
1774
102
{ACAD_REACTORS
330
176C
102
}
330
176C
100
AcDbScale
 70
     0
300
3/16" = 1'-0"
140
0.1875
141
12.0
290
     0
  0
SCALE
  5
1775
102
{ACAD_REACTORS
330
176C
102
}
330
176C
100
AcDbScale
 70
     0
300
1/4" = 1'-0"
140
0.25
141
12.0
290
     0
  0
SCALE
  5
1776
102
{ACAD_REACTORS
330
176C
102
}
330
176C
100
AcDbScale
 70
     0
300
3/8" = 1'-0"
140
0.375
141
12.0
290
     0
  0
SCALE
  5
1777
102
{ACAD_REACTORS
330
176C
102
}
330
176C
100
AcDbScale
 70
     0
300
1/2" = 1'-0"
140
0.5
141
12.0
290
     0
  0
SCALE
  5
1778
102
{ACAD_REACTORS
330
176C
102
}
330
176C
100
AcDbScale
 70
     0
300
3/4" = 1'-0"
140
0.75
141
12.0
290
     0
  0
SCALE
  5
1779
102
{ACAD_REACTORS
330
176C
102
}
330
176C
100
AcDbScale
 70
     0
300
1" = 1'-0"
140
1.0
141
12.0
290
     0
  0
SCALE
  5
177A
102
{ACAD_REACTORS
330
176C
102
}
330
176C
100
AcDbScale
 70
     0
300
1-1/2" = 1'-0"
140
1.5
141
12.0
290
     0
  0
SCALE
  5
177B
102
{ACAD_REACTORS
330
176C
102
}
330
176C
100
AcDbScale
 70
     0
300
3" = 1'-0"
140
3.0
141
12.0
290
     0
  0
SCALE
  5
177C
102
{ACAD_REACTORS
330
176C
102
}
330
176C
100
AcDbScale
 70
     0
300
6" = 1'-0"
140
6.0
141
12.0
290
     0
  0
SCALE
  5
177D
102
{ACAD_REACTORS
330
176C
102
}
330
176C
100
AcDbScale
 70
     0
300
1'-0" = 1'-0"
140
12.0
141
12.0
290
     0
  0
TABLESTYLE
  5
31
102
{ACAD_REACTORS
330
30
102
}
102
{ACAD_XDICTIONARY
360
1FC0
102
}
330
30
100
AcDbTableStyle
  3
Standard
 70
     0
 71
     0
 40
0.06
 41
0.06
280
     0
281
     0
  7
STANDARD
140
0.18
170
     2
 62
     0
 63
   257
283
     0
 90
      512
 91
        0
  1

274
    -2
284
     1
 64
     0
275
    -2
285
     1
 65
     0
276
    -2
286
     1
 66
     0
277
    -2
287
     1
 67
     0
278
    -2
288
     1
 68
     0
279
    -2
289
     1
 69
     0
  7
STANDARD
140
0.25
170
     5
 62
     0
 63
   257
283
     0
 90
      512
 91
        0
  1

274
    -2
284
     1
 64
     0
275
    -2
285
     1
 65
     0
276
    -2
286
     1
 66
     0
277
    -2
287
     1
 67
     0
278
    -2
288
     1
 68
     0
279
    -2
289
     1
 69
     0
  7
STANDARD
140
0.18
170
     5
 62
     0
 63
   257
283
     0
 90
      512
 91
        0
  1

274
    -2
284
     1
 64
     0
275
    -2
285
     1
 65
     0
276
    -2
286
     1
 66
     0
277
    -2
287
     1
 67
     0
278
    -2
288
     1
 68
     0
279
    -2
289
     1
 69
     0
  0
VISUALSTYLE
  5
1A
102
{ACAD_REACTORS
330
14
102
}
102
{ACAD_XDICTIONARY
360
1FC2
102
}
330
14
100
AcDbVisualStyle
  2

 70
     4
 71
     0
 72
     2
 73
     0
 90
        0
 40
-0.6
 41
-30.0
 62
     5
 63
     7
 74
     1
 91
        4
 64
     7
 65
   257
 75
     1
175
     1
 42
1.0
 92
        0
 66
   257
 43
1.0
 76
     1
 77
     6
 78
     2
 67
     7
 79
     5
170
     0
171
     0
290
     0
174
     0
 93
        1
 44
0.0
173
     0
291
     0
 45
0.0
  0
VISUALSTYLE
  5
1C
102
{ACAD_REACTORS
330
14
102
}
102
{ACAD_XDICTIONARY
360
1FC4
102
}
330
14
100
AcDbVisualStyle
  2

 70
     6
 71
     1
 72
     2
 73
     2
 90
        0
 40
-0.6
 41
-30.0
 62
     5
 63
     7
 74
     2
 91
        2
 64
     7
 65
   257
 75
     2
175
     1
 42
40.0
 92
        0
 66
   257
 43
1.0
 76
     1
 77
     6
 78
     2
 67
     7
 79
     3
170
     0
171
     0
290
     0
174
     0
 93
        1
 44
0.0
173
     0
291
     0
 45
0.0
  0
VISUALSTYLE
  5
1B
102
{ACAD_REACTORS
330
14
102
}
102
{ACAD_XDICTIONARY
360
1FC6
102
}
330
14
100
AcDbVisualStyle
  2

 70
     5
 71
     0
 72
     2
 73
     0
 90
        0
 40
-0.6
 41
-30.0
 62
     5
 63
     7
 74
     1
 91
        4
 64
     7
 65
   257
 75
     1
175
     1
 42
1.0
 92
        0
 66
   257
 43
1.0
 76
     1
 77
     6
 78
     2
 67
     7
 79
     5
170
     0
171
     0
290
     0
174
     0
 93
        1
 44
0.0
173
     0
291
     0
 45
0.0
  0
VISUALSTYLE
  5
19
102
{ACAD_REACTORS
330
14
102
}
102
{ACAD_XDICTIONARY
360
1FC8
102
}
330
14
100
AcDbVisualStyle
  2

 70
     7
 71
     1
 72
     0
 73
     1
 90
        0
 40
-0.6
 41
-30.0
 62
     5
 63
     7
 74
     0
 91
        4
 64
     7
 65
   257
 75
     1
175
     1
 42
1.0
 92
        8
 66
     7
 43
1.0
 76
     1
 77
     6
 78
     2
 67
     7
 79
     5
170
     0
171
     0
290
     0
174
     0
 93
        1
 44
0.0
173
     0
291
     1
 45
0.0
  0
VISUALSTYLE
  5
20
102
{ACAD_REACTORS
330
14
102
}
102
{ACAD_XDICTIONARY
360
1FCA
102
}
330
14
100
AcDbVisualStyle
  2

 70
    12
 71
     2
 72
     2
 73
     0
 90
        0
 40
-0.6
 41
-30.0
 62
     5
 63
     7
 74
     1
 91
        4
 64
     7
 65
   257
 75
     1
175
     1
 42
1.0
 92
        8
 66
     7
 43
1.0
 76
     1
 77
     6
 78
     2
 67
     7
 79
     5
170
     0
171
     0
290
     0
174
     0
 93
        1
 44
50.0
173
     0
291
     1
 45
0.0
  0
VISUALSTYLE
  5
24
102
{ACAD_REACTORS
330
14
102
}
102
{ACAD_XDICTIONARY
360
1FCC
102
}
330
14
100
AcDbVisualStyle
  2

 70
    16
 71
     2
 72
     2
 73
     3
 90
        0
 40
-0.6
 41
-30.0
 62
     5
 63
     8
 74
     1
 91
        4
 64
     7
 65
   257
 75
     1
175
     1
 42
1.0
 92
        8
 66
     8
 43
1.0
 76
     1
 77
     6
 78
     2
 67
     7
 79
     5
170
     0
171
     0
290
     0
174
     0
 93
        1
 44
0.0
173
     0
291
     1
 45
0.0
  0
VISUALSTYLE
  5
1D
102
{ACAD_REACTORS
330
14
102
}
102
{ACAD_XDICTIONARY
360
1FCE
102
}
330
14
100
AcDbVisualStyle
  2

 70
     9
 71
     3
 72
     2
 73
     0
 90
        0
 40
-0.6
 41
-30.0
 62
     5
 63
     7
 74
     2
 91
        2
 64
     7
 65
   257
 75
     1
175
     1
 42
40.0
 92
        8
 66
     7
 43
1.0
 76
     1
 77
     6
 78
     2
 67
     7
 79
     3
170
     0
171
     0
290
     0
174
     0
 93
        1
 44
0.0
173
     0
291
     0
 45
0.0
  0
VISUALSTYLE
  5
1F
102
{ACAD_REACTORS
330
14
102
}
102
{ACAD_XDICTIONARY
360
1FD0
102
}
330
14
100
AcDbVisualStyle
  2

 70
    11
 71
     2
 72
     2
 73
     0
 90
        0
 40
-0.6
 41
-30.0
 62
     5
 63
     7
 74
     1
 91
        4
 64
     7
 65
   257
 75
     1
175
     1
 42
1.0
 92
        8
 66
     7
 43
1.0
 76
     1
 77
     6
 78
     2
 67
     7
 79
     5
170
     0
171
     0
290
     0
174
     0
 93
        1
 44
-50.0
173
     0
291
     1
 45
0.0
  0
VISUALSTYLE
  5
176B
102
{ACAD_REACTORS
330
14
102
}
102
{ACAD_XDICTIONARY
360
1FD2
102
}
330
14
100
AcDbVisualStyle
  2

 70
    22
 71
     2
 72
     2
 73
     0
 90
        0
 40
-0.6
 41
-30.0
 62
     5
 63
     7
 74
     1
 91
        4
 64
     7
 65
   257
 75
     1
175
     1
 42
1.0
 92
        8
 66
     7
 43
1.0
 76
     1
 77
     6
 78
     2
 67
     7
 79
     5
170
     0
171
     0
290
     0
174
     0
 93
        1
 44
0.0
173
     0
291
     1
 45
0.0
  0
VISUALSTYLE
  5
23
102
{ACAD_REACTORS
330
14
102
}
102
{ACAD_XDICTIONARY
360
1FD4
102
}
330
14
100
AcDbVisualStyle
  2

 70
    15
 71
     2
 72
     2
 73
     0
 90
        0
 40
-0.6
 41
-30.0
 62
     5
 63
     7
 74
     1
 91
        4
 64
     7
 65
   257
 75
     1
175
     1
 42
1.0
 92
        8
 66
     7
 43
1.0
 76
     1
 77
     6
 78
     2
 67
     7
 79
     5
170
     0
171
     0
290
     0
174
     0
 93
        1
 44
0.0
173
     0
291
     1
 45
0.0
  0
VISUALSTYLE
  5
15
102
{ACAD_REACTORS
330
14
102
}
102
{ACAD_XDICTIONARY
360
1FD6
102
}
330
14
100
AcDbVisualStyle
  2

 70
     0
 71
     2
 72
     1
 73
     1
 90
        2
 40
-0.6
 41
30.0
 62
     5
 63
     7
 74
     0
 91
        4
 64
     7
 65
   257
 75
     1
175
     1
 42
1.0
 92
        8
 66
     7
 43
1.0
 76
     1
 77
     6
 78
     2
 67
     7
 79
     5
170
     0
171
     0
290
     0
174
     0
 93
       13
 44
0.0
173
     0
291
     1
 45
0.0
  0
VISUALSTYLE
  5
16
102
{ACAD_REACTORS
330
14
102
}
102
{ACAD_XDICTIONARY
360
1FD8
102
}
330
14
100
AcDbVisualStyle
  2

 70
     1
 71
     2
 72
     1
 73
     1
 90
        2
 40
-0.6
 41
30.0
 62
     5
 63
     7
 74
     1
 91
        4
 64
     7
 65
   257
 75
     1
175
     1
 42
1.0
 92
        0
 66
   257
 43
1.0
 76
     1
 77
     6
 78
     2
 67
     7
 79
     5
170
     0
171
     0
290
     0
174
     0
 93
       13
 44
0.0
173
     0
291
     1
 45
0.0
  0
VISUALSTYLE
  5
17
102
{ACAD_REACTORS
330
14
102
}
102
{ACAD_XDICTIONARY
360
1FDA
102
}
330
14
100
AcDbVisualStyle
  2

 70
     2
 71
     2
 72
     2
 73
     1
 90
        2
 40
-0.6
 41
30.0
 62
     5
 63
     7
 74
     0
 91
        4
 64
     7
 65
   257
 75
     1
175
     1
 42
1.0
 92
        0
 66
     7
 43
1.0
 76
     1
 77
     6
 78
     2
 67
     7
 79
     5
170
     0
171
     0
290
     0
174
     0
 93
       13
 44
0.0
173
     0
291
     1
 45
0.0
  0
VISUALSTYLE
  5
18
102
{ACAD_REACTORS
330
14
102
}
102
{ACAD_XDICTIONARY
360
1FDC
102
}
330
14
100
AcDbVisualStyle
  2

 70
     3
 71
     2
 72
     2
 73
     1
 90
        2
 40
-0.6
 41
30.0
 62
     5
 63
     7
 74
     1
 91
        4
 64
     7
 65
   257
 75
     1
175
     1
 42
1.0
 92
        0
 66
   257
 43
1.0
 76
     1
 77
     6
 78
     2
 67
     7
 79
     5
170
     0
171
     0
290
     0
174
     0
 93
       13
 44
0.0
173
     0
291
     1
 45
0.0
  0
VISUALSTYLE
  5
1763
102
{ACAD_REACTORS
330
14
102
}
102
{ACAD_XDICTIONARY
360
1FDE
102
}
330
14
100
AcDbVisualStyle
  2

 70
     6
 71
     1
 72
     2
 73
     2
 90
        0
 40
-0.6
 41
-30.0
 62
     5
 63
     7
 74
     2
 91
        2
 64
     7
 65
   257
 75
     2
175
     1
 42
40.0
 92
        0
 66
   257
 43
1.0
 76
     1
 77
     6
 78
     2
 67
     7
 79
     3
170
     0
171
     0
290
     0
174
     0
 93
        1
 44
0.0
173
     0
291
     0
 45
0.0
  0
VISUALSTYLE
  5
1769
102
{ACAD_REACTORS
330
14
102
}
102
{ACAD_XDICTIONARY
360
1FE0
102
}
330
14
100
AcDbVisualStyle
  2

 70
    20
 71
     2
 72
     2
 73
     0
 90
        0
 40
-0.6
 41
-30.0
 62
     5
 63
     7
 74
     1
 91
        4
 64
     7
 65
   257
 75
     1
175
     1
 42
1.0
 92
       10
 66
     7
 43
1.0
 76
     1
 77
     6
 78
     2
 67
     7
 79
     5
170
     0
171
     0
290
     0
174
     0
 93
        1
 44
0.0
173
     0
291
     1
 45
0.0
  0
VISUALSTYLE
  5
22
102
{ACAD_REACTORS
330
14
102
}
102
{ACAD_XDICTIONARY
360
1FE2
102
}
330
14
100
AcDbVisualStyle
  2

 70
    14
 71
     2
 72
     2
 73
     0
 90
        0
 40
-0.6
 41
-30.0
 62
     5
 63
     7
 74
     1
 91
        4
 64
     7
 65
   257
 75
     7
175
     7
 42
1.0
 92
        8
 66
     7
 43
1.0
 76
     1
 77
     6
 78
     2
 67
     7
 79
     5
170
     0
171
     0
290
     0
174
     0
 93
        1
 44
0.0
173
     0
291
     1
 45
0.0
  0
VISUALSTYLE
  5
176A
102
{ACAD_REACTORS
330
14
102
}
102
{ACAD_XDICTIONARY
360
1FE4
102
}
330
14
100
AcDbVisualStyle
  2

 70
    21
 71
     2
 72
     2
 73
     0
 90
        0
 40
-0.6
 41
-30.0
 62
     5
 63
     7
 74
     1
 91
        4
 64
     7
 65
   257
 75
     1
175
     1
 42
1.0
 92
        9
 66
     7
 43
1.0
 76
     1
 77
     6
 78
     2
 67
     7
 79
     5
170
     0
171
     0
290
     0
174
     0
 93
        1
 44
0.0
173
     0
291
     1
 45
0.0
  0
VISUALSTYLE
  5
1E
102
{ACAD_REACTORS
330
14
102
}
102
{ACAD_XDICTIONARY
360
1FE6
102
}
330
14
100
AcDbVisualStyle
  2

 70
     8
 71
     2
 72
     2
 73
     0
 90
        0
 40
-0.6
 41
-30.0
 62
     5
 63
     7
 74
     1
 91
        0
 64
     7
 65
   257
 75
     1
175
     1
 42
1.0
 92
        8
 66
     8
 43
1.0
 76
     1
 77
     6
 78
     2
 67
     7
 79
     5
170
     0
171
     0
290
     0
174
     0
 93
       13
 44
0.0
173
     0
291
     0
 45
0.0
  0
VISUALSTYLE
  5
1768
102
{ACAD_REACTORS
330
14
102
}
102
{ACAD_XDICTIONARY
360
1FE8
102
}
330
14
100
AcDbVisualStyle
  2

 70
    27
 71
     2
 72
     2
 73
     1
 90
        2
 40
-0.6
 41
30.0
 62
     5
 63
     7
 74
     0
 91
        4
 64
     7
 65
   257
 75
     1
175
     1
 42
1.0
 92
        8
 66
   257
 43
1.0
 76
     1
 77
     6
 78
     2
 67
     8
 79
     3
170
     0
171
     0
290
     0
174
     0
 93
        5
 44
0.0
173
     0
291
     0
 45
0.0
  0
VISUALSTYLE
  5
1767
102
{ACAD_REACTORS
330
14
102
}
102
{ACAD_XDICTIONARY
360
1FEA
102
}
330
14
100
AcDbVisualStyle
  2

 70
    26
 71
     2
 72
     2
 73
     1
 90
        2
 40
-0.6
 41
30.0
 62
     5
 63
     7
 74
     1
 91
       10
 64
     7
 65
   257
 75
     2
175
     1
 42
1.0
 92
        8
 66
   257
 43
1.0
 76
     1
 77
     6
 78
     2
 67
     7
 79
     3
170
     0
171
     0
290
     0
174
     0
 93
        5
 44
0.0
173
     0
291
     0
 45
0.0
  0
VISUALSTYLE
  5
1764
102
{ACAD_REACTORS
330
14
102
}
102
{ACAD_XDICTIONARY
360
1FEC
102
}
330
14
100
AcDbVisualStyle
  2

 70
    23
 71
     2
 72
     2
 73
     3
 90
        0
 40
-0.6
 41
-30.0
 62
     5
 63
     7
 74
     2
 91
        2
 64
     7
 65
     7
 75
     1
175
     1
 42
40.0
 92
        8
 66
     7
 43
1.0
 76
     1
 77
     6
 78
     2
 67
     7
 79
     3
170
     0
171
     0
290
     0
174
     0
 93
        1
 44
0.0
173
     0
291
     0
 45
0.0
  0
VISUALSTYLE
  5
1765
102
{ACAD_REACTORS
330
14
102
}
102
{ACAD_XDICTIONARY
360
1FEE
102
}
330
14
100
AcDbVisualStyle
  2

 70
    24
 71
     1
 72
     2
 73
     2
 90
        0
 40
-0.6
 41
-30.0
 62
     5
 63
     7
 74
     2
 91
        2
 64
     7
 65
     7
 75
     1
175
     1
 42
40.0
 92
       11
 66
     7
 43
1.0
 76
     1
 77
     6
 78
     2
 67
     7
 79
     6
170
     0
171
     0
290
     0
174
     0
 93
        1
 44
0.0
173
     0
291
     0
 45
0.0
  0
VISUALSTYLE
  5
21
102
{ACAD_REACTORS
330
14
102
}
102
{ACAD_XDICTIONARY
360
1FF0
102
}
330
14
100
AcDbVisualStyle
  2

 70
    13
 71
     2
 72
     2
 73
     0
 90
        0
 40
-0.6
 41
-30.0
 62
     5
 63
     7
 74
     1
 91
        4
 64
     7
 65
   257
 75
     1
175
     1
 42
1.0
 92
       12
 66
     7
 43
1.0
 76
     1
 77
     6
 78
     2
 67
     7
 79
     5
170
     0
171
     0
290
     0
174
     0
 93
        1
 44
0.0
173
     0
291
     1
 45
0.0
  0
VISUALSTYLE
  5
1762
102
{ACAD_REACTORS
330
14
102
}
102
{ACAD_XDICTIONARY
360
1FF2
102
}
330
14
100
AcDbVisualStyle
  2

 70
     5
 71
     0
 72
     2
 73
     0
 90
        0
 40
-0.6
 41
-30.0
 62
     5
 63
     7
 74
     1
 91
        4
 64
     7
 65
   257
 75
     1
175
     1
 42
1.0
 92
        0
 66
   257
 43
1.0
 76
     1
 77
     6
 78
     2
 67
     7
 79
     3
170
     0
171
     0
290
     0
174
     0
 93
        1
 44
0.0
173
     0
291
     0
 45
0.0
  0
VISUALSTYLE
  5
1766
102
{ACAD_REACTORS
330
14
102
}
102
{ACAD_XDICTIONARY
360
1FF4
102
}
330
14
100
AcDbVisualStyle
  2

 70
    25
 71
     2
 72
     2
 73
     1
 90
        1
 40
0.5
 41
-30.0
 62
     5
 63
     7
 74
     1
 91
        0
 64
     7
 65
   257
 75
     1
175
     1
 42
1.0
 92
        8
 66
     7
 43
1.0
 76
     1
 77
     6
 78
     2
 67
     7
 79
     3
170
     0
171
     0
290
     0
174
     0
 93
       13
 44
0.0
173
     0
291
     0
 45
0.0
  0
DICTIONARYVAR
  5
1FBC
102
{ACAD_REACTORS
330
9B9
102
}
330
9B9
100
DictionaryVariables
280
     0
  1
1:1
  0
DICTIONARYVAR
  5
17E0
102
{ACAD_REACTORS
330
9B9
102
}
330
9B9
100
DictionaryVariables
280
     0
  1
Standard
  0
DICTIONARYVAR
  5
9BA
102
{ACAD_REACTORS
330
9B9
102
}
330
9B9
100
DictionaryVariables
280
     0
  1
Standard
  0
DICTIONARYVAR
  5
A1F
102
{ACAD_REACTORS
330
9B9
102
}
330
9B9
100
DictionaryVariables
280
     0
  1
1
  0
DICTIONARYVAR
  5
A1E
102
{ACAD_REACTORS
330
9B9
102
}
330
9B9
100
DictionaryVariables
280
     0
  1
0
  0
DICTIONARYVAR
  5
1FBD
102
{ACAD_REACTORS
330
9B9
102
}
330
9B9
100
DictionaryVariables
280
     0
  1
2
  0
DICTIONARYVAR
  5
1FF7
102
{ACAD_REACTORS
330
9B9
102
}
330
9B9
100
DictionaryVariables
280
     0
  1
0
  0
DICTIONARYVAR
  5
A1D
102
{ACAD_REACTORS
330
9B9
102
}
330
9B9
100
DictionaryVariables
280
     0
  1
127
  0
DICTIONARYVAR
  5
1F15
102
{ACAD_REACTORS
330
9B9
102
}
330
9B9
100
DictionaryVariables
280
     0
  1
2
  0
DICTIONARY
  5
1FBE
330
177F
100
AcDbDictionary
280
     1
281
     1
  3
ACAD_XREC_ROUNDTRIP
360
1FBF
  0
DICTIONARY
  5
1FC0
330
31
100
AcDbDictionary
280
     1
281
     1
  3
ACAD_ROUNDTRIP_2008_TABLESTYLE_CELLSTYLEMAP
360
1FC1
  0
DICTIONARY
  5
1FC2
330
1A
100
AcDbDictionary
280
     1
281
     1
  3
ACAD_XREC_ROUNDTRIP
360
1FC3
  0
DICTIONARY
  5
1FC4
330
1C
100
AcDbDictionary
280
     1
281
     1
  3
ACAD_XREC_ROUNDTRIP
360
1FC5
  0
DICTIONARY
  5
1FC6
330
1B
100
AcDbDictionary
280
     1
281
     1
  3
ACAD_XREC_ROUNDTRIP
360
1FC7
  0
DICTIONARY
  5
1FC8
330
19
100
AcDbDictionary
280
     1
281
     1
  3
ACAD_XREC_ROUNDTRIP
360
1FC9
  0
DICTIONARY
  5
1FCA
330
20
100
AcDbDictionary
280
     1
281
     1
  3
ACAD_XREC_ROUNDTRIP
360
1FCB
  0
DICTIONARY
  5
1FCC
330
24
100
AcDbDictionary
280
     1
281
     1
  3
ACAD_XREC_ROUNDTRIP
360
1FCD
  0
DICTIONARY
  5
1FCE
330
1D
100
AcDbDictionary
280
     1
281
     1
  3
ACAD_XREC_ROUNDTRIP
360
1FCF
  0
DICTIONARY
  5
1FD0
330
1F
100
AcDbDictionary
280
     1
281
     1
  3
ACAD_XREC_ROUNDTRIP
360
1FD1
  0
DICTIONARY
  5
1FD2
330
176B
100
AcDbDictionary
280
     1
281
     1
  3
ACAD_XREC_ROUNDTRIP
360
1FD3
  0
DICTIONARY
  5
1FD4
330
23
100
AcDbDictionary
280
     1
281
     1
  3
ACAD_XREC_ROUNDTRIP
360
1FD5
  0
DICTIONARY
  5
1FD6
330
15
100
AcDbDictionary
280
     1
281
     1
  3
ACAD_XREC_ROUNDTRIP
360
1FD7
  0
DICTIONARY
  5
1FD8
330
16
100
AcDbDictionary
280
     1
281
     1
  3
ACAD_XREC_ROUNDTRIP
360
1FD9
  0
DICTIONARY
  5
1FDA
330
17
100
AcDbDictionary
280
     1
281
     1
  3
ACAD_XREC_ROUNDTRIP
360
1FDB
  0
DICTIONARY
  5
1FDC
330
18
100
AcDbDictionary
280
     1
281
     1
  3
ACAD_XREC_ROUNDTRIP
360
1FDD
  0
DICTIONARY
  5
1FDE
330
1763
100
AcDbDictionary
280
     1
281
     1
  3
ACAD_XREC_ROUNDTRIP
360
1FDF
  0
DICTIONARY
  5
1FE0
330
1769
100
AcDbDictionary
280
     1
281
     1
  3
ACAD_XREC_ROUNDTRIP
360
1FE1
  0
DICTIONARY
  5
1FE2
330
22
100
AcDbDictionary
280
     1
281
     1
  3
ACAD_XREC_ROUNDTRIP
360
1FE3
  0
DICTIONARY
  5
1FE4
330
176A
100
AcDbDictionary
280
     1
281
     1
  3
ACAD_XREC_ROUNDTRIP
360
1FE5
  0
DICTIONARY
  5
1FE6
330
1E
100
AcDbDictionary
280
     1
281
     1
  3
ACAD_XREC_ROUNDTRIP
360
1FE7
  0
DICTIONARY
  5
1FE8
330
1768
100
AcDbDictionary
280
     1
281
     1
  3
ACAD_XREC_ROUNDTRIP
360
1FE9
  0
DICTIONARY
  5
1FEA
330
1767
100
AcDbDictionary
280
     1
281
     1
  3
ACAD_XREC_ROUNDTRIP
360
1FEB
  0
DICTIONARY
  5
1FEC
330
1764
100
AcDbDictionary
280
     1
281
     1
  3
ACAD_XREC_ROUNDTRIP
360
1FED
  0
DICTIONARY
  5
1FEE
330
1765
100
AcDbDictionary
280
     1
281
     1
  3
ACAD_XREC_ROUNDTRIP
360
1FEF
  0
DICTIONARY
  5
1FF0
330
21
100
AcDbDictionary
280
     1
281
     1
  3
ACAD_XREC_ROUNDTRIP
360
1FF1
  0
DICTIONARY
  5
1FF2
330
1762
100
AcDbDictionary
280
     1
281
     1
  3
ACAD_XREC_ROUNDTRIP
360
1FF3
  0
DICTIONARY
  5
1FF4
330
1766
100
AcDbDictionary
280
     1
281
     1
  3
ACAD_XREC_ROUNDTRIP
360
1FF5
  0
XRECORD
  5
1FBF
102
{ACAD_REACTORS
330
1FBE
102
}
330
1FBE
100
AcDbXrecord
280
     1
102
ACAD_ROUNDTRIP_2010_MLEADER_STYLE
  0
CELLSTYLEMAP
  5
1FC1
102
{ACAD_REACTORS
330
1FC0
102
}
330
1FC0
100
AcDbCellStyleMap
 90
        3
300
CELLSTYLE
  1
TABLEFORMAT_BEGIN
 90
        5
170
     1
 91
        0
 92
    32768
 62
   257
 93
        1
300
CONTENTFORMAT
  1
CONTENTFORMAT_BEGIN
 90
        0
 91
        0
 92
      512
 93
        0
300

 40
0.0
140
1.0
 94
        5
 62
     0
340
26
144
0.25
309
CONTENTFORMAT_END
171
     1
301
MARGIN
  1
CELLMARGIN_BEGIN
 40
0.06
 40
0.06
 40
0.06
 40
0.06
 40
0.18
 40
0.18
309
CELLMARGIN_END
 94
        6
 95
        1
302
GRIDFORMAT
  1
GRIDFORMAT_BEGIN
 90
        0
 91
        1
 62
     0
 92
       -2
340
0
 93
        0
 40
0.045
309
GRIDFORMAT_END
 95
        2
302
GRIDFORMAT
  1
GRIDFORMAT_BEGIN
 90
        0
 91
        1
 62
     0
 92
       -2
340
0
 93
        0
 40
0.045
309
GRIDFORMAT_END
 95
        4
302
GRIDFORMAT
  1
GRIDFORMAT_BEGIN
 90
        0
 91
        1
 62
     0
 92
       -2
340
0
 93
        0
 40
0.045
309
GRIDFORMAT_END
 95
        8
302
GRIDFORMAT
  1
GRIDFORMAT_BEGIN
 90
        0
 91
        1
 62
     0
 92
       -2
340
0
 93
        0
 40
0.045
309
GRIDFORMAT_END
 95
       16
302
GRIDFORMAT
  1
GRIDFORMAT_BEGIN
 90
        0
 91
        1
 62
     0
 92
       -2
340
0
 93
        0
 40
0.045
309
GRIDFORMAT_END
 95
       32
302
GRIDFORMAT
  1
GRIDFORMAT_BEGIN
 90
        0
 91
        1
 62
     0
 92
       -2
340
0
 93
        0
 40
0.045
309
GRIDFORMAT_END
309
TABLEFORMAT_END
  1
CELLSTYLE_BEGIN
 90
        1
 91
        1
300
_TITLE
309
CELLSTYLE_END
300
CELLSTYLE
  1
TABLEFORMAT_BEGIN
 90
        5
170
     1
 91
        0
 92
        0
 62
   257
 93
        1
300
CONTENTFORMAT
  1
CONTENTFORMAT_BEGIN
 90
        0
 91
        0
 92
      512
 93
        0
300

 40
0.0
140
1.0
 94
        5
 62
     0
340
26
144
0.18
309
CONTENTFORMAT_END
171
     1
301
MARGIN
  1
CELLMARGIN_BEGIN
 40
0.06
 40
0.06
 40
0.06
 40
0.06
 40
0.18
 40
0.18
309
CELLMARGIN_END
 94
        6
 95
        1
302
GRIDFORMAT
  1
GRIDFORMAT_BEGIN
 90
        0
 91
        1
 62
     0
 92
       -2
340
0
 93
        0
 40
0.045
309
GRIDFORMAT_END
 95
        2
302
GRIDFORMAT
  1
GRIDFORMAT_BEGIN
 90
        0
 91
        1
 62
     0
 92
       -2
340
0
 93
        0
 40
0.045
309
GRIDFORMAT_END
 95
        4
302
GRIDFORMAT
  1
GRIDFORMAT_BEGIN
 90
        0
 91
        1
 62
     0
 92
       -2
340
0
 93
        0
 40
0.045
309
GRIDFORMAT_END
 95
        8
302
GRIDFORMAT
  1
GRIDFORMAT_BEGIN
 90
        0
 91
        1
 62
     0
 92
       -2
340
0
 93
        0
 40
0.045
309
GRIDFORMAT_END
 95
       16
302
GRIDFORMAT
  1
GRIDFORMAT_BEGIN
 90
        0
 91
        1
 62
     0
 92
       -2
340
0
 93
        0
 40
0.045
309
GRIDFORMAT_END
 95
       32
302
GRIDFORMAT
  1
GRIDFORMAT_BEGIN
 90
        0
 91
        1
 62
     0
 92
       -2
340
0
 93
        0
 40
0.045
309
GRIDFORMAT_END
309
TABLEFORMAT_END
  1
CELLSTYLE_BEGIN
 90
        2
 91
        1
300
_HEADER
309
CELLSTYLE_END
300
CELLSTYLE
  1
TABLEFORMAT_BEGIN
 90
        5
170
     1
 91
        0
 92
        0
 62
   257
 93
        1
300
CONTENTFORMAT
  1
CONTENTFORMAT_BEGIN
 90
        0
 91
        0
 92
      512
 93
        0
300

 40
0.0
140
1.0
 94
        2
 62
     0
340
26
144
0.18
309
CONTENTFORMAT_END
171
     1
301
MARGIN
  1
CELLMARGIN_BEGIN
 40
0.06
 40
0.06
 40
0.06
 40
0.06
 40
0.18
 40
0.18
309
CELLMARGIN_END
 94
        6
 95
        1
302
GRIDFORMAT
  1
GRIDFORMAT_BEGIN
 90
        0
 91
        1
 62
     0
 92
       -2
340
0
 93
        0
 40
0.045
309
GRIDFORMAT_END
 95
        2
302
GRIDFORMAT
  1
GRIDFORMAT_BEGIN
 90
        0
 91
        1
 62
     0
 92
       -2
340
0
 93
        0
 40
0.045
309
GRIDFORMAT_END
 95
        4
302
GRIDFORMAT
  1
GRIDFORMAT_BEGIN
 90
        0
 91
        1
 62
     0
 92
       -2
340
0
 93
        0
 40
0.045
309
GRIDFORMAT_END
 95
        8
302
GRIDFORMAT
  1
GRIDFORMAT_BEGIN
 90
        0
 91
        1
 62
     0
 92
       -2
340
0
 93
        0
 40
0.045
309
GRIDFORMAT_END
 95
       16
302
GRIDFORMAT
  1
GRIDFORMAT_BEGIN
 90
        0
 91
        1
 62
     0
 92
       -2
340
0
 93
        0
 40
0.045
309
GRIDFORMAT_END
 95
       32
302
GRIDFORMAT
  1
GRIDFORMAT_BEGIN
 90
        0
 91
        1
 62
     0
 92
       -2
340
0
 93
        0
 40
0.045
309
GRIDFORMAT_END
309
TABLEFORMAT_END
  1
CELLSTYLE_BEGIN
 90
        3
 91
        2
300
_DATA
309
CELLSTYLE_END
  0
XRECORD
  5
1FC3
102
{ACAD_REACTORS
330
1FC2
102
}
330
1FC2
100
AcDbXrecord
280
     1
102
RTVSPropertyOp0
 70
     1
102
RTVSPropertyOp1
 70
     1
102
RTVSPropertyOp2
 70
     1
102
RTVSPropertyOp3
 70
     1
102
RTVSPropertyOp4
 70
     1
102
RTVSPropertyOp5
 70
     1
102
RTVSPropertyOp6
 70
     1
102
RTVSPropertyOp7
 70
     1
102
RTVSPropertyOp8
 70
     1
102
RTVSPropertyOp9
 70
     1
102
RTVSPropertyOp10
 70
     1
102
RTVSPropertyOp11
 70
     1
102
RTVSPropertyOp12
 70
     1
102
RTVSPropertyOp13
 70
     1
102
RTVSPropertyOp14
 70
     1
102
RTVSPropertyOp15
 70
     1
102
RTVSPropertyOp16
 70
     1
102
RTVSPropertyOp17
 70
     1
102
RTVSPropertyOp18
 70
     1
102
RTVSPropertyOp19
 70
     1
102
RTVSPropertyOp20
 70
     1
102
RTVSPropertyOp21
 70
     1
102
RTVSPropertyOp22
 70
     1
102
RTVSPropertyOp23
 70
     1
102
RTVSPropertyOp24
 70
     1
102
RTVSPropertyOp25
 70
     1
102
RTVSPropertyOp26
 70
     1
102
RTVSPropertyOp27
 70
     1
102
RTVSPropertyOp28
 70
     1
102
RTVSPropertyOp29
 70
     1
102
RTVSPropertyOp30
 70
     1
102
RTVSPropertyOp31
 70
     1
102
RTVSPropertyOp32
 70
     1
102
RTVSPropertyOp33
 70
     1
102
RTVSPropertyOp34
 70
     1
102
RTVSPropertyOp35
 70
     1
102
RTVSPropertyOp36
 70
     1
102
RTVSPropertyOp37
 70
     1
102
RTVSPropertyOp38
 70
     1
102
RTVSPropertyOp39
 70
     1
102
RTVSPropertyOp40
 70
     1
102
RTVSPropertyOp41
 70
     1
102
RTVSPropertyOp42
 70
     1
102
RTVSPropertyOp43
 70
     1
102
RTVSPropertyOp44
 70
     1
102
RTVSPropertyOp45
 70
     1
102
RTVSPropertyOp46
 70
     1
102
RTVSPropertyOp47
 70
     1
102
RTVSPropertyOp48
 70
     1
102
RTVSPropertyOp49
 70
     1
102
RTVSPropertyOp50
 70
     1
102
RTVSPropertyOp51
 70
     0
102
RTVSPropertyOp52
 70
     0
102
RTVSPropertyOp53
 70
     1
102
RTVSPropertyOp54
 70
     1
102
RTVSPropertyOp55
 70
     1
102
RTVSPropertyOp56
 70
     1
102
RTVSPropertyOp57
 70
     1
102
RTVSPost2010Prop28
280
     1
102
RTVSPost2010PropOp28
 70
     1
102
RTVSPost2010Prop29
280
     1
102
RTVSPost2010PropOp29
 70
     1
102
RTVSPost2010Prop30
280
     0
102
RTVSPost2010PropOp30
 70
     1
102
RTVSPost2010Prop31
280
     0
102
RTVSPost2010PropOp31
 70
     1
102
RTVSPost2010Prop32
280
     0
102
RTVSPost2010PropOp32
 70
     1
102
RTVSPost2010Prop33
280
     0
102
RTVSPost2010PropOp33
 70
     1
102
RTVSPost2010Prop34
280
     0
102
RTVSPost2010PropOp34
 70
     1
102
RTVSPost2010Prop35
280
     0
102
RTVSPost2010PropOp35
 70
     1
102
RTVSPost2010Prop36
280
     0
102
RTVSPost2010PropOp36
 70
     1
102
RTVSPost2010Prop37
 90
       50
102
RTVSPost2010PropOp37
 70
     1
102
RTVSPost2010Prop38
140
0.0
102
RTVSPost2010PropOp38
 70
     1
102
RTVSPost2010Prop39
140
1.0
102
RTVSPost2010PropOp39
 70
     1
102
RTVSPost2010Prop40
 90
        0
102
RTVSPost2010PropOp40
 70
     1
102
RTVSPost2010Prop41ColorIndex
 90
       18
102
RTVSPost2010Prop41ColorRGB
 90
        0
102
RTVSPost2010PropOp41
 70
     1
102
RTVSPost2010Prop42
 90
       50
102
RTVSPost2010PropOp42
 70
     1
102
RTVSPost2010Prop43
 90
        3
102
RTVSPost2010PropOp43
 70
     1
102
RTVSPost2010Prop44ColorIndex
 90
        5
102
RTVSPost2010Prop44ColorRGB
 90
      255
102
RTVSPost2010PropOp44
 70
     1
102
RTVSPost2010Prop45
280
     0
102
RTVSPost2010PropOp45
 70
     1
102
RTVSPost2010Prop46
 90
       50
102
RTVSPost2010PropOp46
 70
     1
102
RTVSPost2010Prop47
 90
       50
102
RTVSPost2010PropOp47
 70
     1
102
RTVSPost2010Prop48
 90
       50
102
RTVSPost2010PropOp48
 70
     1
102
RTVSPost2010Prop49
280
     0
102
RTVSPost2010PropOp49
 70
     1
102
RTVSPost2010Prop50
 90
       50
102
RTVSPost2010PropOp50
 70
     1
102
RTVSPost2010Prop51ColorIndex
 90
      256
102
RTVSPost2010Prop51ColorRGB
 90
-16777216
102
RTVSPost2010PropOp51
 70
     0
102
RTVSPost2010Prop52
140
1.0
102
RTVSPost2010PropOp52
 70
     0
102
RTVSPost2010Prop53
 90
        2
102
RTVSPost2010PropOp53
 70
     1
102
RTVSPost2010Prop54
  1
strokes_ogs.tif
102
RTVSPost2010PropOp54
 70
     1
102
RTVSPost2010Prop55
280
     0
102
RTVSPost2010PropOp55
 70
     1
102
RTVSPost2010Prop56
140
1.0
102
RTVSPost2010PropOp56
 70
     1
102
RTVSPost2010Prop57
140
1.0
102
RTVSPost2010PropOp57
 70
     1
  0
XRECORD
  5
1FC5
102
{ACAD_REACTORS
330
1FC4
102
}
330
1FC4
100
AcDbXrecord
280
     1
102
RTVSPropertyOp0
 70
     1
102
RTVSPropertyOp1
 70
     1
102
RTVSPropertyOp2
 70
     1
102
RTVSPropertyOp3
 70
     1
102
RTVSPropertyOp4
 70
     1
102
RTVSPropertyOp5
 70
     1
102
RTVSPropertyOp6
 70
     1
102
RTVSPropertyOp7
 70
     1
102
RTVSPropertyOp8
 70
     1
102
RTVSPropertyOp9
 70
     1
102
RTVSPropertyOp10
 70
     1
102
RTVSPropertyOp11
 70
     1
102
RTVSPropertyOp12
 70
     1
102
RTVSPropertyOp13
 70
     1
102
RTVSPropertyOp14
 70
     1
102
RTVSPropertyOp15
 70
     1
102
RTVSPropertyOp16
 70
     1
102
RTVSPropertyOp17
 70
     1
102
RTVSPropertyOp18
 70
     1
102
RTVSPropertyOp19
 70
     1
102
RTVSPropertyOp20
 70
     1
102
RTVSPropertyOp21
 70
     1
102
RTVSPropertyOp22
 70
     1
102
RTVSPropertyOp23
 70
     1
102
RTVSPropertyOp24
 70
     1
102
RTVSPropertyOp25
 70
     1
102
RTVSPropertyOp26
 70
     1
102
RTVSPropertyOp27
 70
     1
102
RTVSPropertyOp28
 70
     1
102
RTVSPropertyOp29
 70
     1
102
RTVSPropertyOp30
 70
     1
102
RTVSPropertyOp31
 70
     1
102
RTVSPropertyOp32
 70
     1
102
RTVSPropertyOp33
 70
     1
102
RTVSPropertyOp34
 70
     1
102
RTVSPropertyOp35
 70
     1
102
RTVSPropertyOp36
 70
     1
102
RTVSPropertyOp37
 70
     1
102
RTVSPropertyOp38
 70
     1
102
RTVSPropertyOp39
 70
     1
102
RTVSPropertyOp40
 70
     1
102
RTVSPropertyOp41
 70
     1
102
RTVSPropertyOp42
 70
     1
102
RTVSPropertyOp43
 70
     1
102
RTVSPropertyOp44
 70
     1
102
RTVSPropertyOp45
 70
     1
102
RTVSPropertyOp46
 70
     1
102
RTVSPropertyOp47
 70
     1
102
RTVSPropertyOp48
 70
     1
102
RTVSPropertyOp49
 70
     1
102
RTVSPropertyOp50
 70
     1
102
RTVSPropertyOp51
 70
     0
102
RTVSPropertyOp52
 70
     0
102
RTVSPropertyOp53
 70
     1
102
RTVSPropertyOp54
 70
     1
102
RTVSPropertyOp55
 70
     1
102
RTVSPropertyOp56
 70
     1
102
RTVSPropertyOp57
 70
     1
102
RTVSPost2010Prop28
280
     0
102
RTVSPost2010PropOp28
 70
     1
102
RTVSPost2010Prop29
280
     1
102
RTVSPost2010PropOp29
 70
     1
102
RTVSPost2010Prop30
280
     1
102
RTVSPost2010PropOp30
 70
     1
102
RTVSPost2010Prop31
280
     0
102
RTVSPost2010PropOp31
 70
     1
102
RTVSPost2010Prop32
280
     0
102
RTVSPost2010PropOp32
 70
     1
102
RTVSPost2010Prop33
280
     0
102
RTVSPost2010PropOp33
 70
     1
102
RTVSPost2010Prop34
280
     0
102
RTVSPost2010PropOp34
 70
     1
102
RTVSPost2010Prop35
280
     0
102
RTVSPost2010PropOp35
 70
     1
102
RTVSPost2010Prop36
280
     0
102
RTVSPost2010PropOp36
 70
     1
102
RTVSPost2010Prop37
 90
       50
102
RTVSPost2010PropOp37
 70
     1
102
RTVSPost2010Prop38
140
0.0
102
RTVSPost2010PropOp38
 70
     1
102
RTVSPost2010Prop39
140
1.0
102
RTVSPost2010PropOp39
 70
     1
102
RTVSPost2010Prop40
 90
        0
102
RTVSPost2010PropOp40
 70
     1
102
RTVSPost2010Prop41ColorIndex
 90
       18
102
RTVSPost2010Prop41ColorRGB
 90
        0
102
RTVSPost2010PropOp41
 70
     1
102
RTVSPost2010Prop42
 90
       50
102
RTVSPost2010PropOp42
 70
     1
102
RTVSPost2010Prop43
 90
        3
102
RTVSPost2010PropOp43
 70
     1
102
RTVSPost2010Prop44ColorIndex
 90
        5
102
RTVSPost2010Prop44ColorRGB
 90
      255
102
RTVSPost2010PropOp44
 70
     1
102
RTVSPost2010Prop45
280
     0
102
RTVSPost2010PropOp45
 70
     1
102
RTVSPost2010Prop46
 90
       50
102
RTVSPost2010PropOp46
 70
     1
102
RTVSPost2010Prop47
 90
       50
102
RTVSPost2010PropOp47
 70
     1
102
RTVSPost2010Prop48
 90
       50
102
RTVSPost2010PropOp48
 70
     1
102
RTVSPost2010Prop49
280
     0
102
RTVSPost2010PropOp49
 70
     1
102
RTVSPost2010Prop50
 90
       50
102
RTVSPost2010PropOp50
 70
     1
102
RTVSPost2010Prop51ColorIndex
 90
      256
102
RTVSPost2010Prop51ColorRGB
 90
-16777216
102
RTVSPost2010PropOp51
 70
     0
102
RTVSPost2010Prop52
140
1.0
102
RTVSPost2010PropOp52
 70
     0
102
RTVSPost2010Prop53
 90
        2
102
RTVSPost2010PropOp53
 70
     1
102
RTVSPost2010Prop54
  1
strokes_ogs.tif
102
RTVSPost2010PropOp54
 70
     1
102
RTVSPost2010Prop55
280
     0
102
RTVSPost2010PropOp55
 70
     1
102
RTVSPost2010Prop56
140
1.0
102
RTVSPost2010PropOp56
 70
     1
102
RTVSPost2010Prop57
140
1.0
102
RTVSPost2010PropOp57
 70
     1
  0
XRECORD
  5
1FC7
102
{ACAD_REACTORS
330
1FC6
102
}
330
1FC6
100
AcDbXrecord
280
     1
102
RTVSPropertyOp0
 70
     1
102
RTVSPropertyOp1
 70
     1
102
RTVSPropertyOp2
 70
     1
102
RTVSPropertyOp3
 70
     1
102
RTVSPropertyOp4
 70
     1
102
RTVSPropertyOp5
 70
     1
102
RTVSPropertyOp6
 70
     1
102
RTVSPropertyOp7
 70
     1
102
RTVSPropertyOp8
 70
     1
102
RTVSPropertyOp9
 70
     1
102
RTVSPropertyOp10
 70
     1
102
RTVSPropertyOp11
 70
     1
102
RTVSPropertyOp12
 70
     1
102
RTVSPropertyOp13
 70
     1
102
RTVSPropertyOp14
 70
     1
102
RTVSPropertyOp15
 70
     1
102
RTVSPropertyOp16
 70
     1
102
RTVSPropertyOp17
 70
     1
102
RTVSPropertyOp18
 70
     1
102
RTVSPropertyOp19
 70
     1
102
RTVSPropertyOp20
 70
     1
102
RTVSPropertyOp21
 70
     1
102
RTVSPropertyOp22
 70
     1
102
RTVSPropertyOp23
 70
     1
102
RTVSPropertyOp24
 70
     1
102
RTVSPropertyOp25
 70
     1
102
RTVSPropertyOp26
 70
     1
102
RTVSPropertyOp27
 70
     1
102
RTVSPropertyOp28
 70
     1
102
RTVSPropertyOp29
 70
     1
102
RTVSPropertyOp30
 70
     1
102
RTVSPropertyOp31
 70
     1
102
RTVSPropertyOp32
 70
     1
102
RTVSPropertyOp33
 70
     1
102
RTVSPropertyOp34
 70
     1
102
RTVSPropertyOp35
 70
     1
102
RTVSPropertyOp36
 70
     1
102
RTVSPropertyOp37
 70
     1
102
RTVSPropertyOp38
 70
     1
102
RTVSPropertyOp39
 70
     1
102
RTVSPropertyOp40
 70
     1
102
RTVSPropertyOp41
 70
     1
102
RTVSPropertyOp42
 70
     1
102
RTVSPropertyOp43
 70
     1
102
RTVSPropertyOp44
 70
     1
102
RTVSPropertyOp45
 70
     1
102
RTVSPropertyOp46
 70
     1
102
RTVSPropertyOp47
 70
     1
102
RTVSPropertyOp48
 70
     1
102
RTVSPropertyOp49
 70
     1
102
RTVSPropertyOp50
 70
     1
102
RTVSPropertyOp51
 70
     0
102
RTVSPropertyOp52
 70
     0
102
RTVSPropertyOp53
 70
     1
102
RTVSPropertyOp54
 70
     1
102
RTVSPropertyOp55
 70
     1
102
RTVSPropertyOp56
 70
     1
102
RTVSPropertyOp57
 70
     1
102
RTVSPost2010Prop28
280
     0
102
RTVSPost2010PropOp28
 70
     1
102
RTVSPost2010Prop29
280
     1
102
RTVSPost2010PropOp29
 70
     1
102
RTVSPost2010Prop30
280
     1
102
RTVSPost2010PropOp30
 70
     1
102
RTVSPost2010Prop31
280
     0
102
RTVSPost2010PropOp31
 70
     1
102
RTVSPost2010Prop32
280
     0
102
RTVSPost2010PropOp32
 70
     1
102
RTVSPost2010Prop33
280
     0
102
RTVSPost2010PropOp33
 70
     1
102
RTVSPost2010Prop34
280
     0
102
RTVSPost2010PropOp34
 70
     1
102
RTVSPost2010Prop35
280
     0
102
RTVSPost2010PropOp35
 70
     1
102
RTVSPost2010Prop36
280
     0
102
RTVSPost2010PropOp36
 70
     1
102
RTVSPost2010Prop37
 90
       50
102
RTVSPost2010PropOp37
 70
     1
102
RTVSPost2010Prop38
140
0.0
102
RTVSPost2010PropOp38
 70
     1
102
RTVSPost2010Prop39
140
1.0
102
RTVSPost2010PropOp39
 70
     1
102
RTVSPost2010Prop40
 90
        0
102
RTVSPost2010PropOp40
 70
     1
102
RTVSPost2010Prop41ColorIndex
 90
       18
102
RTVSPost2010Prop41ColorRGB
 90
        0
102
RTVSPost2010PropOp41
 70
     1
102
RTVSPost2010Prop42
 90
       50
102
RTVSPost2010PropOp42
 70
     1
102
RTVSPost2010Prop43
 90
        3
102
RTVSPost2010PropOp43
 70
     1
102
RTVSPost2010Prop44ColorIndex
 90
        5
102
RTVSPost2010Prop44ColorRGB
 90
      255
102
RTVSPost2010PropOp44
 70
     1
102
RTVSPost2010Prop45
280
     0
102
RTVSPost2010PropOp45
 70
     1
102
RTVSPost2010Prop46
 90
       50
102
RTVSPost2010PropOp46
 70
     1
102
RTVSPost2010Prop47
 90
       50
102
RTVSPost2010PropOp47
 70
     1
102
RTVSPost2010Prop48
 90
       50
102
RTVSPost2010PropOp48
 70
     1
102
RTVSPost2010Prop49
280
     0
102
RTVSPost2010PropOp49
 70
     1
102
RTVSPost2010Prop50
 90
       50
102
RTVSPost2010PropOp50
 70
     1
102
RTVSPost2010Prop51ColorIndex
 90
      256
102
RTVSPost2010Prop51ColorRGB
 90
-16777216
102
RTVSPost2010PropOp51
 70
     0
102
RTVSPost2010Prop52
140
1.0
102
RTVSPost2010PropOp52
 70
     0
102
RTVSPost2010Prop53
 90
        2
102
RTVSPost2010PropOp53
 70
     1
102
RTVSPost2010Prop54
  1
strokes_ogs.tif
102
RTVSPost2010PropOp54
 70
     1
102
RTVSPost2010Prop55
280
     0
102
RTVSPost2010PropOp55
 70
     1
102
RTVSPost2010Prop56
140
1.0
102
RTVSPost2010PropOp56
 70
     1
102
RTVSPost2010Prop57
140
1.0
102
RTVSPost2010PropOp57
 70
     1
  0
XRECORD
  5
1FC9
102
{ACAD_REACTORS
330
1FC8
102
}
330
1FC8
100
AcDbXrecord
280
     1
102
RTVSPropertyOp0
 70
     1
102
RTVSPropertyOp1
 70
     1
102
RTVSPropertyOp2
 70
     1
102
RTVSPropertyOp3
 70
     1
102
RTVSPropertyOp4
 70
     1
102
RTVSPropertyOp5
 70
     1
102
RTVSPropertyOp6
 70
     1
102
RTVSPropertyOp7
 70
     1
102
RTVSPropertyOp8
 70
     1
102
RTVSPropertyOp9
 70
     1
102
RTVSPropertyOp10
 70
     1
102
RTVSPropertyOp11
 70
     1
102
RTVSPropertyOp12
 70
     1
102
RTVSPropertyOp13
 70
     1
102
RTVSPropertyOp14
 70
     1
102
RTVSPropertyOp15
 70
     1
102
RTVSPropertyOp16
 70
     1
102
RTVSPropertyOp17
 70
     1
102
RTVSPropertyOp18
 70
     1
102
RTVSPropertyOp19
 70
     1
102
RTVSPropertyOp20
 70
     1
102
RTVSPropertyOp21
 70
     1
102
RTVSPropertyOp22
 70
     1
102
RTVSPropertyOp23
 70
     1
102
RTVSPropertyOp24
 70
     1
102
RTVSPropertyOp25
 70
     1
102
RTVSPropertyOp26
 70
     1
102
RTVSPropertyOp27
 70
     1
102
RTVSPropertyOp28
 70
     1
102
RTVSPropertyOp29
 70
     1
102
RTVSPropertyOp30
 70
     1
102
RTVSPropertyOp31
 70
     1
102
RTVSPropertyOp32
 70
     1
102
RTVSPropertyOp33
 70
     1
102
RTVSPropertyOp34
 70
     1
102
RTVSPropertyOp35
 70
     1
102
RTVSPropertyOp36
 70
     1
102
RTVSPropertyOp37
 70
     1
102
RTVSPropertyOp38
 70
     1
102
RTVSPropertyOp39
 70
     1
102
RTVSPropertyOp40
 70
     1
102
RTVSPropertyOp41
 70
     1
102
RTVSPropertyOp42
 70
     1
102
RTVSPropertyOp43
 70
     1
102
RTVSPropertyOp44
 70
     1
102
RTVSPropertyOp45
 70
     1
102
RTVSPropertyOp46
 70
     1
102
RTVSPropertyOp47
 70
     1
102
RTVSPropertyOp48
 70
     1
102
RTVSPropertyOp49
 70
     1
102
RTVSPropertyOp50
 70
     1
102
RTVSPropertyOp51
 70
     0
102
RTVSPropertyOp52
 70
     0
102
RTVSPropertyOp53
 70
     1
102
RTVSPropertyOp54
 70
     1
102
RTVSPropertyOp55
 70
     1
102
RTVSPropertyOp56
 70
     1
102
RTVSPropertyOp57
 70
     1
102
RTVSPost2010Prop28
280
     0
102
RTVSPost2010PropOp28
 70
     1
102
RTVSPost2010Prop29
280
     1
102
RTVSPost2010PropOp29
 70
     1
102
RTVSPost2010Prop30
280
     1
102
RTVSPost2010PropOp30
 70
     1
102
RTVSPost2010Prop31
280
     0
102
RTVSPost2010PropOp31
 70
     1
102
RTVSPost2010Prop32
280
     0
102
RTVSPost2010PropOp32
 70
     1
102
RTVSPost2010Prop33
280
     0
102
RTVSPost2010PropOp33
 70
     1
102
RTVSPost2010Prop34
280
     0
102
RTVSPost2010PropOp34
 70
     1
102
RTVSPost2010Prop35
280
     0
102
RTVSPost2010PropOp35
 70
     1
102
RTVSPost2010Prop36
280
     0
102
RTVSPost2010PropOp36
 70
     1
102
RTVSPost2010Prop37
 90
       50
102
RTVSPost2010PropOp37
 70
     1
102
RTVSPost2010Prop38
140
0.0
102
RTVSPost2010PropOp38
 70
     1
102
RTVSPost2010Prop39
140
1.0
102
RTVSPost2010PropOp39
 70
     1
102
RTVSPost2010Prop40
 90
        0
102
RTVSPost2010PropOp40
 70
     1
102
RTVSPost2010Prop41ColorIndex
 90
       18
102
RTVSPost2010Prop41ColorRGB
 90
        0
102
RTVSPost2010PropOp41
 70
     1
102
RTVSPost2010Prop42
 90
       50
102
RTVSPost2010PropOp42
 70
     1
102
RTVSPost2010Prop43
 90
        3
102
RTVSPost2010PropOp43
 70
     1
102
RTVSPost2010Prop44ColorIndex
 90
        5
102
RTVSPost2010Prop44ColorRGB
 90
      255
102
RTVSPost2010PropOp44
 70
     1
102
RTVSPost2010Prop45
280
     0
102
RTVSPost2010PropOp45
 70
     1
102
RTVSPost2010Prop46
 90
       50
102
RTVSPost2010PropOp46
 70
     1
102
RTVSPost2010Prop47
 90
       50
102
RTVSPost2010PropOp47
 70
     1
102
RTVSPost2010Prop48
 90
       50
102
RTVSPost2010PropOp48
 70
     1
102
RTVSPost2010Prop49
280
     0
102
RTVSPost2010PropOp49
 70
     1
102
RTVSPost2010Prop50
 90
       50
102
RTVSPost2010PropOp50
 70
     1
102
RTVSPost2010Prop51ColorIndex
 90
      256
102
RTVSPost2010Prop51ColorRGB
 90
-16777216
102
RTVSPost2010PropOp51
 70
     0
102
RTVSPost2010Prop52
140
1.0
102
RTVSPost2010PropOp52
 70
     0
102
RTVSPost2010Prop53
 90
        2
102
RTVSPost2010PropOp53
 70
     1
102
RTVSPost2010Prop54
  1
strokes_ogs.tif
102
RTVSPost2010PropOp54
 70
     1
102
RTVSPost2010Prop55
280
     0
102
RTVSPost2010PropOp55
 70
     1
102
RTVSPost2010Prop56
140
1.0
102
RTVSPost2010PropOp56
 70
     1
102
RTVSPost2010Prop57
140
1.0
102
RTVSPost2010PropOp57
 70
     1
  0
XRECORD
  5
1FCB
102
{ACAD_REACTORS
330
1FCA
102
}
330
1FCA
100
AcDbXrecord
280
     1
102
RTVSPropertyOp0
 70
     1
102
RTVSPropertyOp1
 70
     1
102
RTVSPropertyOp2
 70
     1
102
RTVSPropertyOp3
 70
     1
102
RTVSPropertyOp4
 70
     1
102
RTVSPropertyOp5
 70
     1
102
RTVSPropertyOp6
 70
     1
102
RTVSPropertyOp7
 70
     1
102
RTVSPropertyOp8
 70
     1
102
RTVSPropertyOp9
 70
     1
102
RTVSPropertyOp10
 70
     1
102
RTVSPropertyOp11
 70
     1
102
RTVSPropertyOp12
 70
     1
102
RTVSPropertyOp13
 70
     1
102
RTVSPropertyOp14
 70
     1
102
RTVSPropertyOp15
 70
     1
102
RTVSPropertyOp16
 70
     1
102
RTVSPropertyOp17
 70
     1
102
RTVSPropertyOp18
 70
     1
102
RTVSPropertyOp19
 70
     1
102
RTVSPropertyOp20
 70
     1
102
RTVSPropertyOp21
 70
     1
102
RTVSPropertyOp22
 70
     1
102
RTVSPropertyOp23
 70
     1
102
RTVSPropertyOp24
 70
     1
102
RTVSPropertyOp25
 70
     1
102
RTVSPropertyOp26
 70
     1
102
RTVSPropertyOp27
 70
     1
102
RTVSPropertyOp28
 70
     1
102
RTVSPropertyOp29
 70
     1
102
RTVSPropertyOp30
 70
     1
102
RTVSPropertyOp31
 70
     1
102
RTVSPropertyOp32
 70
     1
102
RTVSPropertyOp33
 70
     1
102
RTVSPropertyOp34
 70
     1
102
RTVSPropertyOp35
 70
     1
102
RTVSPropertyOp36
 70
     1
102
RTVSPropertyOp37
 70
     1
102
RTVSPropertyOp38
 70
     1
102
RTVSPropertyOp39
 70
     1
102
RTVSPropertyOp40
 70
     1
102
RTVSPropertyOp41
 70
     1
102
RTVSPropertyOp42
 70
     1
102
RTVSPropertyOp43
 70
     1
102
RTVSPropertyOp44
 70
     1
102
RTVSPropertyOp45
 70
     1
102
RTVSPropertyOp46
 70
     1
102
RTVSPropertyOp47
 70
     1
102
RTVSPropertyOp48
 70
     1
102
RTVSPropertyOp49
 70
     1
102
RTVSPropertyOp50
 70
     1
102
RTVSPropertyOp51
 70
     0
102
RTVSPropertyOp52
 70
     0
102
RTVSPropertyOp53
 70
     1
102
RTVSPropertyOp54
 70
     1
102
RTVSPropertyOp55
 70
     1
102
RTVSPropertyOp56
 70
     1
102
RTVSPropertyOp57
 70
     1
102
RTVSPost2010Prop28
280
     0
102
RTVSPost2010PropOp28
 70
     1
102
RTVSPost2010Prop29
280
     1
102
RTVSPost2010PropOp29
 70
     1
102
RTVSPost2010Prop30
280
     1
102
RTVSPost2010PropOp30
 70
     1
102
RTVSPost2010Prop31
280
     0
102
RTVSPost2010PropOp31
 70
     1
102
RTVSPost2010Prop32
280
     0
102
RTVSPost2010PropOp32
 70
     1
102
RTVSPost2010Prop33
280
     0
102
RTVSPost2010PropOp33
 70
     1
102
RTVSPost2010Prop34
280
     0
102
RTVSPost2010PropOp34
 70
     1
102
RTVSPost2010Prop35
280
     0
102
RTVSPost2010PropOp35
 70
     1
102
RTVSPost2010Prop36
280
     0
102
RTVSPost2010PropOp36
 70
     1
102
RTVSPost2010Prop37
 90
       50
102
RTVSPost2010PropOp37
 70
     1
102
RTVSPost2010Prop38
140
0.0
102
RTVSPost2010PropOp38
 70
     1
102
RTVSPost2010Prop39
140
1.0
102
RTVSPost2010PropOp39
 70
     1
102
RTVSPost2010Prop40
 90
        0
102
RTVSPost2010PropOp40
 70
     1
102
RTVSPost2010Prop41ColorIndex
 90
       18
102
RTVSPost2010Prop41ColorRGB
 90
        0
102
RTVSPost2010PropOp41
 70
     1
102
RTVSPost2010Prop42
 90
       50
102
RTVSPost2010PropOp42
 70
     1
102
RTVSPost2010Prop43
 90
        3
102
RTVSPost2010PropOp43
 70
     1
102
RTVSPost2010Prop44ColorIndex
 90
        5
102
RTVSPost2010Prop44ColorRGB
 90
      255
102
RTVSPost2010PropOp44
 70
     1
102
RTVSPost2010Prop45
280
     0
102
RTVSPost2010PropOp45
 70
     1
102
RTVSPost2010Prop46
 90
       50
102
RTVSPost2010PropOp46
 70
     1
102
RTVSPost2010Prop47
 90
       50
102
RTVSPost2010PropOp47
 70
     1
102
RTVSPost2010Prop48
 90
       50
102
RTVSPost2010PropOp48
 70
     1
102
RTVSPost2010Prop49
280
     0
102
RTVSPost2010PropOp49
 70
     1
102
RTVSPost2010Prop50
 90
       50
102
RTVSPost2010PropOp50
 70
     1
102
RTVSPost2010Prop51ColorIndex
 90
      256
102
RTVSPost2010Prop51ColorRGB
 90
-16777216
102
RTVSPost2010PropOp51
 70
     0
102
RTVSPost2010Prop52
140
1.0
102
RTVSPost2010PropOp52
 70
     0
102
RTVSPost2010Prop53
 90
        2
102
RTVSPost2010PropOp53
 70
     1
102
RTVSPost2010Prop54
  1
strokes_ogs.tif
102
RTVSPost2010PropOp54
 70
     1
102
RTVSPost2010Prop55
280
     0
102
RTVSPost2010PropOp55
 70
     1
102
RTVSPost2010Prop56
140
1.0
102
RTVSPost2010PropOp56
 70
     1
102
RTVSPost2010Prop57
140
1.0
102
RTVSPost2010PropOp57
 70
     1
  0
XRECORD
  5
1FCD
102
{ACAD_REACTORS
330
1FCC
102
}
330
1FCC
100
AcDbXrecord
280
     1
102
RTVSPropertyOp0
 70
     1
102
RTVSPropertyOp1
 70
     1
102
RTVSPropertyOp2
 70
     1
102
RTVSPropertyOp3
 70
     1
102
RTVSPropertyOp4
 70
     1
102
RTVSPropertyOp5
 70
     1
102
RTVSPropertyOp6
 70
     1
102
RTVSPropertyOp7
 70
     1
102
RTVSPropertyOp8
 70
     1
102
RTVSPropertyOp9
 70
     1
102
RTVSPropertyOp10
 70
     1
102
RTVSPropertyOp11
 70
     1
102
RTVSPropertyOp12
 70
     1
102
RTVSPropertyOp13
 70
     1
102
RTVSPropertyOp14
 70
     1
102
RTVSPropertyOp15
 70
     1
102
RTVSPropertyOp16
 70
     1
102
RTVSPropertyOp17
 70
     1
102
RTVSPropertyOp18
 70
     1
102
RTVSPropertyOp19
 70
     1
102
RTVSPropertyOp20
 70
     1
102
RTVSPropertyOp21
 70
     1
102
RTVSPropertyOp22
 70
     1
102
RTVSPropertyOp23
 70
     1
102
RTVSPropertyOp24
 70
     1
102
RTVSPropertyOp25
 70
     1
102
RTVSPropertyOp26
 70
     1
102
RTVSPropertyOp27
 70
     1
102
RTVSPropertyOp28
 70
     1
102
RTVSPropertyOp29
 70
     1
102
RTVSPropertyOp30
 70
     1
102
RTVSPropertyOp31
 70
     1
102
RTVSPropertyOp32
 70
     1
102
RTVSPropertyOp33
 70
     1
102
RTVSPropertyOp34
 70
     1
102
RTVSPropertyOp35
 70
     1
102
RTVSPropertyOp36
 70
     1
102
RTVSPropertyOp37
 70
     1
102
RTVSPropertyOp38
 70
     1
102
RTVSPropertyOp39
 70
     1
102
RTVSPropertyOp40
 70
     1
102
RTVSPropertyOp41
 70
     1
102
RTVSPropertyOp42
 70
     1
102
RTVSPropertyOp43
 70
     1
102
RTVSPropertyOp44
 70
     1
102
RTVSPropertyOp45
 70
     1
102
RTVSPropertyOp46
 70
     1
102
RTVSPropertyOp47
 70
     1
102
RTVSPropertyOp48
 70
     1
102
RTVSPropertyOp49
 70
     1
102
RTVSPropertyOp50
 70
     1
102
RTVSPropertyOp51
 70
     0
102
RTVSPropertyOp52
 70
     0
102
RTVSPropertyOp53
 70
     1
102
RTVSPropertyOp54
 70
     1
102
RTVSPropertyOp55
 70
     1
102
RTVSPropertyOp56
 70
     1
102
RTVSPropertyOp57
 70
     1
102
RTVSPost2010Prop28
280
     0
102
RTVSPost2010PropOp28
 70
     1
102
RTVSPost2010Prop29
280
     1
102
RTVSPost2010PropOp29
 70
     1
102
RTVSPost2010Prop30
280
     1
102
RTVSPost2010PropOp30
 70
     1
102
RTVSPost2010Prop31
280
     0
102
RTVSPost2010PropOp31
 70
     1
102
RTVSPost2010Prop32
280
     0
102
RTVSPost2010PropOp32
 70
     1
102
RTVSPost2010Prop33
280
     0
102
RTVSPost2010PropOp33
 70
     1
102
RTVSPost2010Prop34
280
     0
102
RTVSPost2010PropOp34
 70
     1
102
RTVSPost2010Prop35
280
     0
102
RTVSPost2010PropOp35
 70
     1
102
RTVSPost2010Prop36
280
     0
102
RTVSPost2010PropOp36
 70
     1
102
RTVSPost2010Prop37
 90
       50
102
RTVSPost2010PropOp37
 70
     1
102
RTVSPost2010Prop38
140
0.0
102
RTVSPost2010PropOp38
 70
     1
102
RTVSPost2010Prop39
140
1.0
102
RTVSPost2010PropOp39
 70
     1
102
RTVSPost2010Prop40
 90
        0
102
RTVSPost2010PropOp40
 70
     1
102
RTVSPost2010Prop41ColorIndex
 90
       18
102
RTVSPost2010Prop41ColorRGB
 90
        0
102
RTVSPost2010PropOp41
 70
     1
102
RTVSPost2010Prop42
 90
       50
102
RTVSPost2010PropOp42
 70
     1
102
RTVSPost2010Prop43
 90
        3
102
RTVSPost2010PropOp43
 70
     1
102
RTVSPost2010Prop44ColorIndex
 90
        5
102
RTVSPost2010Prop44ColorRGB
 90
      255
102
RTVSPost2010PropOp44
 70
     1
102
RTVSPost2010Prop45
280
     0
102
RTVSPost2010PropOp45
 70
     1
102
RTVSPost2010Prop46
 90
       50
102
RTVSPost2010PropOp46
 70
     1
102
RTVSPost2010Prop47
 90
       50
102
RTVSPost2010PropOp47
 70
     1
102
RTVSPost2010Prop48
 90
       50
102
RTVSPost2010PropOp48
 70
     1
102
RTVSPost2010Prop49
280
     0
102
RTVSPost2010PropOp49
 70
     1
102
RTVSPost2010Prop50
 90
       50
102
RTVSPost2010PropOp50
 70
     1
102
RTVSPost2010Prop51ColorIndex
 90
      256
102
RTVSPost2010Prop51ColorRGB
 90
-16777216
102
RTVSPost2010PropOp51
 70
     0
102
RTVSPost2010Prop52
140
1.0
102
RTVSPost2010PropOp52
 70
     0
102
RTVSPost2010Prop53
 90
        2
102
RTVSPost2010PropOp53
 70
     1
102
RTVSPost2010Prop54
  1
strokes_ogs.tif
102
RTVSPost2010PropOp54
 70
     1
102
RTVSPost2010Prop55
280
     0
102
RTVSPost2010PropOp55
 70
     1
102
RTVSPost2010Prop56
140
1.0
102
RTVSPost2010PropOp56
 70
     1
102
RTVSPost2010Prop57
140
1.0
102
RTVSPost2010PropOp57
 70
     1
  0
XRECORD
  5
1FCF
102
{ACAD_REACTORS
330
1FCE
102
}
330
1FCE
100
AcDbXrecord
280
     1
102
RTVSPropertyOp0
 70
     1
102
RTVSPropertyOp1
 70
     1
102
RTVSPropertyOp2
 70
     1
102
RTVSPropertyOp3
 70
     1
102
RTVSPropertyOp4
 70
     1
102
RTVSPropertyOp5
 70
     1
102
RTVSPropertyOp6
 70
     1
102
RTVSPropertyOp7
 70
     1
102
RTVSPropertyOp8
 70
     1
102
RTVSPropertyOp9
 70
     1
102
RTVSPropertyOp10
 70
     1
102
RTVSPropertyOp11
 70
     1
102
RTVSPropertyOp12
 70
     1
102
RTVSPropertyOp13
 70
     1
102
RTVSPropertyOp14
 70
     1
102
RTVSPropertyOp15
 70
     1
102
RTVSPropertyOp16
 70
     1
102
RTVSPropertyOp17
 70
     1
102
RTVSPropertyOp18
 70
     1
102
RTVSPropertyOp19
 70
     1
102
RTVSPropertyOp20
 70
     1
102
RTVSPropertyOp21
 70
     1
102
RTVSPropertyOp22
 70
     1
102
RTVSPropertyOp23
 70
     1
102
RTVSPropertyOp24
 70
     1
102
RTVSPropertyOp25
 70
     1
102
RTVSPropertyOp26
 70
     1
102
RTVSPropertyOp27
 70
     1
102
RTVSPropertyOp28
 70
     1
102
RTVSPropertyOp29
 70
     1
102
RTVSPropertyOp30
 70
     1
102
RTVSPropertyOp31
 70
     1
102
RTVSPropertyOp32
 70
     1
102
RTVSPropertyOp33
 70
     1
102
RTVSPropertyOp34
 70
     1
102
RTVSPropertyOp35
 70
     1
102
RTVSPropertyOp36
 70
     1
102
RTVSPropertyOp37
 70
     1
102
RTVSPropertyOp38
 70
     1
102
RTVSPropertyOp39
 70
     1
102
RTVSPropertyOp40
 70
     1
102
RTVSPropertyOp41
 70
     1
102
RTVSPropertyOp42
 70
     1
102
RTVSPropertyOp43
 70
     1
102
RTVSPropertyOp44
 70
     1
102
RTVSPropertyOp45
 70
     1
102
RTVSPropertyOp46
 70
     1
102
RTVSPropertyOp47
 70
     1
102
RTVSPropertyOp48
 70
     1
102
RTVSPropertyOp49
 70
     1
102
RTVSPropertyOp50
 70
     1
102
RTVSPropertyOp51
 70
     0
102
RTVSPropertyOp52
 70
     0
102
RTVSPropertyOp53
 70
     1
102
RTVSPropertyOp54
 70
     1
102
RTVSPropertyOp55
 70
     1
102
RTVSPropertyOp56
 70
     1
102
RTVSPropertyOp57
 70
     1
102
RTVSPost2010Prop28
280
     0
102
RTVSPost2010PropOp28
 70
     1
102
RTVSPost2010Prop29
280
     1
102
RTVSPost2010PropOp29
 70
     1
102
RTVSPost2010Prop30
280
     1
102
RTVSPost2010PropOp30
 70
     1
102
RTVSPost2010Prop31
280
     0
102
RTVSPost2010PropOp31
 70
     1
102
RTVSPost2010Prop32
280
     0
102
RTVSPost2010PropOp32
 70
     1
102
RTVSPost2010Prop33
280
     0
102
RTVSPost2010PropOp33
 70
     1
102
RTVSPost2010Prop34
280
     0
102
RTVSPost2010PropOp34
 70
     1
102
RTVSPost2010Prop35
280
     0
102
RTVSPost2010PropOp35
 70
     1
102
RTVSPost2010Prop36
280
     0
102
RTVSPost2010PropOp36
 70
     1
102
RTVSPost2010Prop37
 90
       50
102
RTVSPost2010PropOp37
 70
     1
102
RTVSPost2010Prop38
140
0.0
102
RTVSPost2010PropOp38
 70
     1
102
RTVSPost2010Prop39
140
1.0
102
RTVSPost2010PropOp39
 70
     1
102
RTVSPost2010Prop40
 90
        0
102
RTVSPost2010PropOp40
 70
     1
102
RTVSPost2010Prop41ColorIndex
 90
       18
102
RTVSPost2010Prop41ColorRGB
 90
        0
102
RTVSPost2010PropOp41
 70
     1
102
RTVSPost2010Prop42
 90
       50
102
RTVSPost2010PropOp42
 70
     1
102
RTVSPost2010Prop43
 90
        3
102
RTVSPost2010PropOp43
 70
     1
102
RTVSPost2010Prop44ColorIndex
 90
        5
102
RTVSPost2010Prop44ColorRGB
 90
      255
102
RTVSPost2010PropOp44
 70
     1
102
RTVSPost2010Prop45
280
     0
102
RTVSPost2010PropOp45
 70
     1
102
RTVSPost2010Prop46
 90
       50
102
RTVSPost2010PropOp46
 70
     1
102
RTVSPost2010Prop47
 90
       50
102
RTVSPost2010PropOp47
 70
     1
102
RTVSPost2010Prop48
 90
       50
102
RTVSPost2010PropOp48
 70
     1
102
RTVSPost2010Prop49
280
     0
102
RTVSPost2010PropOp49
 70
     1
102
RTVSPost2010Prop50
 90
       50
102
RTVSPost2010PropOp50
 70
     1
102
RTVSPost2010Prop51ColorIndex
 90
      256
102
RTVSPost2010Prop51ColorRGB
 90
-16777216
102
RTVSPost2010PropOp51
 70
     0
102
RTVSPost2010Prop52
140
1.0
102
RTVSPost2010PropOp52
 70
     0
102
RTVSPost2010Prop53
 90
        2
102
RTVSPost2010PropOp53
 70
     1
102
RTVSPost2010Prop54
  1
strokes_ogs.tif
102
RTVSPost2010PropOp54
 70
     1
102
RTVSPost2010Prop55
280
     0
102
RTVSPost2010PropOp55
 70
     1
102
RTVSPost2010Prop56
140
1.0
102
RTVSPost2010PropOp56
 70
     1
102
RTVSPost2010Prop57
140
1.0
102
RTVSPost2010PropOp57
 70
     1
  0
XRECORD
  5
1FD1
102
{ACAD_REACTORS
330
1FD0
102
}
330
1FD0
100
AcDbXrecord
280
     1
102
RTVSPropertyOp0
 70
     1
102
RTVSPropertyOp1
 70
     1
102
RTVSPropertyOp2
 70
     1
102
RTVSPropertyOp3
 70
     1
102
RTVSPropertyOp4
 70
     1
102
RTVSPropertyOp5
 70
     1
102
RTVSPropertyOp6
 70
     1
102
RTVSPropertyOp7
 70
     1
102
RTVSPropertyOp8
 70
     1
102
RTVSPropertyOp9
 70
     1
102
RTVSPropertyOp10
 70
     1
102
RTVSPropertyOp11
 70
     1
102
RTVSPropertyOp12
 70
     1
102
RTVSPropertyOp13
 70
     1
102
RTVSPropertyOp14
 70
     1
102
RTVSPropertyOp15
 70
     1
102
RTVSPropertyOp16
 70
     1
102
RTVSPropertyOp17
 70
     1
102
RTVSPropertyOp18
 70
     1
102
RTVSPropertyOp19
 70
     1
102
RTVSPropertyOp20
 70
     1
102
RTVSPropertyOp21
 70
     1
102
RTVSPropertyOp22
 70
     1
102
RTVSPropertyOp23
 70
     1
102
RTVSPropertyOp24
 70
     1
102
RTVSPropertyOp25
 70
     1
102
RTVSPropertyOp26
 70
     1
102
RTVSPropertyOp27
 70
     1
102
RTVSPropertyOp28
 70
     1
102
RTVSPropertyOp29
 70
     1
102
RTVSPropertyOp30
 70
     1
102
RTVSPropertyOp31
 70
     1
102
RTVSPropertyOp32
 70
     1
102
RTVSPropertyOp33
 70
     1
102
RTVSPropertyOp34
 70
     1
102
RTVSPropertyOp35
 70
     1
102
RTVSPropertyOp36
 70
     1
102
RTVSPropertyOp37
 70
     1
102
RTVSPropertyOp38
 70
     1
102
RTVSPropertyOp39
 70
     1
102
RTVSPropertyOp40
 70
     1
102
RTVSPropertyOp41
 70
     1
102
RTVSPropertyOp42
 70
     1
102
RTVSPropertyOp43
 70
     1
102
RTVSPropertyOp44
 70
     1
102
RTVSPropertyOp45
 70
     1
102
RTVSPropertyOp46
 70
     1
102
RTVSPropertyOp47
 70
     1
102
RTVSPropertyOp48
 70
     1
102
RTVSPropertyOp49
 70
     1
102
RTVSPropertyOp50
 70
     1
102
RTVSPropertyOp51
 70
     0
102
RTVSPropertyOp52
 70
     0
102
RTVSPropertyOp53
 70
     1
102
RTVSPropertyOp54
 70
     1
102
RTVSPropertyOp55
 70
     1
102
RTVSPropertyOp56
 70
     1
102
RTVSPropertyOp57
 70
     1
102
RTVSPost2010Prop28
280
     0
102
RTVSPost2010PropOp28
 70
     1
102
RTVSPost2010Prop29
280
     1
102
RTVSPost2010PropOp29
 70
     1
102
RTVSPost2010Prop30
280
     1
102
RTVSPost2010PropOp30
 70
     1
102
RTVSPost2010Prop31
280
     0
102
RTVSPost2010PropOp31
 70
     1
102
RTVSPost2010Prop32
280
     0
102
RTVSPost2010PropOp32
 70
     1
102
RTVSPost2010Prop33
280
     0
102
RTVSPost2010PropOp33
 70
     1
102
RTVSPost2010Prop34
280
     0
102
RTVSPost2010PropOp34
 70
     1
102
RTVSPost2010Prop35
280
     0
102
RTVSPost2010PropOp35
 70
     1
102
RTVSPost2010Prop36
280
     0
102
RTVSPost2010PropOp36
 70
     1
102
RTVSPost2010Prop37
 90
       50
102
RTVSPost2010PropOp37
 70
     1
102
RTVSPost2010Prop38
140
0.0
102
RTVSPost2010PropOp38
 70
     1
102
RTVSPost2010Prop39
140
1.0
102
RTVSPost2010PropOp39
 70
     1
102
RTVSPost2010Prop40
 90
        0
102
RTVSPost2010PropOp40
 70
     1
102
RTVSPost2010Prop41ColorIndex
 90
       18
102
RTVSPost2010Prop41ColorRGB
 90
        0
102
RTVSPost2010PropOp41
 70
     1
102
RTVSPost2010Prop42
 90
       50
102
RTVSPost2010PropOp42
 70
     1
102
RTVSPost2010Prop43
 90
        3
102
RTVSPost2010PropOp43
 70
     1
102
RTVSPost2010Prop44ColorIndex
 90
        5
102
RTVSPost2010Prop44ColorRGB
 90
      255
102
RTVSPost2010PropOp44
 70
     1
102
RTVSPost2010Prop45
280
     0
102
RTVSPost2010PropOp45
 70
     1
102
RTVSPost2010Prop46
 90
       50
102
RTVSPost2010PropOp46
 70
     1
102
RTVSPost2010Prop47
 90
       50
102
RTVSPost2010PropOp47
 70
     1
102
RTVSPost2010Prop48
 90
       50
102
RTVSPost2010PropOp48
 70
     1
102
RTVSPost2010Prop49
280
     0
102
RTVSPost2010PropOp49
 70
     1
102
RTVSPost2010Prop50
 90
       50
102
RTVSPost2010PropOp50
 70
     1
102
RTVSPost2010Prop51ColorIndex
 90
      256
102
RTVSPost2010Prop51ColorRGB
 90
-16777216
102
RTVSPost2010PropOp51
 70
     0
102
RTVSPost2010Prop52
140
1.0
102
RTVSPost2010PropOp52
 70
     0
102
RTVSPost2010Prop53
 90
        2
102
RTVSPost2010PropOp53
 70
     1
102
RTVSPost2010Prop54
  1
strokes_ogs.tif
102
RTVSPost2010PropOp54
 70
     1
102
RTVSPost2010Prop55
280
     0
102
RTVSPost2010PropOp55
 70
     1
102
RTVSPost2010Prop56
140
1.0
102
RTVSPost2010PropOp56
 70
     1
102
RTVSPost2010Prop57
140
1.0
102
RTVSPost2010PropOp57
 70
     1
  0
XRECORD
  5
1FD3
102
{ACAD_REACTORS
330
1FD2
102
}
330
1FD2
100
AcDbXrecord
280
     1
102
RTVSPropertyOp0
 70
     0
102
RTVSPropertyOp1
 70
     0
102
RTVSPropertyOp2
 70
     0
102
RTVSPropertyOp3
 70
     0
102
RTVSPropertyOp4
 70
     0
102
RTVSPropertyOp5
 70
     0
102
RTVSPropertyOp6
 70
     0
102
RTVSPropertyOp7
 70
     0
102
RTVSPropertyOp8
 70
     0
102
RTVSPropertyOp9
 70
     0
102
RTVSPropertyOp10
 70
     0
102
RTVSPropertyOp11
 70
     0
102
RTVSPropertyOp12
 70
     0
102
RTVSPropertyOp13
 70
     0
102
RTVSPropertyOp14
 70
     2
102
RTVSPropertyOp15
 70
     0
102
RTVSPropertyOp16
 70
     0
102
RTVSPropertyOp17
 70
     0
102
RTVSPropertyOp18
 70
     0
102
RTVSPropertyOp19
 70
     0
102
RTVSPropertyOp20
 70
     0
102
RTVSPropertyOp21
 70
     0
102
RTVSPropertyOp22
 70
     0
102
RTVSPropertyOp23
 70
     0
102
RTVSPropertyOp24
 70
     0
102
RTVSPropertyOp25
 70
     0
102
RTVSPropertyOp26
 70
     0
102
RTVSPropertyOp27
 70
     0
102
RTVSPropertyOp28
 70
     0
102
RTVSPropertyOp29
 70
     0
102
RTVSPropertyOp30
 70
     0
102
RTVSPropertyOp31
 70
     0
102
RTVSPropertyOp32
 70
     0
102
RTVSPropertyOp33
 70
     1
102
RTVSPropertyOp34
 70
     1
102
RTVSPropertyOp35
 70
     1
102
RTVSPropertyOp36
 70
     1
102
RTVSPropertyOp37
 70
     1
102
RTVSPropertyOp38
 70
     1
102
RTVSPropertyOp39
 70
     1
102
RTVSPropertyOp40
 70
     1
102
RTVSPropertyOp41
 70
     1
102
RTVSPropertyOp42
 70
     1
102
RTVSPropertyOp43
 70
     1
102
RTVSPropertyOp44
 70
     1
102
RTVSPropertyOp45
 70
     1
102
RTVSPropertyOp46
 70
     1
102
RTVSPropertyOp47
 70
     1
102
RTVSPropertyOp48
 70
     1
102
RTVSPropertyOp49
 70
     1
102
RTVSPropertyOp50
 70
     1
102
RTVSPropertyOp51
 70
     0
102
RTVSPropertyOp52
 70
     0
102
RTVSPropertyOp53
 70
     1
102
RTVSPropertyOp54
 70
     1
102
RTVSPropertyOp55
 70
     1
102
RTVSPropertyOp56
 70
     1
102
RTVSPropertyOp57
 70
     1
102
RTVSPost2010Prop28
280
     0
102
RTVSPost2010PropOp28
 70
     0
102
RTVSPost2010Prop29
280
     1
102
RTVSPost2010PropOp29
 70
     0
102
RTVSPost2010Prop30
280
     1
102
RTVSPost2010PropOp30
 70
     0
102
RTVSPost2010Prop31
280
     0
102
RTVSPost2010PropOp31
 70
     0
102
RTVSPost2010Prop32
280
     0
102
RTVSPost2010PropOp32
 70
     0
102
RTVSPost2010Prop33
280
     0
102
RTVSPost2010PropOp33
 70
     1
102
RTVSPost2010Prop34
280
     0
102
RTVSPost2010PropOp34
 70
     1
102
RTVSPost2010Prop35
280
     0
102
RTVSPost2010PropOp35
 70
     1
102
RTVSPost2010Prop36
280
     0
102
RTVSPost2010PropOp36
 70
     1
102
RTVSPost2010Prop37
 90
       50
102
RTVSPost2010PropOp37
 70
     1
102
RTVSPost2010Prop38
140
0.0
102
RTVSPost2010PropOp38
 70
     1
102
RTVSPost2010Prop39
140
1.0
102
RTVSPost2010PropOp39
 70
     1
102
RTVSPost2010Prop40
 90
        0
102
RTVSPost2010PropOp40
 70
     1
102
RTVSPost2010Prop41ColorIndex
 90
       18
102
RTVSPost2010Prop41ColorRGB
 90
        0
102
RTVSPost2010PropOp41
 70
     1
102
RTVSPost2010Prop42
 90
       50
102
RTVSPost2010PropOp42
 70
     1
102
RTVSPost2010Prop43
 90
        3
102
RTVSPost2010PropOp43
 70
     1
102
RTVSPost2010Prop44ColorIndex
 90
        5
102
RTVSPost2010Prop44ColorRGB
 90
      255
102
RTVSPost2010PropOp44
 70
     1
102
RTVSPost2010Prop45
280
     0
102
RTVSPost2010PropOp45
 70
     1
102
RTVSPost2010Prop46
 90
       50
102
RTVSPost2010PropOp46
 70
     1
102
RTVSPost2010Prop47
 90
       50
102
RTVSPost2010PropOp47
 70
     1
102
RTVSPost2010Prop48
 90
       50
102
RTVSPost2010PropOp48
 70
     1
102
RTVSPost2010Prop49
280
     0
102
RTVSPost2010PropOp49
 70
     1
102
RTVSPost2010Prop50
 90
       50
102
RTVSPost2010PropOp50
 70
     1
102
RTVSPost2010Prop51ColorIndex
 90
      256
102
RTVSPost2010Prop51ColorRGB
 90
-16777216
102
RTVSPost2010PropOp51
 70
     0
102
RTVSPost2010Prop52
140
1.0
102
RTVSPost2010PropOp52
 70
     0
102
RTVSPost2010Prop53
 90
        2
102
RTVSPost2010PropOp53
 70
     1
102
RTVSPost2010Prop54
  1
strokes_ogs.tif
102
RTVSPost2010PropOp54
 70
     1
102
RTVSPost2010Prop55
280
     0
102
RTVSPost2010PropOp55
 70
     1
102
RTVSPost2010Prop56
140
1.0
102
RTVSPost2010PropOp56
 70
     1
102
RTVSPost2010Prop57
140
1.0
102
RTVSPost2010PropOp57
 70
     1
  0
XRECORD
  5
1FD5
102
{ACAD_REACTORS
330
1FD4
102
}
330
1FD4
100
AcDbXrecord
280
     1
102
RTVSPropertyOp0
 70
     1
102
RTVSPropertyOp1
 70
     1
102
RTVSPropertyOp2
 70
     1
102
RTVSPropertyOp3
 70
     1
102
RTVSPropertyOp4
 70
     1
102
RTVSPropertyOp5
 70
     1
102
RTVSPropertyOp6
 70
     1
102
RTVSPropertyOp7
 70
     1
102
RTVSPropertyOp8
 70
     1
102
RTVSPropertyOp9
 70
     1
102
RTVSPropertyOp10
 70
     1
102
RTVSPropertyOp11
 70
     1
102
RTVSPropertyOp12
 70
     1
102
RTVSPropertyOp13
 70
     1
102
RTVSPropertyOp14
 70
     1
102
RTVSPropertyOp15
 70
     1
102
RTVSPropertyOp16
 70
     1
102
RTVSPropertyOp17
 70
     1
102
RTVSPropertyOp18
 70
     1
102
RTVSPropertyOp19
 70
     1
102
RTVSPropertyOp20
 70
     1
102
RTVSPropertyOp21
 70
     1
102
RTVSPropertyOp22
 70
     1
102
RTVSPropertyOp23
 70
     1
102
RTVSPropertyOp24
 70
     1
102
RTVSPropertyOp25
 70
     1
102
RTVSPropertyOp26
 70
     1
102
RTVSPropertyOp27
 70
     1
102
RTVSPropertyOp28
 70
     1
102
RTVSPropertyOp29
 70
     1
102
RTVSPropertyOp30
 70
     1
102
RTVSPropertyOp31
 70
     1
102
RTVSPropertyOp32
 70
     1
102
RTVSPropertyOp33
 70
     1
102
RTVSPropertyOp34
 70
     1
102
RTVSPropertyOp35
 70
     1
102
RTVSPropertyOp36
 70
     1
102
RTVSPropertyOp37
 70
     1
102
RTVSPropertyOp38
 70
     1
102
RTVSPropertyOp39
 70
     1
102
RTVSPropertyOp40
 70
     1
102
RTVSPropertyOp41
 70
     1
102
RTVSPropertyOp42
 70
     1
102
RTVSPropertyOp43
 70
     1
102
RTVSPropertyOp44
 70
     1
102
RTVSPropertyOp45
 70
     1
102
RTVSPropertyOp46
 70
     1
102
RTVSPropertyOp47
 70
     1
102
RTVSPropertyOp48
 70
     1
102
RTVSPropertyOp49
 70
     1
102
RTVSPropertyOp50
 70
     1
102
RTVSPropertyOp51
 70
     0
102
RTVSPropertyOp52
 70
     0
102
RTVSPropertyOp53
 70
     1
102
RTVSPropertyOp54
 70
     1
102
RTVSPropertyOp55
 70
     1
102
RTVSPropertyOp56
 70
     1
102
RTVSPropertyOp57
 70
     1
102
RTVSPost2010Prop28
280
     0
102
RTVSPost2010PropOp28
 70
     1
102
RTVSPost2010Prop29
280
     1
102
RTVSPost2010PropOp29
 70
     1
102
RTVSPost2010Prop30
280
     1
102
RTVSPost2010PropOp30
 70
     1
102
RTVSPost2010Prop31
280
     0
102
RTVSPost2010PropOp31
 70
     1
102
RTVSPost2010Prop32
280
     0
102
RTVSPost2010PropOp32
 70
     1
102
RTVSPost2010Prop33
280
     0
102
RTVSPost2010PropOp33
 70
     1
102
RTVSPost2010Prop34
280
     0
102
RTVSPost2010PropOp34
 70
     1
102
RTVSPost2010Prop35
280
     0
102
RTVSPost2010PropOp35
 70
     1
102
RTVSPost2010Prop36
280
     0
102
RTVSPost2010PropOp36
 70
     1
102
RTVSPost2010Prop37
 90
       50
102
RTVSPost2010PropOp37
 70
     1
102
RTVSPost2010Prop38
140
0.0
102
RTVSPost2010PropOp38
 70
     1
102
RTVSPost2010Prop39
140
1.0
102
RTVSPost2010PropOp39
 70
     1
102
RTVSPost2010Prop40
 90
        0
102
RTVSPost2010PropOp40
 70
     1
102
RTVSPost2010Prop41ColorIndex
 90
       18
102
RTVSPost2010Prop41ColorRGB
 90
        0
102
RTVSPost2010PropOp41
 70
     1
102
RTVSPost2010Prop42
 90
       50
102
RTVSPost2010PropOp42
 70
     1
102
RTVSPost2010Prop43
 90
        3
102
RTVSPost2010PropOp43
 70
     1
102
RTVSPost2010Prop44ColorIndex
 90
        5
102
RTVSPost2010Prop44ColorRGB
 90
      255
102
RTVSPost2010PropOp44
 70
     1
102
RTVSPost2010Prop45
280
     0
102
RTVSPost2010PropOp45
 70
     1
102
RTVSPost2010Prop46
 90
       50
102
RTVSPost2010PropOp46
 70
     1
102
RTVSPost2010Prop47
 90
       50
102
RTVSPost2010PropOp47
 70
     1
102
RTVSPost2010Prop48
 90
       50
102
RTVSPost2010PropOp48
 70
     1
102
RTVSPost2010Prop49
280
     0
102
RTVSPost2010PropOp49
 70
     1
102
RTVSPost2010Prop50
 90
       50
102
RTVSPost2010PropOp50
 70
     1
102
RTVSPost2010Prop51ColorIndex
 90
      256
102
RTVSPost2010Prop51ColorRGB
 90
-16777216
102
RTVSPost2010PropOp51
 70
     0
102
RTVSPost2010Prop52
140
1.0
102
RTVSPost2010PropOp52
 70
     0
102
RTVSPost2010Prop53
 90
        2
102
RTVSPost2010PropOp53
 70
     1
102
RTVSPost2010Prop54
  1
strokes_ogs.tif
102
RTVSPost2010PropOp54
 70
     1
102
RTVSPost2010Prop55
280
     0
102
RTVSPost2010PropOp55
 70
     1
102
RTVSPost2010Prop56
140
1.0
102
RTVSPost2010PropOp56
 70
     1
102
RTVSPost2010Prop57
140
1.0
102
RTVSPost2010PropOp57
 70
     1
  0
XRECORD
  5
1FD7
102
{ACAD_REACTORS
330
1FD6
102
}
330
1FD6
100
AcDbXrecord
280
     1
102
RTVSPropertyOp0
 70
     1
102
RTVSPropertyOp1
 70
     1
102
RTVSPropertyOp2
 70
     1
102
RTVSPropertyOp3
 70
     1
102
RTVSPropertyOp4
 70
     1
102
RTVSPropertyOp5
 70
     1
102
RTVSPropertyOp6
 70
     1
102
RTVSPropertyOp7
 70
     1
102
RTVSPropertyOp8
 70
     1
102
RTVSPropertyOp9
 70
     1
102
RTVSPropertyOp10
 70
     1
102
RTVSPropertyOp11
 70
     1
102
RTVSPropertyOp12
 70
     1
102
RTVSPropertyOp13
 70
     1
102
RTVSPropertyOp14
 70
     1
102
RTVSPropertyOp15
 70
     1
102
RTVSPropertyOp16
 70
     1
102
RTVSPropertyOp17
 70
     1
102
RTVSPropertyOp18
 70
     1
102
RTVSPropertyOp19
 70
     1
102
RTVSPropertyOp20
 70
     1
102
RTVSPropertyOp21
 70
     1
102
RTVSPropertyOp22
 70
     1
102
RTVSPropertyOp23
 70
     1
102
RTVSPropertyOp24
 70
     1
102
RTVSPropertyOp25
 70
     1
102
RTVSPropertyOp26
 70
     1
102
RTVSPropertyOp27
 70
     1
102
RTVSPropertyOp28
 70
     1
102
RTVSPropertyOp29
 70
     1
102
RTVSPropertyOp30
 70
     1
102
RTVSPropertyOp31
 70
     1
102
RTVSPropertyOp32
 70
     1
102
RTVSPropertyOp33
 70
     1
102
RTVSPropertyOp34
 70
     1
102
RTVSPropertyOp35
 70
     1
102
RTVSPropertyOp36
 70
     1
102
RTVSPropertyOp37
 70
     1
102
RTVSPropertyOp38
 70
     1
102
RTVSPropertyOp39
 70
     1
102
RTVSPropertyOp40
 70
     1
102
RTVSPropertyOp41
 70
     1
102
RTVSPropertyOp42
 70
     1
102
RTVSPropertyOp43
 70
     1
102
RTVSPropertyOp44
 70
     1
102
RTVSPropertyOp45
 70
     1
102
RTVSPropertyOp46
 70
     1
102
RTVSPropertyOp47
 70
     1
102
RTVSPropertyOp48
 70
     1
102
RTVSPropertyOp49
 70
     1
102
RTVSPropertyOp50
 70
     1
102
RTVSPropertyOp51
 70
     0
102
RTVSPropertyOp52
 70
     0
102
RTVSPropertyOp53
 70
     1
102
RTVSPropertyOp54
 70
     1
102
RTVSPropertyOp55
 70
     1
102
RTVSPropertyOp56
 70
     1
102
RTVSPropertyOp57
 70
     1
102
RTVSPost2010Prop28
280
     0
102
RTVSPost2010PropOp28
 70
     1
102
RTVSPost2010Prop29
280
     1
102
RTVSPost2010PropOp29
 70
     1
102
RTVSPost2010Prop30
280
     1
102
RTVSPost2010PropOp30
 70
     1
102
RTVSPost2010Prop31
280
     0
102
RTVSPost2010PropOp31
 70
     1
102
RTVSPost2010Prop32
280
     0
102
RTVSPost2010PropOp32
 70
     1
102
RTVSPost2010Prop33
280
     0
102
RTVSPost2010PropOp33
 70
     1
102
RTVSPost2010Prop34
280
     0
102
RTVSPost2010PropOp34
 70
     1
102
RTVSPost2010Prop35
280
     0
102
RTVSPost2010PropOp35
 70
     1
102
RTVSPost2010Prop36
280
     0
102
RTVSPost2010PropOp36
 70
     1
102
RTVSPost2010Prop37
 90
       50
102
RTVSPost2010PropOp37
 70
     1
102
RTVSPost2010Prop38
140
0.0
102
RTVSPost2010PropOp38
 70
     1
102
RTVSPost2010Prop39
140
1.0
102
RTVSPost2010PropOp39
 70
     1
102
RTVSPost2010Prop40
 90
        0
102
RTVSPost2010PropOp40
 70
     1
102
RTVSPost2010Prop41ColorIndex
 90
       18
102
RTVSPost2010Prop41ColorRGB
 90
        0
102
RTVSPost2010PropOp41
 70
     1
102
RTVSPost2010Prop42
 90
       50
102
RTVSPost2010PropOp42
 70
     1
102
RTVSPost2010Prop43
 90
        3
102
RTVSPost2010PropOp43
 70
     1
102
RTVSPost2010Prop44ColorIndex
 90
        5
102
RTVSPost2010Prop44ColorRGB
 90
      255
102
RTVSPost2010PropOp44
 70
     1
102
RTVSPost2010Prop45
280
     0
102
RTVSPost2010PropOp45
 70
     1
102
RTVSPost2010Prop46
 90
       50
102
RTVSPost2010PropOp46
 70
     1
102
RTVSPost2010Prop47
 90
       50
102
RTVSPost2010PropOp47
 70
     1
102
RTVSPost2010Prop48
 90
       50
102
RTVSPost2010PropOp48
 70
     1
102
RTVSPost2010Prop49
280
     0
102
RTVSPost2010PropOp49
 70
     1
102
RTVSPost2010Prop50
 90
       50
102
RTVSPost2010PropOp50
 70
     1
102
RTVSPost2010Prop51ColorIndex
 90
      256
102
RTVSPost2010Prop51ColorRGB
 90
-16777216
102
RTVSPost2010PropOp51
 70
     0
102
RTVSPost2010Prop52
140
1.0
102
RTVSPost2010PropOp52
 70
     0
102
RTVSPost2010Prop53
 90
        2
102
RTVSPost2010PropOp53
 70
     1
102
RTVSPost2010Prop54
  1
strokes_ogs.tif
102
RTVSPost2010PropOp54
 70
     1
102
RTVSPost2010Prop55
280
     0
102
RTVSPost2010PropOp55
 70
     1
102
RTVSPost2010Prop56
140
1.0
102
RTVSPost2010PropOp56
 70
     1
102
RTVSPost2010Prop57
140
1.0
102
RTVSPost2010PropOp57
 70
     1
  0
XRECORD
  5
1FD9
102
{ACAD_REACTORS
330
1FD8
102
}
330
1FD8
100
AcDbXrecord
280
     1
102
RTVSPropertyOp0
 70
     1
102
RTVSPropertyOp1
 70
     1
102
RTVSPropertyOp2
 70
     1
102
RTVSPropertyOp3
 70
     1
102
RTVSPropertyOp4
 70
     1
102
RTVSPropertyOp5
 70
     1
102
RTVSPropertyOp6
 70
     1
102
RTVSPropertyOp7
 70
     1
102
RTVSPropertyOp8
 70
     1
102
RTVSPropertyOp9
 70
     1
102
RTVSPropertyOp10
 70
     1
102
RTVSPropertyOp11
 70
     1
102
RTVSPropertyOp12
 70
     1
102
RTVSPropertyOp13
 70
     1
102
RTVSPropertyOp14
 70
     1
102
RTVSPropertyOp15
 70
     1
102
RTVSPropertyOp16
 70
     1
102
RTVSPropertyOp17
 70
     1
102
RTVSPropertyOp18
 70
     1
102
RTVSPropertyOp19
 70
     1
102
RTVSPropertyOp20
 70
     1
102
RTVSPropertyOp21
 70
     1
102
RTVSPropertyOp22
 70
     1
102
RTVSPropertyOp23
 70
     1
102
RTVSPropertyOp24
 70
     1
102
RTVSPropertyOp25
 70
     1
102
RTVSPropertyOp26
 70
     1
102
RTVSPropertyOp27
 70
     1
102
RTVSPropertyOp28
 70
     1
102
RTVSPropertyOp29
 70
     1
102
RTVSPropertyOp30
 70
     1
102
RTVSPropertyOp31
 70
     1
102
RTVSPropertyOp32
 70
     1
102
RTVSPropertyOp33
 70
     1
102
RTVSPropertyOp34
 70
     1
102
RTVSPropertyOp35
 70
     1
102
RTVSPropertyOp36
 70
     1
102
RTVSPropertyOp37
 70
     1
102
RTVSPropertyOp38
 70
     1
102
RTVSPropertyOp39
 70
     1
102
RTVSPropertyOp40
 70
     1
102
RTVSPropertyOp41
 70
     1
102
RTVSPropertyOp42
 70
     1
102
RTVSPropertyOp43
 70
     1
102
RTVSPropertyOp44
 70
     1
102
RTVSPropertyOp45
 70
     1
102
RTVSPropertyOp46
 70
     1
102
RTVSPropertyOp47
 70
     1
102
RTVSPropertyOp48
 70
     1
102
RTVSPropertyOp49
 70
     1
102
RTVSPropertyOp50
 70
     1
102
RTVSPropertyOp51
 70
     0
102
RTVSPropertyOp52
 70
     0
102
RTVSPropertyOp53
 70
     1
102
RTVSPropertyOp54
 70
     1
102
RTVSPropertyOp55
 70
     1
102
RTVSPropertyOp56
 70
     1
102
RTVSPropertyOp57
 70
     1
102
RTVSPost2010Prop28
280
     0
102
RTVSPost2010PropOp28
 70
     1
102
RTVSPost2010Prop29
280
     1
102
RTVSPost2010PropOp29
 70
     1
102
RTVSPost2010Prop30
280
     1
102
RTVSPost2010PropOp30
 70
     1
102
RTVSPost2010Prop31
280
     0
102
RTVSPost2010PropOp31
 70
     1
102
RTVSPost2010Prop32
280
     0
102
RTVSPost2010PropOp32
 70
     1
102
RTVSPost2010Prop33
280
     0
102
RTVSPost2010PropOp33
 70
     1
102
RTVSPost2010Prop34
280
     0
102
RTVSPost2010PropOp34
 70
     1
102
RTVSPost2010Prop35
280
     0
102
RTVSPost2010PropOp35
 70
     1
102
RTVSPost2010Prop36
280
     0
102
RTVSPost2010PropOp36
 70
     1
102
RTVSPost2010Prop37
 90
       50
102
RTVSPost2010PropOp37
 70
     1
102
RTVSPost2010Prop38
140
0.0
102
RTVSPost2010PropOp38
 70
     1
102
RTVSPost2010Prop39
140
1.0
102
RTVSPost2010PropOp39
 70
     1
102
RTVSPost2010Prop40
 90
        0
102
RTVSPost2010PropOp40
 70
     1
102
RTVSPost2010Prop41ColorIndex
 90
       18
102
RTVSPost2010Prop41ColorRGB
 90
        0
102
RTVSPost2010PropOp41
 70
     1
102
RTVSPost2010Prop42
 90
       50
102
RTVSPost2010PropOp42
 70
     1
102
RTVSPost2010Prop43
 90
        3
102
RTVSPost2010PropOp43
 70
     1
102
RTVSPost2010Prop44ColorIndex
 90
        5
102
RTVSPost2010Prop44ColorRGB
 90
      255
102
RTVSPost2010PropOp44
 70
     1
102
RTVSPost2010Prop45
280
     0
102
RTVSPost2010PropOp45
 70
     1
102
RTVSPost2010Prop46
 90
       50
102
RTVSPost2010PropOp46
 70
     1
102
RTVSPost2010Prop47
 90
       50
102
RTVSPost2010PropOp47
 70
     1
102
RTVSPost2010Prop48
 90
       50
102
RTVSPost2010PropOp48
 70
     1
102
RTVSPost2010Prop49
280
     0
102
RTVSPost2010PropOp49
 70
     1
102
RTVSPost2010Prop50
 90
       50
102
RTVSPost2010PropOp50
 70
     1
102
RTVSPost2010Prop51ColorIndex
 90
      256
102
RTVSPost2010Prop51ColorRGB
 90
-16777216
102
RTVSPost2010PropOp51
 70
     0
102
RTVSPost2010Prop52
140
1.0
102
RTVSPost2010PropOp52
 70
     0
102
RTVSPost2010Prop53
 90
        2
102
RTVSPost2010PropOp53
 70
     1
102
RTVSPost2010Prop54
  1
strokes_ogs.tif
102
RTVSPost2010PropOp54
 70
     1
102
RTVSPost2010Prop55
280
     0
102
RTVSPost2010PropOp55
 70
     1
102
RTVSPost2010Prop56
140
1.0
102
RTVSPost2010PropOp56
 70
     1
102
RTVSPost2010Prop57
140
1.0
102
RTVSPost2010PropOp57
 70
     1
  0
XRECORD
  5
1FDB
102
{ACAD_REACTORS
330
1FDA
102
}
330
1FDA
100
AcDbXrecord
280
     1
102
RTVSPropertyOp0
 70
     1
102
RTVSPropertyOp1
 70
     1
102
RTVSPropertyOp2
 70
     1
102
RTVSPropertyOp3
 70
     1
102
RTVSPropertyOp4
 70
     1
102
RTVSPropertyOp5
 70
     1
102
RTVSPropertyOp6
 70
     1
102
RTVSPropertyOp7
 70
     1
102
RTVSPropertyOp8
 70
     1
102
RTVSPropertyOp9
 70
     1
102
RTVSPropertyOp10
 70
     1
102
RTVSPropertyOp11
 70
     1
102
RTVSPropertyOp12
 70
     1
102
RTVSPropertyOp13
 70
     1
102
RTVSPropertyOp14
 70
     1
102
RTVSPropertyOp15
 70
     1
102
RTVSPropertyOp16
 70
     1
102
RTVSPropertyOp17
 70
     1
102
RTVSPropertyOp18
 70
     1
102
RTVSPropertyOp19
 70
     1
102
RTVSPropertyOp20
 70
     1
102
RTVSPropertyOp21
 70
     1
102
RTVSPropertyOp22
 70
     1
102
RTVSPropertyOp23
 70
     1
102
RTVSPropertyOp24
 70
     1
102
RTVSPropertyOp25
 70
     1
102
RTVSPropertyOp26
 70
     1
102
RTVSPropertyOp27
 70
     1
102
RTVSPropertyOp28
 70
     1
102
RTVSPropertyOp29
 70
     1
102
RTVSPropertyOp30
 70
     1
102
RTVSPropertyOp31
 70
     1
102
RTVSPropertyOp32
 70
     1
102
RTVSPropertyOp33
 70
     1
102
RTVSPropertyOp34
 70
     1
102
RTVSPropertyOp35
 70
     1
102
RTVSPropertyOp36
 70
     1
102
RTVSPropertyOp37
 70
     1
102
RTVSPropertyOp38
 70
     1
102
RTVSPropertyOp39
 70
     1
102
RTVSPropertyOp40
 70
     1
102
RTVSPropertyOp41
 70
     1
102
RTVSPropertyOp42
 70
     1
102
RTVSPropertyOp43
 70
     1
102
RTVSPropertyOp44
 70
     1
102
RTVSPropertyOp45
 70
     1
102
RTVSPropertyOp46
 70
     1
102
RTVSPropertyOp47
 70
     1
102
RTVSPropertyOp48
 70
     1
102
RTVSPropertyOp49
 70
     1
102
RTVSPropertyOp50
 70
     1
102
RTVSPropertyOp51
 70
     0
102
RTVSPropertyOp52
 70
     0
102
RTVSPropertyOp53
 70
     1
102
RTVSPropertyOp54
 70
     1
102
RTVSPropertyOp55
 70
     1
102
RTVSPropertyOp56
 70
     1
102
RTVSPropertyOp57
 70
     1
102
RTVSPost2010Prop28
280
     0
102
RTVSPost2010PropOp28
 70
     1
102
RTVSPost2010Prop29
280
     1
102
RTVSPost2010PropOp29
 70
     1
102
RTVSPost2010Prop30
280
     1
102
RTVSPost2010PropOp30
 70
     1
102
RTVSPost2010Prop31
280
     0
102
RTVSPost2010PropOp31
 70
     1
102
RTVSPost2010Prop32
280
     0
102
RTVSPost2010PropOp32
 70
     1
102
RTVSPost2010Prop33
280
     0
102
RTVSPost2010PropOp33
 70
     1
102
RTVSPost2010Prop34
280
     0
102
RTVSPost2010PropOp34
 70
     1
102
RTVSPost2010Prop35
280
     0
102
RTVSPost2010PropOp35
 70
     1
102
RTVSPost2010Prop36
280
     0
102
RTVSPost2010PropOp36
 70
     1
102
RTVSPost2010Prop37
 90
       50
102
RTVSPost2010PropOp37
 70
     1
102
RTVSPost2010Prop38
140
0.0
102
RTVSPost2010PropOp38
 70
     1
102
RTVSPost2010Prop39
140
1.0
102
RTVSPost2010PropOp39
 70
     1
102
RTVSPost2010Prop40
 90
        0
102
RTVSPost2010PropOp40
 70
     1
102
RTVSPost2010Prop41ColorIndex
 90
       18
102
RTVSPost2010Prop41ColorRGB
 90
        0
102
RTVSPost2010PropOp41
 70
     1
102
RTVSPost2010Prop42
 90
       50
102
RTVSPost2010PropOp42
 70
     1
102
RTVSPost2010Prop43
 90
        3
102
RTVSPost2010PropOp43
 70
     1
102
RTVSPost2010Prop44ColorIndex
 90
        5
102
RTVSPost2010Prop44ColorRGB
 90
      255
102
RTVSPost2010PropOp44
 70
     1
102
RTVSPost2010Prop45
280
     0
102
RTVSPost2010PropOp45
 70
     1
102
RTVSPost2010Prop46
 90
       50
102
RTVSPost2010PropOp46
 70
     1
102
RTVSPost2010Prop47
 90
       50
102
RTVSPost2010PropOp47
 70
     1
102
RTVSPost2010Prop48
 90
       50
102
RTVSPost2010PropOp48
 70
     1
102
RTVSPost2010Prop49
280
     0
102
RTVSPost2010PropOp49
 70
     1
102
RTVSPost2010Prop50
 90
       50
102
RTVSPost2010PropOp50
 70
     1
102
RTVSPost2010Prop51ColorIndex
 90
      256
102
RTVSPost2010Prop51ColorRGB
 90
-16777216
102
RTVSPost2010PropOp51
 70
     0
102
RTVSPost2010Prop52
140
1.0
102
RTVSPost2010PropOp52
 70
     0
102
RTVSPost2010Prop53
 90
        2
102
RTVSPost2010PropOp53
 70
     1
102
RTVSPost2010Prop54
  1
strokes_ogs.tif
102
RTVSPost2010PropOp54
 70
     1
102
RTVSPost2010Prop55
280
     0
102
RTVSPost2010PropOp55
 70
     1
102
RTVSPost2010Prop56
140
1.0
102
RTVSPost2010PropOp56
 70
     1
102
RTVSPost2010Prop57
140
1.0
102
RTVSPost2010PropOp57
 70
     1
  0
XRECORD
  5
1FDD
102
{ACAD_REACTORS
330
1FDC
102
}
330
1FDC
100
AcDbXrecord
280
     1
102
RTVSPropertyOp0
 70
     1
102
RTVSPropertyOp1
 70
     1
102
RTVSPropertyOp2
 70
     1
102
RTVSPropertyOp3
 70
     1
102
RTVSPropertyOp4
 70
     1
102
RTVSPropertyOp5
 70
     1
102
RTVSPropertyOp6
 70
     1
102
RTVSPropertyOp7
 70
     1
102
RTVSPropertyOp8
 70
     1
102
RTVSPropertyOp9
 70
     1
102
RTVSPropertyOp10
 70
     1
102
RTVSPropertyOp11
 70
     1
102
RTVSPropertyOp12
 70
     1
102
RTVSPropertyOp13
 70
     1
102
RTVSPropertyOp14
 70
     1
102
RTVSPropertyOp15
 70
     1
102
RTVSPropertyOp16
 70
     1
102
RTVSPropertyOp17
 70
     1
102
RTVSPropertyOp18
 70
     1
102
RTVSPropertyOp19
 70
     1
102
RTVSPropertyOp20
 70
     1
102
RTVSPropertyOp21
 70
     1
102
RTVSPropertyOp22
 70
     1
102
RTVSPropertyOp23
 70
     1
102
RTVSPropertyOp24
 70
     1
102
RTVSPropertyOp25
 70
     1
102
RTVSPropertyOp26
 70
     1
102
RTVSPropertyOp27
 70
     1
102
RTVSPropertyOp28
 70
     1
102
RTVSPropertyOp29
 70
     1
102
RTVSPropertyOp30
 70
     1
102
RTVSPropertyOp31
 70
     1
102
RTVSPropertyOp32
 70
     1
102
RTVSPropertyOp33
 70
     1
102
RTVSPropertyOp34
 70
     1
102
RTVSPropertyOp35
 70
     1
102
RTVSPropertyOp36
 70
     1
102
RTVSPropertyOp37
 70
     1
102
RTVSPropertyOp38
 70
     1
102
RTVSPropertyOp39
 70
     1
102
RTVSPropertyOp40
 70
     1
102
RTVSPropertyOp41
 70
     1
102
RTVSPropertyOp42
 70
     1
102
RTVSPropertyOp43
 70
     1
102
RTVSPropertyOp44
 70
     1
102
RTVSPropertyOp45
 70
     1
102
RTVSPropertyOp46
 70
     1
102
RTVSPropertyOp47
 70
     1
102
RTVSPropertyOp48
 70
     1
102
RTVSPropertyOp49
 70
     1
102
RTVSPropertyOp50
 70
     1
102
RTVSPropertyOp51
 70
     0
102
RTVSPropertyOp52
 70
     0
102
RTVSPropertyOp53
 70
     1
102
RTVSPropertyOp54
 70
     1
102
RTVSPropertyOp55
 70
     1
102
RTVSPropertyOp56
 70
     1
102
RTVSPropertyOp57
 70
     1
102
RTVSPost2010Prop28
280
     0
102
RTVSPost2010PropOp28
 70
     1
102
RTVSPost2010Prop29
280
     1
102
RTVSPost2010PropOp29
 70
     1
102
RTVSPost2010Prop30
280
     1
102
RTVSPost2010PropOp30
 70
     1
102
RTVSPost2010Prop31
280
     0
102
RTVSPost2010PropOp31
 70
     1
102
RTVSPost2010Prop32
280
     0
102
RTVSPost2010PropOp32
 70
     1
102
RTVSPost2010Prop33
280
     0
102
RTVSPost2010PropOp33
 70
     1
102
RTVSPost2010Prop34
280
     0
102
RTVSPost2010PropOp34
 70
     1
102
RTVSPost2010Prop35
280
     0
102
RTVSPost2010PropOp35
 70
     1
102
RTVSPost2010Prop36
280
     0
102
RTVSPost2010PropOp36
 70
     1
102
RTVSPost2010Prop37
 90
       50
102
RTVSPost2010PropOp37
 70
     1
102
RTVSPost2010Prop38
140
0.0
102
RTVSPost2010PropOp38
 70
     1
102
RTVSPost2010Prop39
140
1.0
102
RTVSPost2010PropOp39
 70
     1
102
RTVSPost2010Prop40
 90
        0
102
RTVSPost2010PropOp40
 70
     1
102
RTVSPost2010Prop41ColorIndex
 90
       18
102
RTVSPost2010Prop41ColorRGB
 90
        0
102
RTVSPost2010PropOp41
 70
     1
102
RTVSPost2010Prop42
 90
       50
102
RTVSPost2010PropOp42
 70
     1
102
RTVSPost2010Prop43
 90
        3
102
RTVSPost2010PropOp43
 70
     1
102
RTVSPost2010Prop44ColorIndex
 90
        5
102
RTVSPost2010Prop44ColorRGB
 90
      255
102
RTVSPost2010PropOp44
 70
     1
102
RTVSPost2010Prop45
280
     0
102
RTVSPost2010PropOp45
 70
     1
102
RTVSPost2010Prop46
 90
       50
102
RTVSPost2010PropOp46
 70
     1
102
RTVSPost2010Prop47
 90
       50
102
RTVSPost2010PropOp47
 70
     1
102
RTVSPost2010Prop48
 90
       50
102
RTVSPost2010PropOp48
 70
     1
102
RTVSPost2010Prop49
280
     0
102
RTVSPost2010PropOp49
 70
     1
102
RTVSPost2010Prop50
 90
       50
102
RTVSPost2010PropOp50
 70
     1
102
RTVSPost2010Prop51ColorIndex
 90
      256
102
RTVSPost2010Prop51ColorRGB
 90
-16777216
102
RTVSPost2010PropOp51
 70
     0
102
RTVSPost2010Prop52
140
1.0
102
RTVSPost2010PropOp52
 70
     0
102
RTVSPost2010Prop53
 90
        2
102
RTVSPost2010PropOp53
 70
     1
102
RTVSPost2010Prop54
  1
strokes_ogs.tif
102
RTVSPost2010PropOp54
 70
     1
102
RTVSPost2010Prop55
280
     0
102
RTVSPost2010PropOp55
 70
     1
102
RTVSPost2010Prop56
140
1.0
102
RTVSPost2010PropOp56
 70
     1
102
RTVSPost2010Prop57
140
1.0
102
RTVSPost2010PropOp57
 70
     1
  0
XRECORD
  5
1FDF
102
{ACAD_REACTORS
330
1FDE
102
}
330
1FDE
100
AcDbXrecord
280
     1
102
RTVSPropertyOp0
 70
     1
102
RTVSPropertyOp1
 70
     1
102
RTVSPropertyOp2
 70
     1
102
RTVSPropertyOp3
 70
     1
102
RTVSPropertyOp4
 70
     1
102
RTVSPropertyOp5
 70
     1
102
RTVSPropertyOp6
 70
     1
102
RTVSPropertyOp7
 70
     1
102
RTVSPropertyOp8
 70
     1
102
RTVSPropertyOp9
 70
     1
102
RTVSPropertyOp10
 70
     1
102
RTVSPropertyOp11
 70
     1
102
RTVSPropertyOp12
 70
     1
102
RTVSPropertyOp13
 70
     1
102
RTVSPropertyOp14
 70
     1
102
RTVSPropertyOp15
 70
     1
102
RTVSPropertyOp16
 70
     1
102
RTVSPropertyOp17
 70
     1
102
RTVSPropertyOp18
 70
     1
102
RTVSPropertyOp19
 70
     1
102
RTVSPropertyOp20
 70
     1
102
RTVSPropertyOp21
 70
     1
102
RTVSPropertyOp22
 70
     1
102
RTVSPropertyOp23
 70
     1
102
RTVSPropertyOp24
 70
     1
102
RTVSPropertyOp25
 70
     1
102
RTVSPropertyOp26
 70
     1
102
RTVSPropertyOp27
 70
     1
102
RTVSPropertyOp28
 70
     1
102
RTVSPropertyOp29
 70
     1
102
RTVSPropertyOp30
 70
     1
102
RTVSPropertyOp31
 70
     1
102
RTVSPropertyOp32
 70
     1
102
RTVSPropertyOp33
 70
     1
102
RTVSPropertyOp34
 70
     1
102
RTVSPropertyOp35
 70
     1
102
RTVSPropertyOp36
 70
     1
102
RTVSPropertyOp37
 70
     1
102
RTVSPropertyOp38
 70
     1
102
RTVSPropertyOp39
 70
     1
102
RTVSPropertyOp40
 70
     1
102
RTVSPropertyOp41
 70
     1
102
RTVSPropertyOp42
 70
     1
102
RTVSPropertyOp43
 70
     1
102
RTVSPropertyOp44
 70
     1
102
RTVSPropertyOp45
 70
     1
102
RTVSPropertyOp46
 70
     1
102
RTVSPropertyOp47
 70
     1
102
RTVSPropertyOp48
 70
     1
102
RTVSPropertyOp49
 70
     1
102
RTVSPropertyOp50
 70
     1
102
RTVSPropertyOp51
 70
     0
102
RTVSPropertyOp52
 70
     0
102
RTVSPropertyOp53
 70
     1
102
RTVSPropertyOp54
 70
     1
102
RTVSPropertyOp55
 70
     1
102
RTVSPropertyOp56
 70
     1
102
RTVSPropertyOp57
 70
     1
102
RTVSPost2010Prop28
280
     0
102
RTVSPost2010PropOp28
 70
     1
102
RTVSPost2010Prop29
280
     1
102
RTVSPost2010PropOp29
 70
     1
102
RTVSPost2010Prop30
280
     1
102
RTVSPost2010PropOp30
 70
     1
102
RTVSPost2010Prop31
280
     0
102
RTVSPost2010PropOp31
 70
     1
102
RTVSPost2010Prop32
280
     0
102
RTVSPost2010PropOp32
 70
     1
102
RTVSPost2010Prop33
280
     0
102
RTVSPost2010PropOp33
 70
     1
102
RTVSPost2010Prop34
280
     0
102
RTVSPost2010PropOp34
 70
     1
102
RTVSPost2010Prop35
280
     0
102
RTVSPost2010PropOp35
 70
     1
102
RTVSPost2010Prop36
280
     0
102
RTVSPost2010PropOp36
 70
     1
102
RTVSPost2010Prop37
 90
       50
102
RTVSPost2010PropOp37
 70
     1
102
RTVSPost2010Prop38
140
0.0
102
RTVSPost2010PropOp38
 70
     1
102
RTVSPost2010Prop39
140
1.0
102
RTVSPost2010PropOp39
 70
     1
102
RTVSPost2010Prop40
 90
        0
102
RTVSPost2010PropOp40
 70
     1
102
RTVSPost2010Prop41ColorIndex
 90
       18
102
RTVSPost2010Prop41ColorRGB
 90
        0
102
RTVSPost2010PropOp41
 70
     1
102
RTVSPost2010Prop42
 90
       50
102
RTVSPost2010PropOp42
 70
     1
102
RTVSPost2010Prop43
 90
        3
102
RTVSPost2010PropOp43
 70
     1
102
RTVSPost2010Prop44ColorIndex
 90
        5
102
RTVSPost2010Prop44ColorRGB
 90
      255
102
RTVSPost2010PropOp44
 70
     1
102
RTVSPost2010Prop45
280
     0
102
RTVSPost2010PropOp45
 70
     1
102
RTVSPost2010Prop46
 90
       50
102
RTVSPost2010PropOp46
 70
     1
102
RTVSPost2010Prop47
 90
       50
102
RTVSPost2010PropOp47
 70
     1
102
RTVSPost2010Prop48
 90
       50
102
RTVSPost2010PropOp48
 70
     1
102
RTVSPost2010Prop49
280
     0
102
RTVSPost2010PropOp49
 70
     1
102
RTVSPost2010Prop50
 90
       50
102
RTVSPost2010PropOp50
 70
     1
102
RTVSPost2010Prop51ColorIndex
 90
      256
102
RTVSPost2010Prop51ColorRGB
 90
-16777216
102
RTVSPost2010PropOp51
 70
     0
102
RTVSPost2010Prop52
140
1.0
102
RTVSPost2010PropOp52
 70
     0
102
RTVSPost2010Prop53
 90
        2
102
RTVSPost2010PropOp53
 70
     1
102
RTVSPost2010Prop54
  1
strokes_ogs.tif
102
RTVSPost2010PropOp54
 70
     1
102
RTVSPost2010Prop55
280
     0
102
RTVSPost2010PropOp55
 70
     1
102
RTVSPost2010Prop56
140
1.0
102
RTVSPost2010PropOp56
 70
     1
102
RTVSPost2010Prop57
140
1.0
102
RTVSPost2010PropOp57
 70
     1
  0
XRECORD
  5
1FE1
102
{ACAD_REACTORS
330
1FE0
102
}
330
1FE0
100
AcDbXrecord
280
     1
102
RTVSPropertyOp0
 70
     0
102
RTVSPropertyOp1
 70
     0
102
RTVSPropertyOp2
 70
     0
102
RTVSPropertyOp3
 70
     0
102
RTVSPropertyOp4
 70
     0
102
RTVSPropertyOp5
 70
     0
102
RTVSPropertyOp6
 70
     0
102
RTVSPropertyOp7
 70
     0
102
RTVSPropertyOp8
 70
     0
102
RTVSPropertyOp9
 70
     0
102
RTVSPropertyOp10
 70
     0
102
RTVSPropertyOp11
 70
     0
102
RTVSPropertyOp12
 70
     0
102
RTVSPropertyOp13
 70
     0
102
RTVSPropertyOp14
 70
     2
102
RTVSPropertyOp15
 70
     0
102
RTVSPropertyOp16
 70
     0
102
RTVSPropertyOp17
 70
     0
102
RTVSPropertyOp18
 70
     0
102
RTVSPropertyOp19
 70
     0
102
RTVSPropertyOp20
 70
     0
102
RTVSPropertyOp21
 70
     0
102
RTVSPropertyOp22
 70
     0
102
RTVSPropertyOp23
 70
     0
102
RTVSPropertyOp24
 70
     0
102
RTVSPropertyOp25
 70
     0
102
RTVSPropertyOp26
 70
     0
102
RTVSPropertyOp27
 70
     0
102
RTVSPropertyOp28
 70
     0
102
RTVSPropertyOp29
 70
     0
102
RTVSPropertyOp30
 70
     0
102
RTVSPropertyOp31
 70
     0
102
RTVSPropertyOp32
 70
     0
102
RTVSPropertyOp33
 70
     1
102
RTVSPropertyOp34
 70
     1
102
RTVSPropertyOp35
 70
     1
102
RTVSPropertyOp36
 70
     1
102
RTVSPropertyOp37
 70
     1
102
RTVSPropertyOp38
 70
     1
102
RTVSPropertyOp39
 70
     1
102
RTVSPropertyOp40
 70
     1
102
RTVSPropertyOp41
 70
     1
102
RTVSPropertyOp42
 70
     1
102
RTVSPropertyOp43
 70
     1
102
RTVSPropertyOp44
 70
     1
102
RTVSPropertyOp45
 70
     1
102
RTVSPropertyOp46
 70
     1
102
RTVSPropertyOp47
 70
     1
102
RTVSPropertyOp48
 70
     1
102
RTVSPropertyOp49
 70
     1
102
RTVSPropertyOp50
 70
     1
102
RTVSPropertyOp51
 70
     0
102
RTVSPropertyOp52
 70
     0
102
RTVSPropertyOp53
 70
     1
102
RTVSPropertyOp54
 70
     1
102
RTVSPropertyOp55
 70
     1
102
RTVSPropertyOp56
 70
     1
102
RTVSPropertyOp57
 70
     1
102
RTVSPost2010Prop28
280
     0
102
RTVSPost2010PropOp28
 70
     0
102
RTVSPost2010Prop29
280
     1
102
RTVSPost2010PropOp29
 70
     0
102
RTVSPost2010Prop30
280
     1
102
RTVSPost2010PropOp30
 70
     0
102
RTVSPost2010Prop31
280
     0
102
RTVSPost2010PropOp31
 70
     0
102
RTVSPost2010Prop32
280
     0
102
RTVSPost2010PropOp32
 70
     0
102
RTVSPost2010Prop33
280
     0
102
RTVSPost2010PropOp33
 70
     1
102
RTVSPost2010Prop34
280
     0
102
RTVSPost2010PropOp34
 70
     1
102
RTVSPost2010Prop35
280
     0
102
RTVSPost2010PropOp35
 70
     1
102
RTVSPost2010Prop36
280
     0
102
RTVSPost2010PropOp36
 70
     1
102
RTVSPost2010Prop37
 90
       50
102
RTVSPost2010PropOp37
 70
     1
102
RTVSPost2010Prop38
140
0.0
102
RTVSPost2010PropOp38
 70
     1
102
RTVSPost2010Prop39
140
1.0
102
RTVSPost2010PropOp39
 70
     1
102
RTVSPost2010Prop40
 90
        0
102
RTVSPost2010PropOp40
 70
     1
102
RTVSPost2010Prop41ColorIndex
 90
       18
102
RTVSPost2010Prop41ColorRGB
 90
        0
102
RTVSPost2010PropOp41
 70
     1
102
RTVSPost2010Prop42
 90
       50
102
RTVSPost2010PropOp42
 70
     1
102
RTVSPost2010Prop43
 90
        3
102
RTVSPost2010PropOp43
 70
     1
102
RTVSPost2010Prop44ColorIndex
 90
        5
102
RTVSPost2010Prop44ColorRGB
 90
      255
102
RTVSPost2010PropOp44
 70
     1
102
RTVSPost2010Prop45
280
     0
102
RTVSPost2010PropOp45
 70
     1
102
RTVSPost2010Prop46
 90
       50
102
RTVSPost2010PropOp46
 70
     1
102
RTVSPost2010Prop47
 90
       50
102
RTVSPost2010PropOp47
 70
     1
102
RTVSPost2010Prop48
 90
       50
102
RTVSPost2010PropOp48
 70
     1
102
RTVSPost2010Prop49
280
     0
102
RTVSPost2010PropOp49
 70
     1
102
RTVSPost2010Prop50
 90
       50
102
RTVSPost2010PropOp50
 70
     1
102
RTVSPost2010Prop51ColorIndex
 90
      256
102
RTVSPost2010Prop51ColorRGB
 90
-16777216
102
RTVSPost2010PropOp51
 70
     0
102
RTVSPost2010Prop52
140
1.0
102
RTVSPost2010PropOp52
 70
     0
102
RTVSPost2010Prop53
 90
        2
102
RTVSPost2010PropOp53
 70
     1
102
RTVSPost2010Prop54
  1
strokes_ogs.tif
102
RTVSPost2010PropOp54
 70
     1
102
RTVSPost2010Prop55
280
     0
102
RTVSPost2010PropOp55
 70
     1
102
RTVSPost2010Prop56
140
1.0
102
RTVSPost2010PropOp56
 70
     1
102
RTVSPost2010Prop57
140
1.0
102
RTVSPost2010PropOp57
 70
     1
  0
XRECORD
  5
1FE3
102
{ACAD_REACTORS
330
1FE2
102
}
330
1FE2
100
AcDbXrecord
280
     1
102
RTVSPropertyOp0
 70
     1
102
RTVSPropertyOp1
 70
     1
102
RTVSPropertyOp2
 70
     1
102
RTVSPropertyOp3
 70
     1
102
RTVSPropertyOp4
 70
     1
102
RTVSPropertyOp5
 70
     1
102
RTVSPropertyOp6
 70
     1
102
RTVSPropertyOp7
 70
     1
102
RTVSPropertyOp8
 70
     1
102
RTVSPropertyOp9
 70
     1
102
RTVSPropertyOp10
 70
     1
102
RTVSPropertyOp11
 70
     1
102
RTVSPropertyOp12
 70
     1
102
RTVSPropertyOp13
 70
     1
102
RTVSPropertyOp14
 70
     1
102
RTVSPropertyOp15
 70
     1
102
RTVSPropertyOp16
 70
     1
102
RTVSPropertyOp17
 70
     1
102
RTVSPropertyOp18
 70
     1
102
RTVSPropertyOp19
 70
     1
102
RTVSPropertyOp20
 70
     1
102
RTVSPropertyOp21
 70
     1
102
RTVSPropertyOp22
 70
     1
102
RTVSPropertyOp23
 70
     1
102
RTVSPropertyOp24
 70
     1
102
RTVSPropertyOp25
 70
     1
102
RTVSPropertyOp26
 70
     1
102
RTVSPropertyOp27
 70
     1
102
RTVSPropertyOp28
 70
     1
102
RTVSPropertyOp29
 70
     1
102
RTVSPropertyOp30
 70
     1
102
RTVSPropertyOp31
 70
     1
102
RTVSPropertyOp32
 70
     1
102
RTVSPropertyOp33
 70
     1
102
RTVSPropertyOp34
 70
     1
102
RTVSPropertyOp35
 70
     1
102
RTVSPropertyOp36
 70
     1
102
RTVSPropertyOp37
 70
     1
102
RTVSPropertyOp38
 70
     1
102
RTVSPropertyOp39
 70
     1
102
RTVSPropertyOp40
 70
     1
102
RTVSPropertyOp41
 70
     1
102
RTVSPropertyOp42
 70
     1
102
RTVSPropertyOp43
 70
     1
102
RTVSPropertyOp44
 70
     1
102
RTVSPropertyOp45
 70
     1
102
RTVSPropertyOp46
 70
     1
102
RTVSPropertyOp47
 70
     1
102
RTVSPropertyOp48
 70
     1
102
RTVSPropertyOp49
 70
     1
102
RTVSPropertyOp50
 70
     1
102
RTVSPropertyOp51
 70
     0
102
RTVSPropertyOp52
 70
     0
102
RTVSPropertyOp53
 70
     1
102
RTVSPropertyOp54
 70
     1
102
RTVSPropertyOp55
 70
     1
102
RTVSPropertyOp56
 70
     1
102
RTVSPropertyOp57
 70
     1
102
RTVSPost2010Prop28
280
     0
102
RTVSPost2010PropOp28
 70
     1
102
RTVSPost2010Prop29
280
     1
102
RTVSPost2010PropOp29
 70
     1
102
RTVSPost2010Prop30
280
     1
102
RTVSPost2010PropOp30
 70
     1
102
RTVSPost2010Prop31
280
     0
102
RTVSPost2010PropOp31
 70
     1
102
RTVSPost2010Prop32
280
     0
102
RTVSPost2010PropOp32
 70
     1
102
RTVSPost2010Prop33
280
     0
102
RTVSPost2010PropOp33
 70
     1
102
RTVSPost2010Prop34
280
     0
102
RTVSPost2010PropOp34
 70
     1
102
RTVSPost2010Prop35
280
     0
102
RTVSPost2010PropOp35
 70
     1
102
RTVSPost2010Prop36
280
     0
102
RTVSPost2010PropOp36
 70
     1
102
RTVSPost2010Prop37
 90
       50
102
RTVSPost2010PropOp37
 70
     1
102
RTVSPost2010Prop38
140
0.0
102
RTVSPost2010PropOp38
 70
     1
102
RTVSPost2010Prop39
140
1.0
102
RTVSPost2010PropOp39
 70
     1
102
RTVSPost2010Prop40
 90
        0
102
RTVSPost2010PropOp40
 70
     1
102
RTVSPost2010Prop41ColorIndex
 90
       18
102
RTVSPost2010Prop41ColorRGB
 90
        0
102
RTVSPost2010PropOp41
 70
     1
102
RTVSPost2010Prop42
 90
       50
102
RTVSPost2010PropOp42
 70
     1
102
RTVSPost2010Prop43
 90
        3
102
RTVSPost2010PropOp43
 70
     1
102
RTVSPost2010Prop44ColorIndex
 90
        5
102
RTVSPost2010Prop44ColorRGB
 90
      255
102
RTVSPost2010PropOp44
 70
     1
102
RTVSPost2010Prop45
280
     0
102
RTVSPost2010PropOp45
 70
     1
102
RTVSPost2010Prop46
 90
       50
102
RTVSPost2010PropOp46
 70
     1
102
RTVSPost2010Prop47
 90
       50
102
RTVSPost2010PropOp47
 70
     1
102
RTVSPost2010Prop48
 90
       50
102
RTVSPost2010PropOp48
 70
     1
102
RTVSPost2010Prop49
280
     0
102
RTVSPost2010PropOp49
 70
     1
102
RTVSPost2010Prop50
 90
       50
102
RTVSPost2010PropOp50
 70
     1
102
RTVSPost2010Prop51ColorIndex
 90
      256
102
RTVSPost2010Prop51ColorRGB
 90
-16777216
102
RTVSPost2010PropOp51
 70
     0
102
RTVSPost2010Prop52
140
1.0
102
RTVSPost2010PropOp52
 70
     0
102
RTVSPost2010Prop53
 90
        2
102
RTVSPost2010PropOp53
 70
     1
102
RTVSPost2010Prop54
  1
strokes_ogs.tif
102
RTVSPost2010PropOp54
 70
     1
102
RTVSPost2010Prop55
280
     0
102
RTVSPost2010PropOp55
 70
     1
102
RTVSPost2010Prop56
140
1.0
102
RTVSPost2010PropOp56
 70
     1
102
RTVSPost2010Prop57
140
1.0
102
RTVSPost2010PropOp57
 70
     1
  0
XRECORD
  5
1FE5
102
{ACAD_REACTORS
330
1FE4
102
}
330
1FE4
100
AcDbXrecord
280
     1
102
RTVSPropertyOp0
 70
     0
102
RTVSPropertyOp1
 70
     0
102
RTVSPropertyOp2
 70
     0
102
RTVSPropertyOp3
 70
     0
102
RTVSPropertyOp4
 70
     0
102
RTVSPropertyOp5
 70
     0
102
RTVSPropertyOp6
 70
     0
102
RTVSPropertyOp7
 70
     0
102
RTVSPropertyOp8
 70
     0
102
RTVSPropertyOp9
 70
     0
102
RTVSPropertyOp10
 70
     0
102
RTVSPropertyOp11
 70
     0
102
RTVSPropertyOp12
 70
     0
102
RTVSPropertyOp13
 70
     0
102
RTVSPropertyOp14
 70
     2
102
RTVSPropertyOp15
 70
     0
102
RTVSPropertyOp16
 70
     0
102
RTVSPropertyOp17
 70
     0
102
RTVSPropertyOp18
 70
     0
102
RTVSPropertyOp19
 70
     0
102
RTVSPropertyOp20
 70
     0
102
RTVSPropertyOp21
 70
     0
102
RTVSPropertyOp22
 70
     0
102
RTVSPropertyOp23
 70
     0
102
RTVSPropertyOp24
 70
     0
102
RTVSPropertyOp25
 70
     0
102
RTVSPropertyOp26
 70
     0
102
RTVSPropertyOp27
 70
     0
102
RTVSPropertyOp28
 70
     0
102
RTVSPropertyOp29
 70
     0
102
RTVSPropertyOp30
 70
     0
102
RTVSPropertyOp31
 70
     0
102
RTVSPropertyOp32
 70
     0
102
RTVSPropertyOp33
 70
     1
102
RTVSPropertyOp34
 70
     1
102
RTVSPropertyOp35
 70
     1
102
RTVSPropertyOp36
 70
     1
102
RTVSPropertyOp37
 70
     1
102
RTVSPropertyOp38
 70
     1
102
RTVSPropertyOp39
 70
     1
102
RTVSPropertyOp40
 70
     1
102
RTVSPropertyOp41
 70
     1
102
RTVSPropertyOp42
 70
     1
102
RTVSPropertyOp43
 70
     1
102
RTVSPropertyOp44
 70
     1
102
RTVSPropertyOp45
 70
     1
102
RTVSPropertyOp46
 70
     1
102
RTVSPropertyOp47
 70
     1
102
RTVSPropertyOp48
 70
     1
102
RTVSPropertyOp49
 70
     1
102
RTVSPropertyOp50
 70
     1
102
RTVSPropertyOp51
 70
     0
102
RTVSPropertyOp52
 70
     0
102
RTVSPropertyOp53
 70
     1
102
RTVSPropertyOp54
 70
     1
102
RTVSPropertyOp55
 70
     1
102
RTVSPropertyOp56
 70
     1
102
RTVSPropertyOp57
 70
     1
102
RTVSPost2010Prop28
280
     0
102
RTVSPost2010PropOp28
 70
     0
102
RTVSPost2010Prop29
280
     1
102
RTVSPost2010PropOp29
 70
     0
102
RTVSPost2010Prop30
280
     1
102
RTVSPost2010PropOp30
 70
     0
102
RTVSPost2010Prop31
280
     0
102
RTVSPost2010PropOp31
 70
     0
102
RTVSPost2010Prop32
280
     0
102
RTVSPost2010PropOp32
 70
     0
102
RTVSPost2010Prop33
280
     0
102
RTVSPost2010PropOp33
 70
     1
102
RTVSPost2010Prop34
280
     0
102
RTVSPost2010PropOp34
 70
     1
102
RTVSPost2010Prop35
280
     0
102
RTVSPost2010PropOp35
 70
     1
102
RTVSPost2010Prop36
280
     0
102
RTVSPost2010PropOp36
 70
     1
102
RTVSPost2010Prop37
 90
       50
102
RTVSPost2010PropOp37
 70
     1
102
RTVSPost2010Prop38
140
0.0
102
RTVSPost2010PropOp38
 70
     1
102
RTVSPost2010Prop39
140
1.0
102
RTVSPost2010PropOp39
 70
     1
102
RTVSPost2010Prop40
 90
        0
102
RTVSPost2010PropOp40
 70
     1
102
RTVSPost2010Prop41ColorIndex
 90
       18
102
RTVSPost2010Prop41ColorRGB
 90
        0
102
RTVSPost2010PropOp41
 70
     1
102
RTVSPost2010Prop42
 90
       50
102
RTVSPost2010PropOp42
 70
     1
102
RTVSPost2010Prop43
 90
        3
102
RTVSPost2010PropOp43
 70
     1
102
RTVSPost2010Prop44ColorIndex
 90
        5
102
RTVSPost2010Prop44ColorRGB
 90
      255
102
RTVSPost2010PropOp44
 70
     1
102
RTVSPost2010Prop45
280
     0
102
RTVSPost2010PropOp45
 70
     1
102
RTVSPost2010Prop46
 90
       50
102
RTVSPost2010PropOp46
 70
     1
102
RTVSPost2010Prop47
 90
       50
102
RTVSPost2010PropOp47
 70
     1
102
RTVSPost2010Prop48
 90
       50
102
RTVSPost2010PropOp48
 70
     1
102
RTVSPost2010Prop49
280
     0
102
RTVSPost2010PropOp49
 70
     1
102
RTVSPost2010Prop50
 90
       50
102
RTVSPost2010PropOp50
 70
     1
102
RTVSPost2010Prop51ColorIndex
 90
      256
102
RTVSPost2010Prop51ColorRGB
 90
-16777216
102
RTVSPost2010PropOp51
 70
     0
102
RTVSPost2010Prop52
140
1.0
102
RTVSPost2010PropOp52
 70
     0
102
RTVSPost2010Prop53
 90
        2
102
RTVSPost2010PropOp53
 70
     1
102
RTVSPost2010Prop54
  1
strokes_ogs.tif
102
RTVSPost2010PropOp54
 70
     1
102
RTVSPost2010Prop55
280
     0
102
RTVSPost2010PropOp55
 70
     1
102
RTVSPost2010Prop56
140
1.0
102
RTVSPost2010PropOp56
 70
     1
102
RTVSPost2010Prop57
140
1.0
102
RTVSPost2010PropOp57
 70
     1
  0
XRECORD
  5
1FE7
102
{ACAD_REACTORS
330
1FE6
102
}
330
1FE6
100
AcDbXrecord
280
     1
102
RTVSPropertyOp0
 70
     1
102
RTVSPropertyOp1
 70
     1
102
RTVSPropertyOp2
 70
     1
102
RTVSPropertyOp3
 70
     1
102
RTVSPropertyOp4
 70
     1
102
RTVSPropertyOp5
 70
     1
102
RTVSPropertyOp6
 70
     1
102
RTVSPropertyOp7
 70
     1
102
RTVSPropertyOp8
 70
     1
102
RTVSPropertyOp9
 70
     1
102
RTVSPropertyOp10
 70
     1
102
RTVSPropertyOp11
 70
     1
102
RTVSPropertyOp12
 70
     1
102
RTVSPropertyOp13
 70
     1
102
RTVSPropertyOp14
 70
     1
102
RTVSPropertyOp15
 70
     1
102
RTVSPropertyOp16
 70
     1
102
RTVSPropertyOp17
 70
     1
102
RTVSPropertyOp18
 70
     1
102
RTVSPropertyOp19
 70
     1
102
RTVSPropertyOp20
 70
     1
102
RTVSPropertyOp21
 70
     1
102
RTVSPropertyOp22
 70
     1
102
RTVSPropertyOp23
 70
     1
102
RTVSPropertyOp24
 70
     1
102
RTVSPropertyOp25
 70
     1
102
RTVSPropertyOp26
 70
     1
102
RTVSPropertyOp27
 70
     1
102
RTVSPropertyOp28
 70
     1
102
RTVSPropertyOp29
 70
     1
102
RTVSPropertyOp30
 70
     1
102
RTVSPropertyOp31
 70
     1
102
RTVSPropertyOp32
 70
     1
102
RTVSPropertyOp33
 70
     1
102
RTVSPropertyOp34
 70
     1
102
RTVSPropertyOp35
 70
     1
102
RTVSPropertyOp36
 70
     1
102
RTVSPropertyOp37
 70
     1
102
RTVSPropertyOp38
 70
     1
102
RTVSPropertyOp39
 70
     1
102
RTVSPropertyOp40
 70
     1
102
RTVSPropertyOp41
 70
     1
102
RTVSPropertyOp42
 70
     1
102
RTVSPropertyOp43
 70
     1
102
RTVSPropertyOp44
 70
     1
102
RTVSPropertyOp45
 70
     1
102
RTVSPropertyOp46
 70
     1
102
RTVSPropertyOp47
 70
     1
102
RTVSPropertyOp48
 70
     1
102
RTVSPropertyOp49
 70
     1
102
RTVSPropertyOp50
 70
     1
102
RTVSPropertyOp51
 70
     0
102
RTVSPropertyOp52
 70
     0
102
RTVSPropertyOp53
 70
     1
102
RTVSPropertyOp54
 70
     1
102
RTVSPropertyOp55
 70
     1
102
RTVSPropertyOp56
 70
     1
102
RTVSPropertyOp57
 70
     1
102
RTVSPost2010Prop28
280
     0
102
RTVSPost2010PropOp28
 70
     1
102
RTVSPost2010Prop29
280
     1
102
RTVSPost2010PropOp29
 70
     1
102
RTVSPost2010Prop30
280
     1
102
RTVSPost2010PropOp30
 70
     1
102
RTVSPost2010Prop31
280
     0
102
RTVSPost2010PropOp31
 70
     1
102
RTVSPost2010Prop32
280
     0
102
RTVSPost2010PropOp32
 70
     1
102
RTVSPost2010Prop33
280
     0
102
RTVSPost2010PropOp33
 70
     1
102
RTVSPost2010Prop34
280
     0
102
RTVSPost2010PropOp34
 70
     1
102
RTVSPost2010Prop35
280
     0
102
RTVSPost2010PropOp35
 70
     1
102
RTVSPost2010Prop36
280
     0
102
RTVSPost2010PropOp36
 70
     1
102
RTVSPost2010Prop37
 90
       50
102
RTVSPost2010PropOp37
 70
     1
102
RTVSPost2010Prop38
140
0.0
102
RTVSPost2010PropOp38
 70
     1
102
RTVSPost2010Prop39
140
1.0
102
RTVSPost2010PropOp39
 70
     1
102
RTVSPost2010Prop40
 90
        0
102
RTVSPost2010PropOp40
 70
     1
102
RTVSPost2010Prop41ColorIndex
 90
       18
102
RTVSPost2010Prop41ColorRGB
 90
        0
102
RTVSPost2010PropOp41
 70
     1
102
RTVSPost2010Prop42
 90
       50
102
RTVSPost2010PropOp42
 70
     1
102
RTVSPost2010Prop43
 90
        3
102
RTVSPost2010PropOp43
 70
     1
102
RTVSPost2010Prop44ColorIndex
 90
        5
102
RTVSPost2010Prop44ColorRGB
 90
      255
102
RTVSPost2010PropOp44
 70
     1
102
RTVSPost2010Prop45
280
     0
102
RTVSPost2010PropOp45
 70
     1
102
RTVSPost2010Prop46
 90
       50
102
RTVSPost2010PropOp46
 70
     1
102
RTVSPost2010Prop47
 90
       50
102
RTVSPost2010PropOp47
 70
     1
102
RTVSPost2010Prop48
 90
       50
102
RTVSPost2010PropOp48
 70
     1
102
RTVSPost2010Prop49
280
     0
102
RTVSPost2010PropOp49
 70
     1
102
RTVSPost2010Prop50
 90
       50
102
RTVSPost2010PropOp50
 70
     1
102
RTVSPost2010Prop51ColorIndex
 90
      256
102
RTVSPost2010Prop51ColorRGB
 90
-16777216
102
RTVSPost2010PropOp51
 70
     0
102
RTVSPost2010Prop52
140
1.0
102
RTVSPost2010PropOp52
 70
     0
102
RTVSPost2010Prop53
 90
        2
102
RTVSPost2010PropOp53
 70
     1
102
RTVSPost2010Prop54
  1
strokes_ogs.tif
102
RTVSPost2010PropOp54
 70
     1
102
RTVSPost2010Prop55
280
     0
102
RTVSPost2010PropOp55
 70
     1
102
RTVSPost2010Prop56
140
1.0
102
RTVSPost2010PropOp56
 70
     1
102
RTVSPost2010Prop57
140
1.0
102
RTVSPost2010PropOp57
 70
     1
  0
XRECORD
  5
1FE9
102
{ACAD_REACTORS
330
1FE8
102
}
330
1FE8
100
AcDbXrecord
280
     1
102
RTVSPropertyOp0
 70
     1
102
RTVSPropertyOp1
 70
     1
102
RTVSPropertyOp2
 70
     1
102
RTVSPropertyOp3
 70
     1
102
RTVSPropertyOp4
 70
     1
102
RTVSPropertyOp5
 70
     1
102
RTVSPropertyOp6
 70
     1
102
RTVSPropertyOp7
 70
     1
102
RTVSPropertyOp8
 70
     1
102
RTVSPropertyOp9
 70
     1
102
RTVSPropertyOp10
 70
     1
102
RTVSPropertyOp11
 70
     1
102
RTVSPropertyOp12
 70
     1
102
RTVSPropertyOp13
 70
     1
102
RTVSPropertyOp14
 70
     1
102
RTVSPropertyOp15
 70
     1
102
RTVSPropertyOp16
 70
     1
102
RTVSPropertyOp17
 70
     1
102
RTVSPropertyOp18
 70
     1
102
RTVSPropertyOp19
 70
     1
102
RTVSPropertyOp20
 70
     1
102
RTVSPropertyOp21
 70
     1
102
RTVSPropertyOp22
 70
     1
102
RTVSPropertyOp23
 70
     1
102
RTVSPropertyOp24
 70
     1
102
RTVSPropertyOp25
 70
     1
102
RTVSPropertyOp26
 70
     1
102
RTVSPropertyOp27
 70
     1
102
RTVSPropertyOp28
 70
     1
102
RTVSPropertyOp29
 70
     1
102
RTVSPropertyOp30
 70
     1
102
RTVSPropertyOp31
 70
     1
102
RTVSPropertyOp32
 70
     1
102
RTVSPropertyOp33
 70
     1
102
RTVSPropertyOp34
 70
     1
102
RTVSPropertyOp35
 70
     1
102
RTVSPropertyOp36
 70
     1
102
RTVSPropertyOp37
 70
     1
102
RTVSPropertyOp38
 70
     1
102
RTVSPropertyOp39
 70
     1
102
RTVSPropertyOp40
 70
     1
102
RTVSPropertyOp41
 70
     1
102
RTVSPropertyOp42
 70
     1
102
RTVSPropertyOp43
 70
     1
102
RTVSPropertyOp44
 70
     1
102
RTVSPropertyOp45
 70
     1
102
RTVSPropertyOp46
 70
     1
102
RTVSPropertyOp47
 70
     1
102
RTVSPropertyOp48
 70
     1
102
RTVSPropertyOp49
 70
     1
102
RTVSPropertyOp50
 70
     1
102
RTVSPropertyOp51
 70
     0
102
RTVSPropertyOp52
 70
     0
102
RTVSPropertyOp53
 70
     1
102
RTVSPropertyOp54
 70
     1
102
RTVSPropertyOp55
 70
     1
102
RTVSPropertyOp56
 70
     1
102
RTVSPropertyOp57
 70
     1
102
RTVSPost2010Prop28
280
     0
102
RTVSPost2010PropOp28
 70
     1
102
RTVSPost2010Prop29
280
     1
102
RTVSPost2010PropOp29
 70
     1
102
RTVSPost2010Prop30
280
     1
102
RTVSPost2010PropOp30
 70
     1
102
RTVSPost2010Prop31
280
     0
102
RTVSPost2010PropOp31
 70
     1
102
RTVSPost2010Prop32
280
     0
102
RTVSPost2010PropOp32
 70
     1
102
RTVSPost2010Prop33
280
     0
102
RTVSPost2010PropOp33
 70
     1
102
RTVSPost2010Prop34
280
     0
102
RTVSPost2010PropOp34
 70
     1
102
RTVSPost2010Prop35
280
     0
102
RTVSPost2010PropOp35
 70
     1
102
RTVSPost2010Prop36
280
     0
102
RTVSPost2010PropOp36
 70
     1
102
RTVSPost2010Prop37
 90
       50
102
RTVSPost2010PropOp37
 70
     1
102
RTVSPost2010Prop38
140
0.0
102
RTVSPost2010PropOp38
 70
     1
102
RTVSPost2010Prop39
140
1.0
102
RTVSPost2010PropOp39
 70
     1
102
RTVSPost2010Prop40
 90
        0
102
RTVSPost2010PropOp40
 70
     1
102
RTVSPost2010Prop41ColorIndex
 90
       18
102
RTVSPost2010Prop41ColorRGB
 90
        0
102
RTVSPost2010PropOp41
 70
     1
102
RTVSPost2010Prop42
 90
       50
102
RTVSPost2010PropOp42
 70
     1
102
RTVSPost2010Prop43
 90
        3
102
RTVSPost2010PropOp43
 70
     1
102
RTVSPost2010Prop44ColorIndex
 90
        5
102
RTVSPost2010Prop44ColorRGB
 90
      255
102
RTVSPost2010PropOp44
 70
     1
102
RTVSPost2010Prop45
280
     0
102
RTVSPost2010PropOp45
 70
     1
102
RTVSPost2010Prop46
 90
       50
102
RTVSPost2010PropOp46
 70
     1
102
RTVSPost2010Prop47
 90
       50
102
RTVSPost2010PropOp47
 70
     1
102
RTVSPost2010Prop48
 90
       50
102
RTVSPost2010PropOp48
 70
     1
102
RTVSPost2010Prop49
280
     0
102
RTVSPost2010PropOp49
 70
     1
102
RTVSPost2010Prop50
 90
       50
102
RTVSPost2010PropOp50
 70
     1
102
RTVSPost2010Prop51ColorIndex
 90
      256
102
RTVSPost2010Prop51ColorRGB
 90
-16777216
102
RTVSPost2010PropOp51
 70
     0
102
RTVSPost2010Prop52
140
1.0
102
RTVSPost2010PropOp52
 70
     0
102
RTVSPost2010Prop53
 90
        2
102
RTVSPost2010PropOp53
 70
     1
102
RTVSPost2010Prop54
  1
strokes_ogs.tif
102
RTVSPost2010PropOp54
 70
     1
102
RTVSPost2010Prop55
280
     0
102
RTVSPost2010PropOp55
 70
     1
102
RTVSPost2010Prop56
140
1.0
102
RTVSPost2010PropOp56
 70
     1
102
RTVSPost2010Prop57
140
1.0
102
RTVSPost2010PropOp57
 70
     1
  0
XRECORD
  5
1FEB
102
{ACAD_REACTORS
330
1FEA
102
}
330
1FEA
100
AcDbXrecord
280
     1
102
RTVSPropertyOp0
 70
     1
102
RTVSPropertyOp1
 70
     1
102
RTVSPropertyOp2
 70
     1
102
RTVSPropertyOp3
 70
     1
102
RTVSPropertyOp4
 70
     1
102
RTVSPropertyOp5
 70
     1
102
RTVSPropertyOp6
 70
     1
102
RTVSPropertyOp7
 70
     1
102
RTVSPropertyOp8
 70
     1
102
RTVSPropertyOp9
 70
     1
102
RTVSPropertyOp10
 70
     1
102
RTVSPropertyOp11
 70
     1
102
RTVSPropertyOp12
 70
     1
102
RTVSPropertyOp13
 70
     1
102
RTVSPropertyOp14
 70
     1
102
RTVSPropertyOp15
 70
     1
102
RTVSPropertyOp16
 70
     1
102
RTVSPropertyOp17
 70
     1
102
RTVSPropertyOp18
 70
     1
102
RTVSPropertyOp19
 70
     1
102
RTVSPropertyOp20
 70
     1
102
RTVSPropertyOp21
 70
     1
102
RTVSPropertyOp22
 70
     1
102
RTVSPropertyOp23
 70
     1
102
RTVSPropertyOp24
 70
     1
102
RTVSPropertyOp25
 70
     1
102
RTVSPropertyOp26
 70
     1
102
RTVSPropertyOp27
 70
     1
102
RTVSPropertyOp28
 70
     1
102
RTVSPropertyOp29
 70
     1
102
RTVSPropertyOp30
 70
     1
102
RTVSPropertyOp31
 70
     1
102
RTVSPropertyOp32
 70
     1
102
RTVSPropertyOp33
 70
     1
102
RTVSPropertyOp34
 70
     1
102
RTVSPropertyOp35
 70
     1
102
RTVSPropertyOp36
 70
     1
102
RTVSPropertyOp37
 70
     1
102
RTVSPropertyOp38
 70
     1
102
RTVSPropertyOp39
 70
     1
102
RTVSPropertyOp40
 70
     1
102
RTVSPropertyOp41
 70
     1
102
RTVSPropertyOp42
 70
     1
102
RTVSPropertyOp43
 70
     1
102
RTVSPropertyOp44
 70
     1
102
RTVSPropertyOp45
 70
     1
102
RTVSPropertyOp46
 70
     1
102
RTVSPropertyOp47
 70
     1
102
RTVSPropertyOp48
 70
     1
102
RTVSPropertyOp49
 70
     1
102
RTVSPropertyOp50
 70
     1
102
RTVSPropertyOp51
 70
     0
102
RTVSPropertyOp52
 70
     0
102
RTVSPropertyOp53
 70
     1
102
RTVSPropertyOp54
 70
     1
102
RTVSPropertyOp55
 70
     1
102
RTVSPropertyOp56
 70
     1
102
RTVSPropertyOp57
 70
     1
102
RTVSPost2010Prop28
280
     0
102
RTVSPost2010PropOp28
 70
     1
102
RTVSPost2010Prop29
280
     1
102
RTVSPost2010PropOp29
 70
     1
102
RTVSPost2010Prop30
280
     1
102
RTVSPost2010PropOp30
 70
     1
102
RTVSPost2010Prop31
280
     0
102
RTVSPost2010PropOp31
 70
     1
102
RTVSPost2010Prop32
280
     0
102
RTVSPost2010PropOp32
 70
     1
102
RTVSPost2010Prop33
280
     0
102
RTVSPost2010PropOp33
 70
     1
102
RTVSPost2010Prop34
280
     0
102
RTVSPost2010PropOp34
 70
     1
102
RTVSPost2010Prop35
280
     0
102
RTVSPost2010PropOp35
 70
     1
102
RTVSPost2010Prop36
280
     0
102
RTVSPost2010PropOp36
 70
     1
102
RTVSPost2010Prop37
 90
       50
102
RTVSPost2010PropOp37
 70
     1
102
RTVSPost2010Prop38
140
0.0
102
RTVSPost2010PropOp38
 70
     1
102
RTVSPost2010Prop39
140
1.0
102
RTVSPost2010PropOp39
 70
     1
102
RTVSPost2010Prop40
 90
        0
102
RTVSPost2010PropOp40
 70
     1
102
RTVSPost2010Prop41ColorIndex
 90
       18
102
RTVSPost2010Prop41ColorRGB
 90
        0
102
RTVSPost2010PropOp41
 70
     1
102
RTVSPost2010Prop42
 90
       50
102
RTVSPost2010PropOp42
 70
     1
102
RTVSPost2010Prop43
 90
        3
102
RTVSPost2010PropOp43
 70
     1
102
RTVSPost2010Prop44ColorIndex
 90
        5
102
RTVSPost2010Prop44ColorRGB
 90
      255
102
RTVSPost2010PropOp44
 70
     1
102
RTVSPost2010Prop45
280
     0
102
RTVSPost2010PropOp45
 70
     1
102
RTVSPost2010Prop46
 90
       50
102
RTVSPost2010PropOp46
 70
     1
102
RTVSPost2010Prop47
 90
       50
102
RTVSPost2010PropOp47
 70
     1
102
RTVSPost2010Prop48
 90
       50
102
RTVSPost2010PropOp48
 70
     1
102
RTVSPost2010Prop49
280
     0
102
RTVSPost2010PropOp49
 70
     1
102
RTVSPost2010Prop50
 90
       50
102
RTVSPost2010PropOp50
 70
     1
102
RTVSPost2010Prop51ColorIndex
 90
      256
102
RTVSPost2010Prop51ColorRGB
 90
-16777216
102
RTVSPost2010PropOp51
 70
     0
102
RTVSPost2010Prop52
140
1.0
102
RTVSPost2010PropOp52
 70
     0
102
RTVSPost2010Prop53
 90
        2
102
RTVSPost2010PropOp53
 70
     1
102
RTVSPost2010Prop54
  1
strokes_ogs.tif
102
RTVSPost2010PropOp54
 70
     1
102
RTVSPost2010Prop55
280
     0
102
RTVSPost2010PropOp55
 70
     1
102
RTVSPost2010Prop56
140
1.0
102
RTVSPost2010PropOp56
 70
     1
102
RTVSPost2010Prop57
140
1.0
102
RTVSPost2010PropOp57
 70
     1
  0
XRECORD
  5
1FED
102
{ACAD_REACTORS
330
1FEC
102
}
330
1FEC
100
AcDbXrecord
280
     1
102
RTVSPropertyOp0
 70
     1
102
RTVSPropertyOp1
 70
     1
102
RTVSPropertyOp2
 70
     1
102
RTVSPropertyOp3
 70
     1
102
RTVSPropertyOp4
 70
     1
102
RTVSPropertyOp5
 70
     1
102
RTVSPropertyOp6
 70
     1
102
RTVSPropertyOp7
 70
     1
102
RTVSPropertyOp8
 70
     1
102
RTVSPropertyOp9
 70
     1
102
RTVSPropertyOp10
 70
     1
102
RTVSPropertyOp11
 70
     1
102
RTVSPropertyOp12
 70
     1
102
RTVSPropertyOp13
 70
     1
102
RTVSPropertyOp14
 70
     1
102
RTVSPropertyOp15
 70
     1
102
RTVSPropertyOp16
 70
     1
102
RTVSPropertyOp17
 70
     1
102
RTVSPropertyOp18
 70
     1
102
RTVSPropertyOp19
 70
     1
102
RTVSPropertyOp20
 70
     1
102
RTVSPropertyOp21
 70
     1
102
RTVSPropertyOp22
 70
     1
102
RTVSPropertyOp23
 70
     1
102
RTVSPropertyOp24
 70
     1
102
RTVSPropertyOp25
 70
     1
102
RTVSPropertyOp26
 70
     1
102
RTVSPropertyOp27
 70
     1
102
RTVSPropertyOp28
 70
     1
102
RTVSPropertyOp29
 70
     1
102
RTVSPropertyOp30
 70
     1
102
RTVSPropertyOp31
 70
     1
102
RTVSPropertyOp32
 70
     1
102
RTVSPropertyOp33
 70
     1
102
RTVSPropertyOp34
 70
     1
102
RTVSPropertyOp35
 70
     1
102
RTVSPropertyOp36
 70
     1
102
RTVSPropertyOp37
 70
     1
102
RTVSPropertyOp38
 70
     1
102
RTVSPropertyOp39
 70
     1
102
RTVSPropertyOp40
 70
     1
102
RTVSPropertyOp41
 70
     1
102
RTVSPropertyOp42
 70
     1
102
RTVSPropertyOp43
 70
     1
102
RTVSPropertyOp44
 70
     1
102
RTVSPropertyOp45
 70
     1
102
RTVSPropertyOp46
 70
     1
102
RTVSPropertyOp47
 70
     1
102
RTVSPropertyOp48
 70
     1
102
RTVSPropertyOp49
 70
     1
102
RTVSPropertyOp50
 70
     1
102
RTVSPropertyOp51
 70
     0
102
RTVSPropertyOp52
 70
     0
102
RTVSPropertyOp53
 70
     1
102
RTVSPropertyOp54
 70
     1
102
RTVSPropertyOp55
 70
     1
102
RTVSPropertyOp56
 70
     1
102
RTVSPropertyOp57
 70
     1
102
RTVSPost2010Prop28
280
     0
102
RTVSPost2010PropOp28
 70
     1
102
RTVSPost2010Prop29
280
     1
102
RTVSPost2010PropOp29
 70
     1
102
RTVSPost2010Prop30
280
     1
102
RTVSPost2010PropOp30
 70
     1
102
RTVSPost2010Prop31
280
     0
102
RTVSPost2010PropOp31
 70
     1
102
RTVSPost2010Prop32
280
     0
102
RTVSPost2010PropOp32
 70
     1
102
RTVSPost2010Prop33
280
     0
102
RTVSPost2010PropOp33
 70
     1
102
RTVSPost2010Prop34
280
     0
102
RTVSPost2010PropOp34
 70
     1
102
RTVSPost2010Prop35
280
     0
102
RTVSPost2010PropOp35
 70
     1
102
RTVSPost2010Prop36
280
     0
102
RTVSPost2010PropOp36
 70
     1
102
RTVSPost2010Prop37
 90
       50
102
RTVSPost2010PropOp37
 70
     1
102
RTVSPost2010Prop38
140
0.0
102
RTVSPost2010PropOp38
 70
     1
102
RTVSPost2010Prop39
140
1.0
102
RTVSPost2010PropOp39
 70
     1
102
RTVSPost2010Prop40
 90
        0
102
RTVSPost2010PropOp40
 70
     1
102
RTVSPost2010Prop41ColorIndex
 90
       18
102
RTVSPost2010Prop41ColorRGB
 90
        0
102
RTVSPost2010PropOp41
 70
     1
102
RTVSPost2010Prop42
 90
       50
102
RTVSPost2010PropOp42
 70
     1
102
RTVSPost2010Prop43
 90
        3
102
RTVSPost2010PropOp43
 70
     1
102
RTVSPost2010Prop44ColorIndex
 90
        5
102
RTVSPost2010Prop44ColorRGB
 90
      255
102
RTVSPost2010PropOp44
 70
     1
102
RTVSPost2010Prop45
280
     0
102
RTVSPost2010PropOp45
 70
     1
102
RTVSPost2010Prop46
 90
       50
102
RTVSPost2010PropOp46
 70
     1
102
RTVSPost2010Prop47
 90
       50
102
RTVSPost2010PropOp47
 70
     1
102
RTVSPost2010Prop48
 90
       50
102
RTVSPost2010PropOp48
 70
     1
102
RTVSPost2010Prop49
280
     0
102
RTVSPost2010PropOp49
 70
     1
102
RTVSPost2010Prop50
 90
       50
102
RTVSPost2010PropOp50
 70
     1
102
RTVSPost2010Prop51ColorIndex
 90
      256
102
RTVSPost2010Prop51ColorRGB
 90
-16777216
102
RTVSPost2010PropOp51
 70
     0
102
RTVSPost2010Prop52
140
1.0
102
RTVSPost2010PropOp52
 70
     0
102
RTVSPost2010Prop53
 90
        2
102
RTVSPost2010PropOp53
 70
     1
102
RTVSPost2010Prop54
  1
strokes_ogs.tif
102
RTVSPost2010PropOp54
 70
     1
102
RTVSPost2010Prop55
280
     0
102
RTVSPost2010PropOp55
 70
     1
102
RTVSPost2010Prop56
140
1.0
102
RTVSPost2010PropOp56
 70
     1
102
RTVSPost2010Prop57
140
1.0
102
RTVSPost2010PropOp57
 70
     1
  0
XRECORD
  5
1FEF
102
{ACAD_REACTORS
330
1FEE
102
}
330
1FEE
100
AcDbXrecord
280
     1
102
RTVSPropertyOp0
 70
     1
102
RTVSPropertyOp1
 70
     1
102
RTVSPropertyOp2
 70
     1
102
RTVSPropertyOp3
 70
     1
102
RTVSPropertyOp4
 70
     1
102
RTVSPropertyOp5
 70
     1
102
RTVSPropertyOp6
 70
     1
102
RTVSPropertyOp7
 70
     1
102
RTVSPropertyOp8
 70
     1
102
RTVSPropertyOp9
 70
     1
102
RTVSPropertyOp10
 70
     1
102
RTVSPropertyOp11
 70
     1
102
RTVSPropertyOp12
 70
     1
102
RTVSPropertyOp13
 70
     1
102
RTVSPropertyOp14
 70
     1
102
RTVSPropertyOp15
 70
     1
102
RTVSPropertyOp16
 70
     1
102
RTVSPropertyOp17
 70
     1
102
RTVSPropertyOp18
 70
     1
102
RTVSPropertyOp19
 70
     1
102
RTVSPropertyOp20
 70
     1
102
RTVSPropertyOp21
 70
     1
102
RTVSPropertyOp22
 70
     1
102
RTVSPropertyOp23
 70
     1
102
RTVSPropertyOp24
 70
     1
102
RTVSPropertyOp25
 70
     1
102
RTVSPropertyOp26
 70
     1
102
RTVSPropertyOp27
 70
     1
102
RTVSPropertyOp28
 70
     1
102
RTVSPropertyOp29
 70
     1
102
RTVSPropertyOp30
 70
     1
102
RTVSPropertyOp31
 70
     1
102
RTVSPropertyOp32
 70
     1
102
RTVSPropertyOp33
 70
     1
102
RTVSPropertyOp34
 70
     1
102
RTVSPropertyOp35
 70
     1
102
RTVSPropertyOp36
 70
     1
102
RTVSPropertyOp37
 70
     1
102
RTVSPropertyOp38
 70
     1
102
RTVSPropertyOp39
 70
     1
102
RTVSPropertyOp40
 70
     1
102
RTVSPropertyOp41
 70
     1
102
RTVSPropertyOp42
 70
     1
102
RTVSPropertyOp43
 70
     1
102
RTVSPropertyOp44
 70
     1
102
RTVSPropertyOp45
 70
     1
102
RTVSPropertyOp46
 70
     1
102
RTVSPropertyOp47
 70
     1
102
RTVSPropertyOp48
 70
     1
102
RTVSPropertyOp49
 70
     1
102
RTVSPropertyOp50
 70
     1
102
RTVSPropertyOp51
 70
     0
102
RTVSPropertyOp52
 70
     0
102
RTVSPropertyOp53
 70
     1
102
RTVSPropertyOp54
 70
     1
102
RTVSPropertyOp55
 70
     1
102
RTVSPropertyOp56
 70
     1
102
RTVSPropertyOp57
 70
     1
102
RTVSPost2010Prop28
280
     0
102
RTVSPost2010PropOp28
 70
     1
102
RTVSPost2010Prop29
280
     1
102
RTVSPost2010PropOp29
 70
     1
102
RTVSPost2010Prop30
280
     1
102
RTVSPost2010PropOp30
 70
     1
102
RTVSPost2010Prop31
280
     0
102
RTVSPost2010PropOp31
 70
     1
102
RTVSPost2010Prop32
280
     0
102
RTVSPost2010PropOp32
 70
     1
102
RTVSPost2010Prop33
280
     0
102
RTVSPost2010PropOp33
 70
     1
102
RTVSPost2010Prop34
280
     0
102
RTVSPost2010PropOp34
 70
     1
102
RTVSPost2010Prop35
280
     0
102
RTVSPost2010PropOp35
 70
     1
102
RTVSPost2010Prop36
280
     0
102
RTVSPost2010PropOp36
 70
     1
102
RTVSPost2010Prop37
 90
       50
102
RTVSPost2010PropOp37
 70
     1
102
RTVSPost2010Prop38
140
0.0
102
RTVSPost2010PropOp38
 70
     1
102
RTVSPost2010Prop39
140
1.0
102
RTVSPost2010PropOp39
 70
     1
102
RTVSPost2010Prop40
 90
        0
102
RTVSPost2010PropOp40
 70
     1
102
RTVSPost2010Prop41ColorIndex
 90
       18
102
RTVSPost2010Prop41ColorRGB
 90
        0
102
RTVSPost2010PropOp41
 70
     1
102
RTVSPost2010Prop42
 90
       50
102
RTVSPost2010PropOp42
 70
     1
102
RTVSPost2010Prop43
 90
        3
102
RTVSPost2010PropOp43
 70
     1
102
RTVSPost2010Prop44ColorIndex
 90
        5
102
RTVSPost2010Prop44ColorRGB
 90
      255
102
RTVSPost2010PropOp44
 70
     1
102
RTVSPost2010Prop45
280
     0
102
RTVSPost2010PropOp45
 70
     1
102
RTVSPost2010Prop46
 90
       50
102
RTVSPost2010PropOp46
 70
     1
102
RTVSPost2010Prop47
 90
       50
102
RTVSPost2010PropOp47
 70
     1
102
RTVSPost2010Prop48
 90
       50
102
RTVSPost2010PropOp48
 70
     1
102
RTVSPost2010Prop49
280
     0
102
RTVSPost2010PropOp49
 70
     1
102
RTVSPost2010Prop50
 90
       50
102
RTVSPost2010PropOp50
 70
     1
102
RTVSPost2010Prop51ColorIndex
 90
      256
102
RTVSPost2010Prop51ColorRGB
 90
-16777216
102
RTVSPost2010PropOp51
 70
     0
102
RTVSPost2010Prop52
140
1.0
102
RTVSPost2010PropOp52
 70
     0
102
RTVSPost2010Prop53
 90
        2
102
RTVSPost2010PropOp53
 70
     1
102
RTVSPost2010Prop54
  1
strokes_ogs.tif
102
RTVSPost2010PropOp54
 70
     1
102
RTVSPost2010Prop55
280
     0
102
RTVSPost2010PropOp55
 70
     1
102
RTVSPost2010Prop56
140
1.0
102
RTVSPost2010PropOp56
 70
     1
102
RTVSPost2010Prop57
140
1.0
102
RTVSPost2010PropOp57
 70
     1
  0
XRECORD
  5
1FF1
102
{ACAD_REACTORS
330
1FF0
102
}
330
1FF0
100
AcDbXrecord
280
     1
102
RTVSPropertyOp0
 70
     1
102
RTVSPropertyOp1
 70
     1
102
RTVSPropertyOp2
 70
     1
102
RTVSPropertyOp3
 70
     1
102
RTVSPropertyOp4
 70
     1
102
RTVSPropertyOp5
 70
     1
102
RTVSPropertyOp6
 70
     1
102
RTVSPropertyOp7
 70
     1
102
RTVSPropertyOp8
 70
     1
102
RTVSPropertyOp9
 70
     1
102
RTVSPropertyOp10
 70
     1
102
RTVSPropertyOp11
 70
     1
102
RTVSPropertyOp12
 70
     1
102
RTVSPropertyOp13
 70
     1
102
RTVSPropertyOp14
 70
     1
102
RTVSPropertyOp15
 70
     1
102
RTVSPropertyOp16
 70
     1
102
RTVSPropertyOp17
 70
     1
102
RTVSPropertyOp18
 70
     1
102
RTVSPropertyOp19
 70
     1
102
RTVSPropertyOp20
 70
     1
102
RTVSPropertyOp21
 70
     1
102
RTVSPropertyOp22
 70
     1
102
RTVSPropertyOp23
 70
     1
102
RTVSPropertyOp24
 70
     1
102
RTVSPropertyOp25
 70
     1
102
RTVSPropertyOp26
 70
     1
102
RTVSPropertyOp27
 70
     1
102
RTVSPropertyOp28
 70
     1
102
RTVSPropertyOp29
 70
     1
102
RTVSPropertyOp30
 70
     1
102
RTVSPropertyOp31
 70
     1
102
RTVSPropertyOp32
 70
     1
102
RTVSPropertyOp33
 70
     1
102
RTVSPropertyOp34
 70
     1
102
RTVSPropertyOp35
 70
     1
102
RTVSPropertyOp36
 70
     1
102
RTVSPropertyOp37
 70
     1
102
RTVSPropertyOp38
 70
     1
102
RTVSPropertyOp39
 70
     1
102
RTVSPropertyOp40
 70
     1
102
RTVSPropertyOp41
 70
     1
102
RTVSPropertyOp42
 70
     1
102
RTVSPropertyOp43
 70
     1
102
RTVSPropertyOp44
 70
     1
102
RTVSPropertyOp45
 70
     1
102
RTVSPropertyOp46
 70
     1
102
RTVSPropertyOp47
 70
     1
102
RTVSPropertyOp48
 70
     1
102
RTVSPropertyOp49
 70
     1
102
RTVSPropertyOp50
 70
     1
102
RTVSPropertyOp51
 70
     0
102
RTVSPropertyOp52
 70
     0
102
RTVSPropertyOp53
 70
     1
102
RTVSPropertyOp54
 70
     1
102
RTVSPropertyOp55
 70
     1
102
RTVSPropertyOp56
 70
     1
102
RTVSPropertyOp57
 70
     1
102
RTVSPost2010Prop28
280
     0
102
RTVSPost2010PropOp28
 70
     1
102
RTVSPost2010Prop29
280
     1
102
RTVSPost2010PropOp29
 70
     1
102
RTVSPost2010Prop30
280
     1
102
RTVSPost2010PropOp30
 70
     1
102
RTVSPost2010Prop31
280
     0
102
RTVSPost2010PropOp31
 70
     1
102
RTVSPost2010Prop32
280
     0
102
RTVSPost2010PropOp32
 70
     1
102
RTVSPost2010Prop33
280
     0
102
RTVSPost2010PropOp33
 70
     1
102
RTVSPost2010Prop34
280
     0
102
RTVSPost2010PropOp34
 70
     1
102
RTVSPost2010Prop35
280
     0
102
RTVSPost2010PropOp35
 70
     1
102
RTVSPost2010Prop36
280
     0
102
RTVSPost2010PropOp36
 70
     1
102
RTVSPost2010Prop37
 90
       50
102
RTVSPost2010PropOp37
 70
     1
102
RTVSPost2010Prop38
140
0.0
102
RTVSPost2010PropOp38
 70
     1
102
RTVSPost2010Prop39
140
1.0
102
RTVSPost2010PropOp39
 70
     1
102
RTVSPost2010Prop40
 90
        0
102
RTVSPost2010PropOp40
 70
     1
102
RTVSPost2010Prop41ColorIndex
 90
       18
102
RTVSPost2010Prop41ColorRGB
 90
        0
102
RTVSPost2010PropOp41
 70
     1
102
RTVSPost2010Prop42
 90
       50
102
RTVSPost2010PropOp42
 70
     1
102
RTVSPost2010Prop43
 90
        3
102
RTVSPost2010PropOp43
 70
     1
102
RTVSPost2010Prop44ColorIndex
 90
        5
102
RTVSPost2010Prop44ColorRGB
 90
      255
102
RTVSPost2010PropOp44
 70
     1
102
RTVSPost2010Prop45
280
     0
102
RTVSPost2010PropOp45
 70
     1
102
RTVSPost2010Prop46
 90
       50
102
RTVSPost2010PropOp46
 70
     1
102
RTVSPost2010Prop47
 90
       50
102
RTVSPost2010PropOp47
 70
     1
102
RTVSPost2010Prop48
 90
       50
102
RTVSPost2010PropOp48
 70
     1
102
RTVSPost2010Prop49
280
     0
102
RTVSPost2010PropOp49
 70
     1
102
RTVSPost2010Prop50
 90
       50
102
RTVSPost2010PropOp50
 70
     1
102
RTVSPost2010Prop51ColorIndex
 90
      256
102
RTVSPost2010Prop51ColorRGB
 90
-16777216
102
RTVSPost2010PropOp51
 70
     0
102
RTVSPost2010Prop52
140
1.0
102
RTVSPost2010PropOp52
 70
     0
102
RTVSPost2010Prop53
 90
        2
102
RTVSPost2010PropOp53
 70
     1
102
RTVSPost2010Prop54
  1
strokes_ogs.tif
102
RTVSPost2010PropOp54
 70
     1
102
RTVSPost2010Prop55
280
     0
102
RTVSPost2010PropOp55
 70
     1
102
RTVSPost2010Prop56
140
1.0
102
RTVSPost2010PropOp56
 70
     1
102
RTVSPost2010Prop57
140
1.0
102
RTVSPost2010PropOp57
 70
     1
  0
XRECORD
  5
1FF3
102
{ACAD_REACTORS
330
1FF2
102
}
330
1FF2
100
AcDbXrecord
280
     1
102
RTVSPropertyOp0
 70
     1
102
RTVSPropertyOp1
 70
     1
102
RTVSPropertyOp2
 70
     1
102
RTVSPropertyOp3
 70
     1
102
RTVSPropertyOp4
 70
     1
102
RTVSPropertyOp5
 70
     1
102
RTVSPropertyOp6
 70
     1
102
RTVSPropertyOp7
 70
     1
102
RTVSPropertyOp8
 70
     1
102
RTVSPropertyOp9
 70
     1
102
RTVSPropertyOp10
 70
     1
102
RTVSPropertyOp11
 70
     1
102
RTVSPropertyOp12
 70
     1
102
RTVSPropertyOp13
 70
     1
102
RTVSPropertyOp14
 70
     1
102
RTVSPropertyOp15
 70
     1
102
RTVSPropertyOp16
 70
     1
102
RTVSPropertyOp17
 70
     1
102
RTVSPropertyOp18
 70
     1
102
RTVSPropertyOp19
 70
     1
102
RTVSPropertyOp20
 70
     1
102
RTVSPropertyOp21
 70
     1
102
RTVSPropertyOp22
 70
     1
102
RTVSPropertyOp23
 70
     1
102
RTVSPropertyOp24
 70
     1
102
RTVSPropertyOp25
 70
     1
102
RTVSPropertyOp26
 70
     1
102
RTVSPropertyOp27
 70
     1
102
RTVSPropertyOp28
 70
     1
102
RTVSPropertyOp29
 70
     1
102
RTVSPropertyOp30
 70
     1
102
RTVSPropertyOp31
 70
     1
102
RTVSPropertyOp32
 70
     1
102
RTVSPropertyOp33
 70
     1
102
RTVSPropertyOp34
 70
     1
102
RTVSPropertyOp35
 70
     1
102
RTVSPropertyOp36
 70
     1
102
RTVSPropertyOp37
 70
     1
102
RTVSPropertyOp38
 70
     1
102
RTVSPropertyOp39
 70
     1
102
RTVSPropertyOp40
 70
     1
102
RTVSPropertyOp41
 70
     1
102
RTVSPropertyOp42
 70
     1
102
RTVSPropertyOp43
 70
     1
102
RTVSPropertyOp44
 70
     1
102
RTVSPropertyOp45
 70
     1
102
RTVSPropertyOp46
 70
     1
102
RTVSPropertyOp47
 70
     1
102
RTVSPropertyOp48
 70
     1
102
RTVSPropertyOp49
 70
     1
102
RTVSPropertyOp50
 70
     1
102
RTVSPropertyOp51
 70
     0
102
RTVSPropertyOp52
 70
     0
102
RTVSPropertyOp53
 70
     1
102
RTVSPropertyOp54
 70
     1
102
RTVSPropertyOp55
 70
     1
102
RTVSPropertyOp56
 70
     1
102
RTVSPropertyOp57
 70
     1
102
RTVSPost2010Prop28
280
     0
102
RTVSPost2010PropOp28
 70
     1
102
RTVSPost2010Prop29
280
     1
102
RTVSPost2010PropOp29
 70
     1
102
RTVSPost2010Prop30
280
     1
102
RTVSPost2010PropOp30
 70
     1
102
RTVSPost2010Prop31
280
     0
102
RTVSPost2010PropOp31
 70
     1
102
RTVSPost2010Prop32
280
     0
102
RTVSPost2010PropOp32
 70
     1
102
RTVSPost2010Prop33
280
     0
102
RTVSPost2010PropOp33
 70
     1
102
RTVSPost2010Prop34
280
     0
102
RTVSPost2010PropOp34
 70
     1
102
RTVSPost2010Prop35
280
     0
102
RTVSPost2010PropOp35
 70
     1
102
RTVSPost2010Prop36
280
     0
102
RTVSPost2010PropOp36
 70
     1
102
RTVSPost2010Prop37
 90
       50
102
RTVSPost2010PropOp37
 70
     1
102
RTVSPost2010Prop38
140
0.0
102
RTVSPost2010PropOp38
 70
     1
102
RTVSPost2010Prop39
140
1.0
102
RTVSPost2010PropOp39
 70
     1
102
RTVSPost2010Prop40
 90
        0
102
RTVSPost2010PropOp40
 70
     1
102
RTVSPost2010Prop41ColorIndex
 90
       18
102
RTVSPost2010Prop41ColorRGB
 90
        0
102
RTVSPost2010PropOp41
 70
     1
102
RTVSPost2010Prop42
 90
       50
102
RTVSPost2010PropOp42
 70
     1
102
RTVSPost2010Prop43
 90
        3
102
RTVSPost2010PropOp43
 70
     1
102
RTVSPost2010Prop44ColorIndex
 90
        5
102
RTVSPost2010Prop44ColorRGB
 90
      255
102
RTVSPost2010PropOp44
 70
     1
102
RTVSPost2010Prop45
280
     0
102
RTVSPost2010PropOp45
 70
     1
102
RTVSPost2010Prop46
 90
       50
102
RTVSPost2010PropOp46
 70
     1
102
RTVSPost2010Prop47
 90
       50
102
RTVSPost2010PropOp47
 70
     1
102
RTVSPost2010Prop48
 90
       50
102
RTVSPost2010PropOp48
 70
     1
102
RTVSPost2010Prop49
280
     0
102
RTVSPost2010PropOp49
 70
     1
102
RTVSPost2010Prop50
 90
       50
102
RTVSPost2010PropOp50
 70
     1
102
RTVSPost2010Prop51ColorIndex
 90
      256
102
RTVSPost2010Prop51ColorRGB
 90
-16777216
102
RTVSPost2010PropOp51
 70
     0
102
RTVSPost2010Prop52
140
1.0
102
RTVSPost2010PropOp52
 70
     0
102
RTVSPost2010Prop53
 90
        2
102
RTVSPost2010PropOp53
 70
     1
102
RTVSPost2010Prop54
  1
strokes_ogs.tif
102
RTVSPost2010PropOp54
 70
     1
102
RTVSPost2010Prop55
280
     0
102
RTVSPost2010PropOp55
 70
     1
102
RTVSPost2010Prop56
140
1.0
102
RTVSPost2010PropOp56
 70
     1
102
RTVSPost2010Prop57
140
1.0
102
RTVSPost2010PropOp57
 70
     1
  0
XRECORD
  5
1FF5
102
{ACAD_REACTORS
330
1FF4
102
}
330
1FF4
100
AcDbXrecord
280
     1
102
RTVSPropertyOp0
 70
     1
102
RTVSPropertyOp1
 70
     1
102
RTVSPropertyOp2
 70
     1
102
RTVSPropertyOp3
 70
     1
102
RTVSPropertyOp4
 70
     1
102
RTVSPropertyOp5
 70
     1
102
RTVSPropertyOp6
 70
     1
102
RTVSPropertyOp7
 70
     1
102
RTVSPropertyOp8
 70
     1
102
RTVSPropertyOp9
 70
     1
102
RTVSPropertyOp10
 70
     1
102
RTVSPropertyOp11
 70
     1
102
RTVSPropertyOp12
 70
     1
102
RTVSPropertyOp13
 70
     1
102
RTVSPropertyOp14
 70
     1
102
RTVSPropertyOp15
 70
     1
102
RTVSPropertyOp16
 70
     1
102
RTVSPropertyOp17
 70
     1
102
RTVSPropertyOp18
 70
     1
102
RTVSPropertyOp19
 70
     1
102
RTVSPropertyOp20
 70
     1
102
RTVSPropertyOp21
 70
     1
102
RTVSPropertyOp22
 70
     1
102
RTVSPropertyOp23
 70
     1
102
RTVSPropertyOp24
 70
     1
102
RTVSPropertyOp25
 70
     1
102
RTVSPropertyOp26
 70
     1
102
RTVSPropertyOp27
 70
     1
102
RTVSPropertyOp28
 70
     1
102
RTVSPropertyOp29
 70
     1
102
RTVSPropertyOp30
 70
     1
102
RTVSPropertyOp31
 70
     1
102
RTVSPropertyOp32
 70
     1
102
RTVSPropertyOp33
 70
     1
102
RTVSPropertyOp34
 70
     1
102
RTVSPropertyOp35
 70
     1
102
RTVSPropertyOp36
 70
     1
102
RTVSPropertyOp37
 70
     1
102
RTVSPropertyOp38
 70
     1
102
RTVSPropertyOp39
 70
     1
102
RTVSPropertyOp40
 70
     1
102
RTVSPropertyOp41
 70
     1
102
RTVSPropertyOp42
 70
     1
102
RTVSPropertyOp43
 70
     1
102
RTVSPropertyOp44
 70
     1
102
RTVSPropertyOp45
 70
     1
102
RTVSPropertyOp46
 70
     1
102
RTVSPropertyOp47
 70
     1
102
RTVSPropertyOp48
 70
     1
102
RTVSPropertyOp49
 70
     1
102
RTVSPropertyOp50
 70
     1
102
RTVSPropertyOp51
 70
     0
102
RTVSPropertyOp52
 70
     0
102
RTVSPropertyOp53
 70
     1
102
RTVSPropertyOp54
 70
     1
102
RTVSPropertyOp55
 70
     1
102
RTVSPropertyOp56
 70
     1
102
RTVSPropertyOp57
 70
     1
102
RTVSPost2010Prop28
280
     0
102
RTVSPost2010PropOp28
 70
     1
102
RTVSPost2010Prop29
280
     1
102
RTVSPost2010PropOp29
 70
     1
102
RTVSPost2010Prop30
280
     1
102
RTVSPost2010PropOp30
 70
     1
102
RTVSPost2010Prop31
280
     0
102
RTVSPost2010PropOp31
 70
     1
102
RTVSPost2010Prop32
280
     0
102
RTVSPost2010PropOp32
 70
     1
102
RTVSPost2010Prop33
280
     0
102
RTVSPost2010PropOp33
 70
     1
102
RTVSPost2010Prop34
280
     0
102
RTVSPost2010PropOp34
 70
     1
102
RTVSPost2010Prop35
280
     0
102
RTVSPost2010PropOp35
 70
     1
102
RTVSPost2010Prop36
280
     0
102
RTVSPost2010PropOp36
 70
     1
102
RTVSPost2010Prop37
 90
       50
102
RTVSPost2010PropOp37
 70
     1
102
RTVSPost2010Prop38
140
0.0
102
RTVSPost2010PropOp38
 70
     1
102
RTVSPost2010Prop39
140
1.0
102
RTVSPost2010PropOp39
 70
     1
102
RTVSPost2010Prop40
 90
        0
102
RTVSPost2010PropOp40
 70
     1
102
RTVSPost2010Prop41ColorIndex
 90
       18
102
RTVSPost2010Prop41ColorRGB
 90
        0
102
RTVSPost2010PropOp41
 70
     1
102
RTVSPost2010Prop42
 90
       50
102
RTVSPost2010PropOp42
 70
     1
102
RTVSPost2010Prop43
 90
        3
102
RTVSPost2010PropOp43
 70
     1
102
RTVSPost2010Prop44ColorIndex
 90
        5
102
RTVSPost2010Prop44ColorRGB
 90
      255
102
RTVSPost2010PropOp44
 70
     1
102
RTVSPost2010Prop45
280
     0
102
RTVSPost2010PropOp45
 70
     1
102
RTVSPost2010Prop46
 90
       50
102
RTVSPost2010PropOp46
 70
     1
102
RTVSPost2010Prop47
 90
       50
102
RTVSPost2010PropOp47
 70
     1
102
RTVSPost2010Prop48
 90
       50
102
RTVSPost2010PropOp48
 70
     1
102
RTVSPost2010Prop49
280
     0
102
RTVSPost2010PropOp49
 70
     1
102
RTVSPost2010Prop50
 90
       50
102
RTVSPost2010PropOp50
 70
     1
102
RTVSPost2010Prop51ColorIndex
 90
      256
102
RTVSPost2010Prop51ColorRGB
 90
-16777216
102
RTVSPost2010PropOp51
 70
     0
102
RTVSPost2010Prop52
140
1.0
102
RTVSPost2010PropOp52
 70
     0
102
RTVSPost2010Prop53
 90
        2
102
RTVSPost2010PropOp53
 70
     1
102
RTVSPost2010Prop54
  1
strokes_ogs.tif
102
RTVSPost2010PropOp54
 70
     1
102
RTVSPost2010Prop55
280
     0
102
RTVSPost2010PropOp55
 70
     1
102
RTVSPost2010Prop56
140
1.0
102
RTVSPost2010PropOp56
 70
     1
102
RTVSPost2010Prop57
140
1.0
102
RTVSPost2010PropOp57
 70
     1
  0
ENDSEC
  0
EOF
