  0
SECTION
  2
HEADER
  9
$ACADVER
  1
AC1015
  9
$ACADMAINTVER
 70
     6
  9
$DWGCODEPAGE
  3
ANSI_932
  9
$INSBASE
 10
0.0
 20
0.0
 30
0.0
  9
$EXTMIN
 10
-138.5
 20
-90.0
 30
0.0
  9
$EXTMAX
 10
138.5
 20
98.472617
 30
0.0
  9
$LIMMIN
 10
-138.501
 20
-90.001
  9
$LIMMAX
 10
138.510415
 20
98.47361800000002
  9
$ORTHOMODE
 70
     1
  9
$REGENMODE
 70
     1
  9
$FILLMODE
 70
     1
  9
$QTEXTMODE
 70
     0
  9
$MIRRTEXT
 70
     0
  9
$LTSCALE
 40
4.616823999999998
  9
$ATTMODE
 70
     1
  9
$TEXTSIZE
 40
3.5
  9
$TRACEWID
 40
0.05
  9
$TEXTSTYLE
  7
高3.2
  9
$CLAYER
  8
0
  9
$CELTYPE
  6
CONTINUOUS
  9
$CECOLOR
 62
   256
  9
$CELTSCALE
 40
1.0
  9
$DISPSILH
 70
     0
  9
$DIMSCALE
 40
1.0
  9
$DIMASZ
 40
2.5
  9
$DIMEXO
 40
0.25
  9
$DIMDLI
 40
0.2
  9
$DIMRND
 40
0.0
  9
$DIMDLE
 40
0.0
  9
$DIMEXE
 40
1.25
  9
$DIMTP
 40
0.0
  9
$DIMTM
 40
0.0
  9
$DIMTXT
 40
3.0
  9
$DIMCEN
 40
0.0
  9
$DIMTSZ
 40
0.0
  9
$DIMTOL
 70
     0
  9
$DIMLIM
 70
     0
  9
$DIMTIH
 70
     0
  9
$DIMTOH
 70
     0
  9
$DIMSE1
 70
     0
  9
$DIMSE2
 70
     0
  9
$DIMTAD
 70
     3
  9
$DIMZIN
 70
     8
  9
$DIMBLK
  1
Open30
  9
$DIMASO
 70
     1
  9
$DIMSHO
 70
     1
  9
$DIMPOST
  1

  9
$DIMAPOST
  1

  9
$DIMALT
 70
     0
  9
$DIMALTD
 70
     3
  9
$DIMALTF
 40
0.03937007874016
  9
$DIMLFAC
 40
5.0
  9
$DIMTOFL
 70
     1
  9
$DIMTVP
 40
0.0
  9
$DIMTIX
 70
     0
  9
$DIMSOXD
 70
     0
  9
$DIMSAH
 70
     0
  9
$DIMBLK1
  1

  9
$DIMBLK2
  1

  9
$DIMSTYLE
  2
1／5
  9
$DIMCLRD
 70
     0
  9
$DIMCLRE
 70
     0
  9
$DIMCLRT
 70
     4
  9
$DIMTFAC
 40
1.0
  9
$DIMGAP
 40
0.625
  9
$DIMJUST
 70
     0
  9
$DIMSD1
 70
     0
  9
$DIMSD2
 70
     0
  9
$DIMTOLJ
 70
     0
  9
$DIMTZIN
 70
     8
  9
$DIMALTZ
 70
     0
  9
$DIMALTTZ
 70
     0
  9
$DIMUPT
 70
     1
  9
$DIMDEC
 70
     2
  9
$DIMTDEC
 70
     2
  9
$DIMALTU
 70
     2
  9
$DIMALTTD
 70
     3
  9
$DIMTXSTY
  7
STANDARD
  9
$DIMAUNIT
 70
     0
  9
$DIMADEC
 70
     1
  9
$DIMALTRND
 40
0.0
  9
$DIMAZIN
 70
     2
  9
$DIMDSEP
 70
    46
  9
$DIMATFIT
 70
     0
  9
$DIMFRAC
 70
     0
  9
$DIMLDRBLK
  1
Open30
  9
$DIMLUNIT
 70
     2
  9
$DIMLWD
 70
    -2
  9
$DIMLWE
 70
    -2
  9
$DIMTMOVE
 70
     0
  9
$LUNITS
 70
     2
  9
$LUPREC
 70
     4
  9
$SKETCHINC
 40
0.1
  9
$FILLETRAD
 40
0.0
  9
$AUNITS
 70
     0
  9
$AUPREC
 70
     0
  9
$MENU
  1
.
  9
$ELEVATION
 40
0.0
  9
$PELEVATION
 40
0.0
  9
$THICKNESS
 40
0.0
  9
$LIMCHECK
 70
     0
  9
$CHAMFERA
 40
0.0
  9
$CHAMFERB
 40
0.0
  9
$CHAMFERC
 40
0.0
  9
$CHAMFERD
 40
0.0
  9
$SKPOLY
 70
     0
  9
$TDCREATE
 40
2455663.755508704
  9
$TDUCREATE
 40
2455663.380508704
  9
$TDUPDATE
 40
2460074.76050338
  9
$TDUUPDATE
 40
2460074.38550338
  9
$TDINDWG
 40
0.0574545949
  9
$TDUSRTIMER
 40
0.0574397685
  9
$USRTIMER
 70
     1
  9
$ANGBASE
 50
0.0
  9
$ANGDIR
 70
     0
  9
$PDMODE
 70
     0
  9
$PDSIZE
 40
0.0
  9
$PLINEWID
 40
0.0
  9
$SPLFRAME
 70
     0
  9
$SPLINETYPE
 70
     6
  9
$SPLINESEGS
 70
     8
  9
$HANDSEED
  5
DE8
  9
$SURFTAB1
 70
     6
  9
$SURFTAB2
 70
     6
  9
$SURFTYPE
 70
     6
  9
$SURFU
 70
     6
  9
$SURFV
 70
     6
  9
$UCSBASE
  2

  9
$UCSNAME
  2

  9
$UCSORG
 10
0.0
 20
0.0
 30
0.0
  9
$UCSXDIR
 10
1.0
 20
0.0
 30
0.0
  9
$UCSYDIR
 10
0.0
 20
1.0
 30
0.0
  9
$UCSORTHOREF
  2

  9
$UCSORTHOVIEW
 70
     0
  9
$UCSORGTOP
 10
0.0
 20
0.0
 30
0.0
  9
$UCSORGBOTTOM
 10
0.0
 20
0.0
 30
0.0
  9
$UCSORGLEFT
 10
0.0
 20
0.0
 30
0.0
  9
$UCSORGRIGHT
 10
0.0
 20
0.0
 30
0.0
  9
$UCSORGFRONT
 10
0.0
 20
0.0
 30
0.0
  9
$UCSORGBACK
 10
0.0
 20
0.0
 30
0.0
  9
$PUCSBASE
  2

  9
$PUCSNAME
  2

  9
$PUCSORG
 10
0.0
 20
0.0
 30
0.0
  9
$PUCSXDIR
 10
1.0
 20
0.0
 30
0.0
  9
$PUCSYDIR
 10
0.0
 20
1.0
 30
0.0
  9
$PUCSORTHOREF
  2

  9
$PUCSORTHOVIEW
 70
     0
  9
$PUCSORGTOP
 10
0.0
 20
0.0
 30
0.0
  9
$PUCSORGBOTTOM
 10
0.0
 20
0.0
 30
0.0
  9
$PUCSORGLEFT
 10
0.0
 20
0.0
 30
0.0
  9
$PUCSORGRIGHT
 10
0.0
 20
0.0
 30
0.0
  9
$PUCSORGFRONT
 10
0.0
 20
0.0
 30
0.0
  9
$PUCSORGBACK
 10
0.0
 20
0.0
 30
0.0
  9
$USERI1
 70
     0
  9
$USERI2
 70
     0
  9
$USERI3
 70
     0
  9
$USERI4
 70
     0
  9
$USERI5
 70
     0
  9
$USERR1
 40
0.0
  9
$USERR2
 40
0.0
  9
$USERR3
 40
0.0
  9
$USERR4
 40
0.0
  9
$USERR5
 40
0.0
  9
$WORLDVIEW
 70
     1
  9
$SHADEDGE
 70
     3
  9
$SHADEDIF
 70
    70
  9
$TILEMODE
 70
     1
  9
$MAXACTVP
 70
    64
  9
$PINSBASE
 10
0.0
 20
0.0
 30
0.0
  9
$PLIMCHECK
 70
     0
  9
$PEXTMIN
 10
1.000000000000000E+20
 20
1.000000000000000E+20
 30
1.000000000000000E+20
  9
$PEXTMAX
 10
-1.000000000000000E+20
 20
-1.000000000000000E+20
 30
-1.000000000000000E+20
  9
$PLIMMIN
 10
0.0
 20
0.0
  9
$PLIMMAX
 10
12.0
 20
9.0
  9
$UNITMODE
 70
     0
  9
$VISRETAIN
 70
     1
  9
$PLINEGEN
 70
     0
  9
$PSLTSCALE
 70
     1
  9
$TREEDEPTH
 70
  3020
  9
$CMLSTYLE
  2
Standard
  9
$CMLJUST
 70
     0
  9
$CMLSCALE
 40
1.0
  9
$PROXYGRAPHICS
 70
     1
  9
$MEASUREMENT
 70
     0
  9
$CELWEIGHT
370
    -1
  9
$ENDCAPS
280
     0
  9
$JOINSTYLE
280
     0
  9
$LWDISPLAY
290
     0
  9
$INSUNITS
 70
     0
  9
$HYPERLINKBASE
  1

  9
$STYLESHEET
  1

  9
$XEDIT
290
     1
  9
$CEPSNTYPE
380
     0
  9
$PSTYLEMODE
290
     1
  9
$FINGERPRINTGUID
  2
{17495A3A-EEEB-459E-B9E4-85BF39D2D2D6}
  9
$VERSIONGUID
  2
{F8083D55-9A4E-418E-B05E-03058D029F6C}
  9
$EXTNAMES
290
     1
  9
$PSVPSCALE
 40
0.0
  9
$OLESTARTUP
290
     0
  0
ENDSEC
  0
SECTION
  2
CLASSES
  0
CLASS
  1
ACDBDICTIONARYWDFLT
  2
AcDbDictionaryWithDefault
  3
ObjectDBX Classes
 90
        0
280
     0
281
     0
  0
CLASS
  1
MATERIAL
  2
AcDbMaterial
  3
ObjectDBX Classes
 90
     1153
280
     0
281
     0
  0
CLASS
  1
VISUALSTYLE
  2
AcDbVisualStyle
  3
ObjectDBX Classes
 90
     4095
280
     0
281
     0
  0
CLASS
  1
SCALE
  2
AcDbScale
  3
ObjectDBX Classes
 90
     1153
280
     0
281
     0
  0
CLASS
  1
TABLESTYLE
  2
AcDbTableStyle
  3
ObjectDBX Classes
 90
     4095
280
     0
281
     0
  0
CLASS
  1
MLEADERSTYLE
  2
AcDbMLeaderStyle
  3
ACDB_MLEADERSTYLE_CLASS
 90
     4095
280
     0
281
     0
  0
CLASS
  1
DICTIONARYVAR
  2
AcDbDictionaryVar
  3
ObjectDBX Classes
 90
        0
280
     0
281
     0
  0
CLASS
  1
CELLSTYLEMAP
  2
AcDbCellStyleMap
  3
ObjectDBX Classes
 90
     1152
280
     0
281
     0
  0
CLASS
  1
ACDBPLACEHOLDER
  2
AcDbPlaceHolder
  3
ObjectDBX Classes
 90
        0
280
     0
281
     0
  0
CLASS
  1
LAYOUT
  2
AcDbLayout
  3
ObjectDBX Classes
 90
        0
280
     0
281
     0
  0
CLASS
  1
SORTENTSTABLE
  2
AcDbSortentsTable
  3
ObjectDBX Classes
 90
        0
280
     0
281
     0
  0
ENDSEC
  0
SECTION
  2
TABLES
  0
TABLE
  2
VPORT
  5
8
102
{ACAD_XDICTIONARY
360
DA9
102
}
330
0
100
AcDbSymbolTable
 70
     1
  0
VPORT
  5
8C
330
8
100
AcDbSymbolTableRecord
100
AcDbViewportTableRecord
  2
*Active
 70
     0
 10
0.0
 20
0.0
 11
1.0
 21
1.0
 12
0.0000000000000249
 22
4.236308499999986
 13
0.0
 23
0.0
 14
1.0
 24
1.0
 15
0.0
 25
0.0
 16
0.0
 26
0.0
 36
1.0
 17
0.0
 27
0.0
 37
0.0
 40
267.1880108991825
 41
1.048022598870056
 42
50.0
 43
0.0
 44
0.0
 50
0.0
 51
0.0
 71
     0
 72
  1000
 73
     1
 74
     1
 75
     0
 76
     0
 77
     0
 78
     0
281
     0
 65
     1
110
0.0
120
0.0
130
0.0
111
1.0
121
0.0
131
0.0
112
0.0
122
1.0
132
0.0
 79
     0
146
0.0
  0
ENDTAB
  0
TABLE
  2
LTYPE
  5
5
330
0
100
AcDbSymbolTable
 70
     2
  0
LTYPE
  5
5A
330
5
100
AcDbSymbolTableRecord
100
AcDbLinetypeTableRecord
  2
ByBlock
 70
     0
  3

 72
    65
 73
     0
 40
0.0
  0
LTYPE
  5
5B
330
5
100
AcDbSymbolTableRecord
100
AcDbLinetypeTableRecord
  2
ByLayer
 70
     0
  3

 72
    65
 73
     0
 40
0.0
  0
LTYPE
  5
5C
330
5
100
AcDbSymbolTableRecord
100
AcDbLinetypeTableRecord
  2
CONTINUOUS
 70
     0
  3
Solid-line
 72
    65
 73
     0
 40
0.0
  0
LTYPE
  5
84
330
5
100
AcDbSymbolTableRecord
100
AcDbLinetypeTableRecord
  2
PHANTOM
 70
     0
  3
PHANTOM
 72
    65
 73
     6
 40
2.5
 49
1.25
 74
     0
 49
-0.25
 74
     0
 49
0.25
 74
     0
 49
-0.25
 74
     0
 49
0.25
 74
     0
 49
-0.25
 74
     0
  0
ENDTAB
  0
TABLE
  2
LAYER
  5
2
102
{ACAD_XDICTIONARY
360
3A8
102
}
330
0
100
AcDbSymbolTable
 70
     2
  0
LAYER
  5
54
102
{ACAD_XDICTIONARY
360
53E
102
}
330
2
100
AcDbSymbolTableRecord
100
AcDbLayerTableRecord
  2
0
 70
     0
 62
     7
  6
CONTINUOUS
370
    -3
390
F
  0
LAYER
  5
393
330
2
100
AcDbSymbolTableRecord
100
AcDbLayerTableRecord
  2
Defpoints
 70
     0
 62
     7
  6
CONTINUOUS
290
     0
370
    -3
390
F
  0
ENDTAB
  0
TABLE
  2
STYLE
  5
3
330
0
100
AcDbSymbolTable
 70
     6
  0
STYLE
  5
55
330
3
100
AcDbSymbolTableRecord
100
AcDbTextStyleTableRecord
  2
STANDARD
 70
     0
 40
0.0
 41
1.0
 50
0.0
 71
     0
 42
0.2
  3
TXT
  4
BIGFONT
  0
STYLE
  5
394
330
3
100
AcDbSymbolTableRecord
100
AcDbTextStyleTableRecord
  2
高3.2
 70
     0
 40
3.2
 41
1.0
 50
0.0
 71
     0
 42
3.5
  3
txt.shx
  4
bigfont.shx
  0
STYLE
  5
395
330
3
100
AcDbSymbolTableRecord
100
AcDbTextStyleTableRecord
  2
高6.3
 70
     0
 40
6.299999999999998
 41
1.0
 50
0.0
 71
     0
 42
6.299999999999998
  3
txt.shx
  4
bigfont.shx
  0
STYLE
  5
396
330
3
100
AcDbSymbolTableRecord
100
AcDbTextStyleTableRecord
  2
高2.5
 70
     0
 40
2.5
 41
1.0
 50
0.0
 71
     0
 42
0.2
  3
txt.shx
  4
bigfont.shx
  0
STYLE
  5
397
330
3
100
AcDbSymbolTableRecord
100
AcDbTextStyleTableRecord
  2
高4.5
 70
     0
 40
4.5
 41
1.0
 50
0.0
 71
     0
 42
6.299999999999998
  3
txt.shx
  4
bigfont.shx
  0
STYLE
  5
398
330
3
100
AcDbSymbolTableRecord
100
AcDbTextStyleTableRecord
  2
高2
 70
     0
 40
2.0
 41
1.0
 50
0.0
 71
     0
 42
6.299999999999998
  3
txt.shx
  4
bigfont.shx
  0
ENDTAB
  0
TABLE
  2
VIEW
  5
6
330
0
100
AcDbSymbolTable
 70
     0
  0
ENDTAB
  0
TABLE
  2
UCS
  5
7
330
0
100
AcDbSymbolTable
 70
     0
  0
ENDTAB
  0
TABLE
  2
APPID
  5
9
330
0
100
AcDbSymbolTable
 70
    12
  0
APPID
  5
56
330
9
100
AcDbSymbolTableRecord
100
AcDbRegAppTableRecord
  2
ACAD
 70
     0
  0
APPID
  5
5D
330
9
100
AcDbSymbolTableRecord
100
AcDbRegAppTableRecord
  2
AcadAnnotative
 70
     0
  0
APPID
  5
3A3
330
9
100
AcDbSymbolTableRecord
100
AcDbRegAppTableRecord
  2
ACAD_DSTYLE_DIMJOGGED_JOGANGLE_SYMBOL
 70
     0
  0
APPID
  5
3A4
330
9
100
AcDbSymbolTableRecord
100
AcDbRegAppTableRecord
  2
ACAD_DSTYLE_DIMJAG
 70
     0
  0
APPID
  5
3A5
330
9
100
AcDbSymbolTableRecord
100
AcDbRegAppTableRecord
  2
ACAD_DSTYLE_DIMBREAK
 70
     0
  0
APPID
  5
3A6
330
9
100
AcDbSymbolTableRecord
100
AcDbRegAppTableRecord
  2
ACAD_DSTYLE_DIMTALN
 70
     0
  0
APPID
  5
4B8
330
9
100
AcDbSymbolTableRecord
100
AcDbRegAppTableRecord
  2
ACAD_EXEMPT_FROM_CAD_STANDARDS
 70
     0
  0
APPID
  5
588
330
9
100
AcDbSymbolTableRecord
100
AcDbRegAppTableRecord
  2
ACAD_MLEADERVER
 70
     0
  0
APPID
  5
58D
330
9
100
AcDbSymbolTableRecord
100
AcDbRegAppTableRecord
  2
ACAD_DSTYLE_DIMARC_LENGTH_SYMBOL
 70
     0
  0
APPID
  5
58E
330
9
100
AcDbSymbolTableRecord
100
AcDbRegAppTableRecord
  2
ACAD_DSTYLE_DIMEXT_LENGTH
 70
     0
  0
APPID
  5
6B2
330
9
100
AcDbSymbolTableRecord
100
AcDbRegAppTableRecord
  2
AcadAnnoPO
 70
     0
  0
APPID
  5
D39
330
9
100
AcDbSymbolTableRecord
100
AcDbRegAppTableRecord
  2
ACAD_PSEXT
 70
     0
  0
ENDTAB
  0
TABLE
  2
DIMSTYLE
  5
A
330
0
100
AcDbSymbolTable
 70
    11
100
AcDbDimStyleTable
  0
DIMSTYLE
105
57
330
A
100
AcDbSymbolTableRecord
100
AcDbDimStyleTableRecord
  2
Standard
 70
     0
178
     0
340
55
  0
DIMSTYLE
105
399
330
A
100
AcDbSymbolTableRecord
100
AcDbDimStyleTableRecord
  2
1：1
 70
     0
 41
2.5
 42
0.25
 43
0.2
 44
1.25
 73
     0
 74
     0
 77
     3
 78
     8
 79
     2
140
3.0
141
0.0
143
0.03937007874016
147
0.625
171
     3
172
     1
271
     2
178
     4
179
     1
271
     2
272
     2
274
     3
283
     0
284
     8
288
     1
289
     0
340
55
341
303
342
303
1001
ACAD_DSTYLE_DIMJOGGED_JOGANGLE_SYMBOL
1070
   384
1040
1.570796326794896
1001
ACAD_DSTYLE_DIMARC_LENGTH_SYMBOL
1070
   379
1070
     2
  0
DIMSTYLE
105
39A
330
A
100
AcDbSymbolTableRecord
100
AcDbDimStyleTableRecord
  2
2：1
 70
     0
 41
2.5
 42
0.25
 43
0.2
 44
1.25
 73
     0
 74
     0
 77
     3
 78
     8
 79
     2
140
3.0
141
0.0
143
0.03937007874016
144
0.5
147
0.625
171
     3
172
     1
271
     2
178
     4
179
     1
271
     2
272
     2
274
     3
283
     0
284
     8
288
     1
289
     0
340
55
341
303
342
303
1001
ACAD_DSTYLE_DIMJOGGED_JOGANGLE_SYMBOL
1070
   384
1040
1.570796326794896
1001
ACAD_DSTYLE_DIMARC_LENGTH_SYMBOL
1070
   379
1070
     2
  0
DIMSTYLE
105
39B
330
A
100
AcDbSymbolTableRecord
100
AcDbDimStyleTableRecord
  2
5：1
 70
     0
 41
2.5
 42
0.25
 43
0.2
 44
1.25
 73
     0
 74
     0
 77
     3
 78
     8
 79
     2
140
3.0
141
0.0
143
0.03937007874016
144
0.2
147
0.625
171
     3
172
     1
271
     2
178
     4
179
     1
271
     2
272
     2
274
     3
283
     0
284
     8
288
     1
289
     0
340
55
341
303
342
303
1001
ACAD_DSTYLE_DIMJOGGED_JOGANGLE_SYMBOL
1070
   384
1040
1.570796326794896
1001
ACAD_DSTYLE_DIMARC_LENGTH_SYMBOL
1070
   379
1070
     2
  0
DIMSTYLE
105
39C
330
A
100
AcDbSymbolTableRecord
100
AcDbDimStyleTableRecord
  2
10：1
 70
     0
 41
2.5
 42
0.25
 43
0.2
 44
1.25
 73
     0
 74
     0
 77
     3
 78
     8
 79
     2
140
3.0
141
0.0
143
0.03937007874016
144
0.1
147
0.625
171
     3
172
     1
271
     2
178
     4
179
     1
271
     2
272
     2
274
     3
283
     0
284
     8
288
     1
289
     0
340
55
341
303
342
303
1001
ACAD_DSTYLE_DIMJOGGED_JOGANGLE_SYMBOL
1070
   384
1040
1.570796326794896
1001
ACAD_DSTYLE_DIMARC_LENGTH_SYMBOL
1070
   379
1070
     2
  0
DIMSTYLE
105
39D
330
A
100
AcDbSymbolTableRecord
100
AcDbDimStyleTableRecord
  2
1／2
 70
     0
 41
2.5
 42
0.25
 43
0.2
 44
1.25
 73
     0
 74
     0
 77
     3
 78
     8
 79
     2
140
3.0
141
0.0
143
0.03937007874016
144
2.0
147
0.625
171
     3
172
     1
271
     2
178
     4
179
     1
271
     2
272
     2
274
     3
283
     0
284
     8
288
     1
289
     0
340
55
341
303
342
303
1001
ACAD_DSTYLE_DIMJOGGED_JOGANGLE_SYMBOL
1070
   384
1040
1.570796326794896
1001
ACAD_DSTYLE_DIMARC_LENGTH_SYMBOL
1070
   379
1070
     2
  0
DIMSTYLE
105
39E
330
A
100
AcDbSymbolTableRecord
100
AcDbDimStyleTableRecord
  2
1／5
 70
     0
 41
2.5
 42
0.25
 43
0.2
 44
1.25
 73
     0
 74
     0
 77
     3
 78
     8
 79
     2
140
3.0
141
0.0
143
0.03937007874016
144
5.0
147
0.625
171
     3
172
     1
271
     2
178
     4
179
     1
271
     2
272
     2
274
     3
283
     0
284
     8
288
     1
289
     0
340
55
341
303
342
303
1001
ACAD_DSTYLE_DIMJOGGED_JOGANGLE_SYMBOL
1070
   384
1040
1.570796326794896
1001
ACAD_DSTYLE_DIMARC_LENGTH_SYMBOL
1070
   379
1070
     2
  0
DIMSTYLE
105
39F
330
A
100
AcDbSymbolTableRecord
100
AcDbDimStyleTableRecord
  2
1／10
 70
     0
 41
2.5
 42
0.25
 43
0.2
 44
1.25
 73
     0
 74
     0
 77
     3
 78
     8
 79
     2
140
3.0
141
0.0
143
0.03937007874016
144
10.0
147
0.625
171
     3
172
     1
271
     2
178
     4
179
     1
271
     2
272
     2
274
     3
283
     0
284
     8
288
     1
289
     0
340
55
341
303
342
303
1001
ACAD_DSTYLE_DIMJOGGED_JOGANGLE_SYMBOL
1070
   384
1040
1.570796326794896
1001
ACAD_DSTYLE_DIMARC_LENGTH_SYMBOL
1070
   379
1070
     2
  0
DIMSTYLE
105
3A0
330
A
100
AcDbSymbolTableRecord
100
AcDbDimStyleTableRecord
  2
1／4
 70
     0
 41
2.5
 42
0.25
 43
0.2
 44
1.25
 73
     0
 74
     0
 77
     3
 78
     8
 79
     2
140
3.0
141
0.0
143
0.03937007874016
144
4.0
147
0.625
171
     3
172
     1
271
     2
178
     4
179
     1
271
     2
272
     2
274
     3
283
     0
284
     8
288
     1
289
     0
340
55
341
303
342
303
1001
ACAD_DSTYLE_DIMJOGGED_JOGANGLE_SYMBOL
1070
   384
1040
1.570796326794896
1001
ACAD_DSTYLE_DIMARC_LENGTH_SYMBOL
1070
   379
1070
     2
  0
DIMSTYLE
105
3A1
330
A
100
AcDbSymbolTableRecord
100
AcDbDimStyleTableRecord
  2
1／3
 70
     0
 41
2.5
 42
0.25
 43
0.2
 44
1.25
 73
     0
 74
     0
 77
     3
 78
     8
 79
     2
140
3.0
141
0.0
143
0.03937007874016
144
3.0
147
0.625
171
     3
172
     1
271
     2
178
     4
179
     1
271
     2
272
     2
274
     3
283
     0
284
     8
288
     1
289
     0
340
55
341
303
342
303
1001
ACAD_DSTYLE_DIMJOGGED_JOGANGLE_SYMBOL
1070
   384
1040
1.570796326794896
1001
ACAD_DSTYLE_DIMARC_LENGTH_SYMBOL
1070
   379
1070
     2
  0
DIMSTYLE
105
3A2
102
{ACAD_REACTORS
330
A24
330
A25
330
A26
330
A27
330
A28
330
A29
102
}
330
A
100
AcDbSymbolTableRecord
100
AcDbDimStyleTableRecord
  2
FREE
 70
     0
 41
2.5
 42
0.25
 43
0.2
 44
1.25
 73
     0
 74
     0
 77
     3
 78
     8
 79
     2
140
3.0
141
0.0
143
0.03937007874016
147
0.625
171
     3
172
     1
271
     2
178
     4
179
     1
271
     2
272
     2
274
     3
283
     0
284
     8
288
     1
289
     0
340
55
341
303
342
303
1001
ACAD_DSTYLE_DIMBREAK
1070
   391
1040
3.75
1001
ACAD_DSTYLE_DIMJAG
1070
   388
1040
1.5
1001
ACAD_DSTYLE_DIMTALN
1070
   392
1070
     0
1001
ACAD_DSTYLE_DIMJOGGED_JOGANGLE_SYMBOL
1070
   384
1040
1.570796326794896
1001
ACAD_DSTYLE_DIMARC_LENGTH_SYMBOL
1070
   379
1070
     2
  0
ENDTAB
  0
TABLE
  2
BLOCK_RECORD
  5
1
330
0
100
AcDbSymbolTable
 70
     7
  0
BLOCK_RECORD
  5
6B
102
{ACAD_XDICTIONARY
360
5CE
102
}
330
1
100
AcDbSymbolTableRecord
100
AcDbBlockTableRecord
  2
*Model_Space
340
6E
  0
BLOCK_RECORD
  5
67
330
1
100
AcDbSymbolTableRecord
100
AcDbBlockTableRecord
  2
*Paper_Space
340
6A
  0
BLOCK_RECORD
  5
303
330
1
100
AcDbSymbolTableRecord
100
AcDbBlockTableRecord
  2
_Open30
340
0
102
{BLKREFS
331
CF3
331
CF4
331
CFC
331
CFD
331
D05
331
D06
331
D0E
331
D0F
331
D17
331
D18
331
D20
331
D21
331
CF3
331
CF4
331
CFC
331
CFD
331
D05
331
D06
331
D0E
331
D0F
331
D17
331
D18
331
D20
331
D21
102
}
  0
BLOCK_RECORD
  5
B58
330
1
100
AcDbSymbolTableRecord
100
AcDbBlockTableRecord
  2
*D1
340
0
  0
BLOCK_RECORD
  5
B64
330
1
100
AcDbSymbolTableRecord
100
AcDbBlockTableRecord
  2
*D2
340
0
  0
BLOCK_RECORD
  5
B70
330
1
100
AcDbSymbolTableRecord
100
AcDbBlockTableRecord
  2
*D3
340
0
  0
BLOCK_RECORD
  5
B7C
330
1
100
AcDbSymbolTableRecord
100
AcDbBlockTableRecord
  2
*D4
340
0
  0
BLOCK_RECORD
  5
B88
330
1
100
AcDbSymbolTableRecord
100
AcDbBlockTableRecord
  2
*D5
340
0
  0
BLOCK_RECORD
  5
B94
330
1
100
AcDbSymbolTableRecord
100
AcDbBlockTableRecord
  2
*D6
340
0
  0
ENDTAB
  0
ENDSEC
  0
SECTION
  2
BLOCKS
  0
BLOCK
  5
6C
330
6B
100
AcDbEntity
  8
0
100
AcDbBlockBegin
  2
*Model_Space
 70
     0
 10
0.0
 20
0.0
 30
0.0
  3
*Model_Space
  1

  0
ENDBLK
  5
6D
330
6B
100
AcDbEntity
  8
0
100
AcDbBlockEnd
  0
BLOCK
  5
68
330
67
100
AcDbEntity
 67
     1
  8
0
100
AcDbBlockBegin
  2
*Paper_Space
 70
     0
 10
0.0
 20
0.0
 30
0.0
  3
*Paper_Space
  1

  0
ENDBLK
  5
69
330
67
100
AcDbEntity
 67
     1
  8
0
100
AcDbBlockEnd
  0
BLOCK
  5
304
330
303
100
AcDbEntity
  8
0
100
AcDbBlockBegin
  2
_Open30
 70
     0
 10
0.0
 20
0.0
 30
0.0
  3
_Open30
  1

  0
LINE
  5
305
330
303
100
AcDbEntity
  8
0
  6
ByBlock
 62
     0
370
    -2
100
AcDbLine
 10
-1.0
 20
0.267949
 30
0.0
 11
0.0
 21
0.0
 31
0.0
  0
LINE
  5
306
330
303
100
AcDbEntity
  8
0
  6
ByBlock
 62
     0
370
    -2
100
AcDbLine
 10
0.0
 20
0.0
 30
0.0
 11
-1.0
 21
-0.267949
 31
0.0
  0
LINE
  5
307
330
303
100
AcDbEntity
  8
0
  6
ByBlock
 62
     0
370
    -2
100
AcDbLine
 10
0.0
 20
0.0
 30
0.0
 11
-1.0
 21
0.0
 31
0.0
  0
ENDBLK
  5
308
330
303
100
AcDbEntity
  8
0
100
AcDbBlockEnd
  0
BLOCK
  5
B62
330
B58
100
AcDbEntity
  8
0
100
AcDbBlockBegin
  2
*D1
 70
     1
 10
0.0
 20
0.0
 30
0.0
  3
*D1
  1

  0
LINE
  5
CF0
330
B58
100
AcDbEntity
  8
0
 62
     0
370
    -2
100
AcDbLine
 10
16.19568413923133
 20
-36.38487130974147
 30
0.0
 11
16.19568413923133
 21
-48.56784150552176
 31
0.0
  0
LINE
  5
CF1
330
B58
100
AcDbEntity
  8
0
 62
     0
370
    -2
100
AcDbLine
 10
70.19230913923133
 20
-28.47536568474147
 30
0.0
 11
70.19230913923133
 21
-48.56784150552176
 31
0.0
  0
LINE
  5
CF2
330
B58
100
AcDbEntity
  8
0
 62
     0
370
    -2
100
AcDbLine
 10
18.69568413923133
 20
-47.31784150552175
 30
0.0
 11
67.69230913923133
 21
-47.31784150552175
 31
0.0
  0
INSERT
  5
CF3
330
B58
100
AcDbEntity
  8
0
 62
     0
370
    -2
100
AcDbBlockReference
  2
_Open30
 10
16.19568413923133
 20
-47.31784150552175
 30
0.0
 41
2.5
 42
2.5
 43
2.5
 50
180.0
  0
INSERT
  5
CF4
330
B58
100
AcDbEntity
  8
0
 62
     0
370
    -2
100
AcDbBlockReference
  2
_Open30
 10
70.19230913923133
 20
-47.31784150552175
 30
0.0
 41
2.5
 42
2.5
 43
2.5
  0
MTEXT
  5
CF5
330
B58
100
AcDbEntity
  8
0
 62
     4
100
AcDbMText
 10
42.21228556763025
 20
-45.19284150552175
 30
0.0
 40
3.0
 41
0.0
 71
     5
 72
     1
  1
270
 73
     1
 44
1.0
  0
POINT
  5
CF6
330
B58
100
AcDbEntity
  8
Defpoints
 62
     0
100
AcDbPoint
 10
16.19568413923133
 20
-36.13487130974146
 30
0.0
  0
POINT
  5
CF7
330
B58
100
AcDbEntity
  8
Defpoints
 62
     0
100
AcDbPoint
 10
70.19230913923133
 20
-28.22536568474147
 30
0.0
  0
POINT
  5
CF8
330
B58
100
AcDbEntity
  8
Defpoints
 62
     0
100
AcDbPoint
 10
70.19230913923133
 20
-47.31784150552175
 30
0.0
  0
ENDBLK
  5
B63
330
B58
100
AcDbEntity
  8
0
100
AcDbBlockEnd
  0
BLOCK
  5
B6E
330
B64
100
AcDbEntity
  8
0
100
AcDbBlockBegin
  2
*D2
 70
     1
 10
0.0
 20
0.0
 30
0.0
  3
*D2
  1

  0
LINE
  5
CF9
330
B64
100
AcDbEntity
  8
0
 62
     0
370
    -2
100
AcDbLine
 10
-47.72697148576867
 20
-38.04475193474146
 30
0.0
 11
-29.57744819796877
 21
-38.04475193474146
 31
0.0
  0
LINE
  5
CFA
330
B64
100
AcDbEntity
  8
0
 62
     0
370
    -2
100
AcDbLine
 10
-69.72559648576879
 20
55.94937306525851
 30
0.0
 11
-29.57744819796876
 21
55.9493730652585
 31
0.0
  0
LINE
  5
CFB
330
B64
100
AcDbEntity
  8
0
 62
     0
370
    -2
100
AcDbLine
 10
-30.82744819796877
 20
-35.54475193474146
 30
0.0
 11
-30.82744819796875
 21
53.4493730652585
 31
0.0
  0
INSERT
  5
CFC
330
B64
100
AcDbEntity
  8
0
 62
     0
370
    -2
100
AcDbBlockReference
  2
_Open30
 10
-30.82744819796877
 20
-38.04475193474146
 30
0.0
 41
2.5
 42
2.5
 43
2.5
 50
270.0
  0
INSERT
  5
CFD
330
B64
100
AcDbEntity
  8
0
 62
     0
370
    -2
100
AcDbBlockReference
  2
_Open30
 10
-30.82744819796875
 20
55.9493730652585
 30
0.0
 41
2.5
 42
2.5
 43
2.5
 50
90.0
  0
MTEXT
  5
CFE
330
B64
100
AcDbEntity
  8
0
 62
     4
100
AcDbMText
 10
-32.95244819796876
 20
8.952310565258516
 30
0.0
 40
3.0
 41
0.0
 71
     5
 72
     1
  1
470
 11
1.000000000000000E-16
 21
1.0
 31
0.0
 73
     1
 44
1.0
  0
POINT
  5
CFF
330
B64
100
AcDbEntity
  8
Defpoints
 62
     0
100
AcDbPoint
 10
-47.97697148576867
 20
-38.04475193474146
 30
0.0
  0
POINT
  5
D00
330
B64
100
AcDbEntity
  8
Defpoints
 62
     0
100
AcDbPoint
 10
-69.97559648576879
 20
55.94937306525851
 30
0.0
  0
POINT
  5
D01
330
B64
100
AcDbEntity
  8
Defpoints
 62
     0
100
AcDbPoint
 10
-30.82744819796875
 20
55.9493730652585
 30
0.0
  0
ENDBLK
  5
B6F
330
B64
100
AcDbEntity
  8
0
100
AcDbBlockEnd
  0
BLOCK
  5
B7A
330
B70
100
AcDbEntity
  8
0
100
AcDbBlockBegin
  2
*D3
 70
     1
 10
0.0
 20
0.0
 30
0.0
  3
*D3
  1

  0
LINE
  5
D02
330
B70
100
AcDbEntity
  8
0
 62
     0
370
    -2
100
AcDbLine
 10
-120.1524602357687
 20
-36.38487130974147
 30
0.0
 11
-120.1524602357687
 21
-48.37149796715175
 31
0.0
  0
LINE
  5
D03
330
B70
100
AcDbEntity
  8
0
 62
     0
370
    -2
100
AcDbLine
 10
-47.97697148576867
 20
-36.38487130974147
 30
0.0
 11
-47.97697148576867
 21
-48.37149796715175
 31
0.0
  0
LINE
  5
D04
330
B70
100
AcDbEntity
  8
0
 62
     0
370
    -2
100
AcDbLine
 10
-117.6524602357687
 20
-47.12149796715175
 30
0.0
 11
-50.47697148576867
 21
-47.12149796715175
 31
0.0
  0
INSERT
  5
D05
330
B70
100
AcDbEntity
  8
0
 62
     0
370
    -2
100
AcDbBlockReference
  2
_Open30
 10
-120.1524602357687
 20
-47.12149796715175
 30
0.0
 41
2.5
 42
2.5
 43
2.5
 50
180.0
  0
INSERT
  5
D06
330
B70
100
AcDbEntity
  8
0
 62
     0
370
    -2
100
AcDbBlockReference
  2
_Open30
 10
-47.97697148576867
 20
-47.12149796715175
 30
0.0
 41
2.5
 42
2.5
 43
2.5
  0
MTEXT
  5
D07
330
B70
100
AcDbEntity
  8
0
 62
     4
100
AcDbMText
 10
-83.30134436399133
 20
-44.99649796715175
 30
0.0
 40
3.0
 41
0.0
 71
     5
 72
     1
  1
360
 73
     1
 44
1.0
  0
POINT
  5
D08
330
B70
100
AcDbEntity
  8
Defpoints
 62
     0
100
AcDbPoint
 10
-120.1524602357687
 20
-36.13487130974146
 30
0.0
  0
POINT
  5
D09
330
B70
100
AcDbEntity
  8
Defpoints
 62
     0
100
AcDbPoint
 10
-47.97697148576867
 20
-36.13487130974146
 30
0.0
  0
POINT
  5
D0A
330
B70
100
AcDbEntity
  8
Defpoints
 62
     0
100
AcDbPoint
 10
-47.97697148576867
 20
-47.12149796715175
 30
0.0
  0
ENDBLK
  5
B7B
330
B70
100
AcDbEntity
  8
0
100
AcDbBlockEnd
  0
BLOCK
  5
B86
330
B7C
100
AcDbEntity
  8
0
100
AcDbBlockBegin
  2
*D4
 70
     1
 10
0.0
 20
0.0
 30
0.0
  3
*D4
  1

  0
LINE
  5
D0B
330
B7C
100
AcDbEntity
  8
0
 62
     0
370
    -2
100
AcDbLine
 10
19.77546038923128
 20
-15.69616443474146
 30
0.0
 11
19.77546038923128
 21
-29.91519581106241
 31
0.0
  0
LINE
  5
D0C
330
B7C
100
AcDbEntity
  8
0
 62
     0
370
    -2
100
AcDbLine
 10
59.77296038923123
 20
-15.69616443474146
 30
0.0
 11
59.77296038923123
 21
-29.91519581106241
 31
0.0
  0
LINE
  5
D0D
330
B7C
100
AcDbEntity
  8
0
 62
     0
370
    -2
100
AcDbLine
 10
22.27546038923128
 20
-28.66519581106241
 30
0.0
 11
57.27296038923123
 21
-28.66519581106241
 31
0.0
  0
INSERT
  5
D0E
330
B7C
100
AcDbEntity
  8
0
 62
     0
370
    -2
100
AcDbBlockReference
  2
_Open30
 10
19.77546038923128
 20
-28.66519581106241
 30
0.0
 41
2.5
 42
2.5
 43
2.5
 50
180.0
  0
INSERT
  5
D0F
330
B7C
100
AcDbEntity
  8
0
 62
     0
370
    -2
100
AcDbBlockReference
  2
_Open30
 10
59.77296038923123
 20
-28.66519581106241
 30
0.0
 41
2.5
 42
2.5
 43
2.5
  0
MTEXT
  5
D10
330
B7C
100
AcDbEntity
  8
0
 62
     4
100
AcDbMText
 10
38.67668893496329
 20
-26.5401958110624
 30
0.0
 40
3.0
 41
0.0
 71
     5
 72
     1
  1
200
 73
     1
 44
1.0
  0
POINT
  5
D11
330
B7C
100
AcDbEntity
  8
Defpoints
 62
     0
100
AcDbPoint
 10
19.77546038923128
 20
-15.44616443474146
 30
0.0
  0
POINT
  5
D12
330
B7C
100
AcDbEntity
  8
Defpoints
 62
     0
100
AcDbPoint
 10
59.77296038923123
 20
-15.44616443474146
 30
0.0
  0
POINT
  5
D13
330
B7C
100
AcDbEntity
  8
Defpoints
 62
     0
100
AcDbPoint
 10
59.77296038923123
 20
-28.66519581106241
 30
0.0
  0
ENDBLK
  5
B87
330
B7C
100
AcDbEntity
  8
0
100
AcDbBlockEnd
  0
BLOCK
  5
B92
330
B88
100
AcDbEntity
  8
0
100
AcDbBlockBegin
  2
*D5
 70
     1
 10
0.0
 20
0.0
 30
0.0
  3
*D5
  1

  0
LINE
  5
D14
330
B88
100
AcDbEntity
  8
0
 62
     0
370
    -2
100
AcDbLine
 10
19.52546038923128
 20
-15.04618943474146
 30
0.0
 11
4.090404236631275
 21
-15.04618943474146
 31
0.0
  0
LINE
  5
D15
330
B88
100
AcDbEntity
  8
0
 62
     0
370
    -2
100
AcDbLine
 10
19.52546038923128
 20
30.95093556525853
 30
0.0
 11
4.090404236631286
 21
30.95093556525854
 31
0.0
  0
LINE
  5
D16
330
B88
100
AcDbEntity
  8
0
 62
     0
370
    -2
100
AcDbLine
 10
5.340404236631276
 20
-12.54618943474146
 30
0.0
 11
5.340404236631285
 21
28.45093556525854
 31
0.0
  0
INSERT
  5
D17
330
B88
100
AcDbEntity
  8
0
 62
     0
370
    -2
100
AcDbBlockReference
  2
_Open30
 10
5.340404236631275
 20
-15.04618943474146
 30
0.0
 41
2.5
 42
2.5
 43
2.5
 50
270.0
  0
INSERT
  5
D18
330
B88
100
AcDbEntity
  8
0
 62
     0
370
    -2
100
AcDbBlockReference
  2
_Open30
 10
5.340404236631286
 20
30.95093556525854
 30
0.0
 41
2.5
 42
2.5
 43
2.5
 50
90.0
  0
MTEXT
  5
D19
330
B88
100
AcDbEntity
  8
0
 62
     4
100
AcDbMText
 10
3.215404236631279
 20
7.952373065258536
 30
0.0
 40
3.0
 41
0.0
 71
     5
 72
     1
  1
φ230
 11
1.000000000000000E-16
 21
1.0
 31
0.0
 73
     1
 44
1.0
  0
POINT
  5
D1A
330
B88
100
AcDbEntity
  8
Defpoints
 62
     0
100
AcDbPoint
 10
19.77546038923128
 20
-15.04618943474146
 30
0.0
  0
POINT
  5
D1B
330
B88
100
AcDbEntity
  8
Defpoints
 62
     0
100
AcDbPoint
 10
19.77546038923128
 20
30.95093556525853
 30
0.0
  0
POINT
  5
D1C
330
B88
100
AcDbEntity
  8
Defpoints
 62
     0
100
AcDbPoint
 10
5.340404236631286
 20
30.95093556525854
 30
0.0
  0
ENDBLK
  5
B93
330
B88
100
AcDbEntity
  8
0
100
AcDbBlockEnd
  0
BLOCK
  5
B9E
330
B94
100
AcDbEntity
  8
0
100
AcDbBlockBegin
  2
*D6
 70
     1
 10
0.0
 20
0.0
 30
0.0
  3
*D6
  1

  0
LINE
  5
D1D
330
B94
100
AcDbEntity
  8
0
 62
     0
370
    -2
100
AcDbLine
 10
16.52368214543122
 20
-32.10633164254146
 30
0.0
 11
-6.182909907768777
 21
-32.10633164254146
 31
0.0
  0
LINE
  5
D1E
330
B94
100
AcDbEntity
  8
0
 62
     0
370
    -2
100
AcDbLine
 10
16.52368214543122
 20
48.01107883965851
 30
0.0
 11
-6.18290990776876
 21
48.01107883965851
 31
0.0
  0
LINE
  5
D1F
330
B94
100
AcDbEntity
  8
0
 62
     0
370
    -2
100
AcDbLine
 10
-4.932909907768777
 20
-29.60633164254146
 30
0.0
 11
-4.932909907768761
 21
45.51107883965851
 31
0.0
  0
INSERT
  5
D20
330
B94
100
AcDbEntity
  8
0
 62
     0
370
    -2
100
AcDbBlockReference
  2
_Open30
 10
-4.932909907768777
 20
-32.10633164254146
 30
0.0
 41
2.5
 42
2.5
 43
2.5
 50
270.0
  0
INSERT
  5
D21
330
B94
100
AcDbEntity
  8
0
 62
     0
370
    -2
100
AcDbBlockReference
  2
_Open30
 10
-4.93290990776876
 20
48.01107883965851
 30
0.0
 41
2.5
 42
2.5
 43
2.5
 50
90.0
  0
MTEXT
  5
D22
330
B94
100
AcDbEntity
  8
0
 62
     4
100
AcDbMText
 10
-7.057909907768769
 20
7.95237359855853
 30
0.0
 40
3.0
 41
0.0
 71
     5
 72
     1
  1
φ400
 11
1.000000000000000E-16
 21
1.0
 31
0.0
 73
     1
 44
1.0
  0
POINT
  5
D23
330
B94
100
AcDbEntity
  8
Defpoints
 62
     0
100
AcDbPoint
 10
16.77368214543122
 20
-32.10633164254146
 30
0.0
  0
POINT
  5
D24
330
B94
100
AcDbEntity
  8
Defpoints
 62
     0
100
AcDbPoint
 10
16.77368214543122
 20
48.01107883965851
 30
0.0
  0
POINT
  5
D25
330
B94
100
AcDbEntity
  8
Defpoints
 62
     0
100
AcDbPoint
 10
-4.93290990776876
 20
48.01107883965851
 30
0.0
  0
ENDBLK
  5
B9F
330
B94
100
AcDbEntity
  8
0
100
AcDbBlockEnd
  0
ENDSEC
  0
SECTION
  2
ENTITIES
  0
LINE
  5
F8
330
6B
100
AcDbEntity
  8
0
 62
     3
100
AcDbLine
 10
0.0
 20
98.472617
 30
0.0
 11
0.0
 21
97.224058
 31
0.0
  0
TEXT
  5
15A
330
6B
100
AcDbEntity
  8
0
 62
     3
100
AcDbText
 10
101.347828
 20
-79.002758
 30
0.0
 40
3.2
  1
1999.9.3
  7
高3.2
100
AcDbText
  0
TEXT
  5
15B
330
6B
100
AcDbEntity
  8
0
 62
     3
100
AcDbText
 10
93.52718578118922
 20
-88.29835899999998
 30
0.0
 40
6.299999999999998
  1
NDD-00
  7
高6.3
100
AcDbText
  0
TEXT
  5
15C
330
6B
100
AcDbEntity
  8
0
 62
     3
100
AcDbText
 10
51.62160137593968
 20
-56.872517
 30
0.0
 40
4.5
  1
空リール
  7
高4.5
100
AcDbText
  0
TEXT
  5
160
330
6B
100
AcDbEntity
  8
0
 62
     3
100
AcDbText
 10
48.090203
 20
-65.002758
 30
0.0
 40
4.5
  1
NDD-00
  7
高4.5
100
AcDbText
  0
TEXT
  5
161
330
6B
100
AcDbEntity
  8
0
 62
     3
100
AcDbText
 10
74.2636384424806
 20
-78.81438399999998
 30
0.0
 40
3.2
  1
1/5
  7
高3.2
100
AcDbText
  0
LINE
  5
1EE
330
6B
100
AcDbEntity
  8
0
 62
     3
100
AcDbLine
 10
-138.5
 20
90.0
 30
0.0
 11
-138.5
 21
-90.0
 31
0.0
  0
LINE
  5
1EF
330
6B
100
AcDbEntity
  8
0
 62
     3
100
AcDbLine
 10
138.5
 20
-90.0
 30
0.0
 11
138.5
 21
90.0
 31
0.0
  0
LINE
  5
1F0
330
6B
100
AcDbEntity
  8
0
 62
     3
100
AcDbLine
 10
-138.5
 20
90.0
 30
0.0
 11
138.5
 21
90.0
 31
0.0
  0
LINE
  5
1F1
330
6B
100
AcDbEntity
  8
0
 62
     3
100
AcDbLine
 10
138.5
 20
-90.0
 30
0.0
 11
-138.5
 21
-90.0
 31
0.0
  0
LINE
  5
256
330
6B
100
AcDbEntity
  8
0
 62
     3
100
AcDbLine
 10
112.7006
 20
-73.27113299999996
 30
0.0
 11
112.7006
 21
-50.27113299999999
 31
0.0
  0
LINE
  5
258
330
6B
100
AcDbEntity
  8
0
 62
     3
100
AcDbLine
 10
59.646991
 20
-80.27113299999998
 30
0.0
 11
59.646991
 21
-66.27113299999999
 31
0.0
  0
TEXT
  5
25A
330
6B
100
AcDbEntity
  8
0
 62
     3
100
AcDbText
 10
88.710918
 20
-54.066017
 30
0.0
 40
2.0
  1
A
 41
0.7
100
AcDbText
  0
TEXT
  5
25B
330
6B
100
AcDbEntity
  8
0
 62
     3
100
AcDbText
 10
91.246205
 20
-54.066017
 30
0.0
 40
2.0
  1
P
 41
0.7
100
AcDbText
  0
TEXT
  5
25C
330
6B
100
AcDbEntity
  8
0
 62
     3
100
AcDbText
 10
93.78149099999999
 20
-54.066017
 30
0.0
 40
2.0
  1
P
 41
0.7
100
AcDbText
  0
TEXT
  5
25D
330
6B
100
AcDbEntity
  8
0
 62
     3
100
AcDbText
 10
96.316777
 20
-54.066017
 30
0.0
 40
2.0
  1
D
 41
0.7
100
AcDbText
  0
TEXT
  5
25E
330
6B
100
AcDbEntity
  8
0
 62
     3
100
AcDbText
 10
101.68546
 20
-54.066017
 30
0.0
 40
2.0
  1
C
 41
0.7
100
AcDbText
  0
TEXT
  5
25F
330
6B
100
AcDbEntity
  8
0
 62
     3
100
AcDbText
 10
104.220746
 20
-54.066017
 30
0.0
 40
2.0
  1
H
 41
0.7
100
AcDbText
  0
TEXT
  5
260
330
6B
100
AcDbEntity
  8
0
 62
     3
100
AcDbText
 10
106.756033
 20
-54.066017
 30
0.0
 40
2.0
  1
C
 41
0.7
100
AcDbText
  0
TEXT
  5
261
330
6B
100
AcDbEntity
  8
0
 62
     3
100
AcDbText
 10
109.291319
 20
-54.066017
 30
0.0
 40
2.0
  1
K
 41
0.7
100
AcDbText
  0
TEXT
  5
262
330
6B
100
AcDbEntity
  8
0
 62
     3
100
AcDbText
 10
114.965285
 20
-54.066017
 30
0.0
 40
2.0
  1
DESN
 41
1.216762999999998
100
AcDbText
  0
TEXT
  5
263
330
6B
100
AcDbEntity
  8
0
 62
     3
100
AcDbText
 10
29.958927
 20
-83.412515
 30
0.0
 40
2.0
  1
NICHIDO IND.CO.LTD
 41
1.274876
100
AcDbText
  0
LINE
  5
264
330
6B
100
AcDbEntity
  8
0
 62
     3
100
AcDbLine
 10
40.341956
 20
-50.27113299999999
 30
0.0
 11
40.341956
 21
-73.27113299999996
 31
0.0
  0
LINE
  5
265
330
6B
100
AcDbEntity
  8
0
 62
     3
100
AcDbLine
 10
86.70059999999997
 20
-50.27113299999999
 30
0.0
 11
86.70059999999997
 21
-89.936856
 31
0.0
  0
LINE
  5
26A
330
6B
100
AcDbEntity
  8
0
 62
     3
100
AcDbLine
 10
99.7006
 20
-50.27113299999999
 30
0.0
 11
99.7006
 21
-80.27113299999998
 31
0.0
  0
TEXT
  5
26B
330
6B
100
AcDbEntity
  8
0
 62
     3
100
AcDbText
 10
87.81304499999995
 20
-79.406446
 30
0.0
 40
3.2
  1
作成日
 41
1.017225999999997
100
AcDbText
  0
LINE
  5
26C
330
6B
100
AcDbEntity
  8
0
 62
     3
100
AcDbLine
 10
138.399964
 20
-50.27113299999999
 30
0.0
 11
27.096521
 21
-50.27113299999999
 31
0.0
  0
LINE
  5
26D
330
6B
100
AcDbEntity
  8
0
 62
     3
100
AcDbLine
 10
125.7006
 20
-73.27113299999996
 30
0.0
 11
125.7006
 21
-50.27113299999999
 31
0.0
  0
TEXT
  5
26E
330
6B
100
AcDbEntity
  8
0
 62
     3
100
AcDbText
 10
129.024404
 20
-53.980199
 30
0.0
 40
1.8
  1
D
 41
0.666667
100
AcDbText
  0
TEXT
  5
26F
330
6B
100
AcDbEntity
  8
0
 62
     3
100
AcDbText
 10
131.841032
 20
-53.980199
 30
0.0
 40
1.8
  1
E
 41
0.666667
100
AcDbText
  0
TEXT
  5
270
330
6B
100
AcDbEntity
  8
0
 62
     3
100
AcDbText
 10
134.65766
 20
-53.980199
 30
0.0
 40
1.8
  1
F
 41
0.666667
100
AcDbText
  0
TEXT
  5
271
330
6B
100
AcDbEntity
  8
0
 62
     3
100
AcDbText
 10
129.024404
 20
-57.972752
 30
0.0
 40
3.2
  1
製図
 41
1.076369
100
AcDbText
  0
LINE
  5
272
330
6B
100
AcDbEntity
  8
0
 62
     3
100
AcDbLine
 10
27.096521
 20
-50.27113299999999
 30
0.0
 11
27.096521
 21
-89.936856
 31
0.0
  0
TEXT
  5
273
330
6B
100
AcDbEntity
  8
0
 62
     3
100
AcDbText
 10
28.473174
 20
-89.60439
 30
0.0
 40
5.0
  1
日動工業株式会社
 41
0.833333
100
AcDbText
  0
LINE
  5
274
330
6B
100
AcDbEntity
  8
0
 62
     3
100
AcDbLine
 10
69.97892500000002
 20
-66.271133
 30
0.0
 11
69.978925
 21
-89.936856
 31
0.0
  0
LINE
  5
275
330
6B
100
AcDbEntity
  8
0
 62
     3
100
AcDbLine
 10
69.978925
 20
-85.103994
 30
0.0
 11
86.70059999999997
 21
-85.103994
 31
0.0
  0
TEXT
  5
276
330
6B
100
AcDbEntity
  8
0
 62
     3
100
AcDbText
 10
70.565527
 20
-84.28756400000002
 30
0.0
 40
3.2
  1
出図コード
 41
0.8356860000000002
100
AcDbText
  0
LINE
  5
278
330
6B
100
AcDbEntity
  8
0
 62
     3
100
AcDbLine
 10
27.096521
 20
-80.27113299999998
 30
0.0
 11
138.399964
 21
-80.27113299999998
 31
0.0
  0
LINE
  5
27A
330
6B
100
AcDbEntity
  8
0
 62
     3
100
AcDbLine
 10
27.096521
 20
-59.271133
 30
0.0
 11
138.399964
 21
-59.271133
 31
0.0
  0
LINE
  5
280
330
6B
100
AcDbEntity
  8
0
 62
     3
100
AcDbLine
 10
27.096521
 20
-66.27113299999999
 30
0.0
 11
86.70059999999997
 21
-66.27113299999999
 31
0.0
  0
LINE
  5
286
330
6B
100
AcDbEntity
  8
0
 62
     3
100
AcDbLine
 10
27.096521
 20
-73.27113299999996
 30
0.0
 11
138.399964
 21
-73.27113299999996
 31
0.0
  0
TEXT
  5
287
330
6B
100
AcDbEntity
  8
0
 62
     3
100
AcDbText
 10
70.432979
 20
-89.334661
 30
0.0
 40
3.2
  1
ZK-A4X
 41
0.8112849999999999
100
AcDbText
  0
TEXT
  5
288
330
6B
100
AcDbEntity
  8
0
 62
     3
100
AcDbText
 10
28.913918
 20
-54.10160699999998
 30
0.0
 40
2.0
  1
CONPONENTS
 41
0.5331600000000001
100
AcDbText
  0
TEXT
  5
289
330
6B
100
AcDbEntity
  8
0
 62
     3
100
AcDbText
 10
28.564192
 20
-73.03378399999998
 30
0.0
 40
3.0
  1
材
 41
0.833333
100
AcDbText
  0
TEXT
  5
28A
330
6B
100
AcDbEntity
  8
0
 62
     3
100
AcDbText
 10
36.099834
 20
-73.03378399999998
 30
0.0
 40
3.0
  1
質
 41
0.833333
100
AcDbText
  0
TEXT
  5
28B
330
6B
100
AcDbEntity
  8
0
 62
     3
100
AcDbText
 10
28.652262
 20
-62.40925999999999
 30
0.0
 40
2.0
  1
MODEL
 41
1.031072999999999
100
AcDbText
  0
TEXT
  5
28C
330
6B
100
AcDbEntity
  8
0
 62
     3
100
AcDbText
 10
28.564192
 20
-69.351476
 30
0.0
 40
2.0
  1
MATERIAL
 41
0.659278
100
AcDbText
  0
TEXT
  5
28D
330
6B
100
AcDbEntity
  8
0
 62
     3
100
AcDbText
 10
59.87147199999999
 20
-73.03378399999998
 30
0.0
 40
3.0
  1
備
 41
0.833333
100
AcDbText
  0
TEXT
  5
28E
330
6B
100
AcDbEntity
  8
0
 62
     3
100
AcDbText
 10
66.604474
 20
-73.03378399999998
 30
0.0
 40
3.0
  1
考
 41
0.833333
100
AcDbText
  0
TEXT
  5
28F
330
6B
100
AcDbEntity
  8
0
 62
     3
100
AcDbText
 10
60.26357620885868
 20
-69.351476
 30
0.0
 40
2.0
  1
REMARKS
 41
0.675794
100
AcDbText
  0
TEXT
  5
290
330
6B
100
AcDbEntity
  8
0
 62
     3
100
AcDbText
 10
30.153921
 20
-76.27159699999999
 30
0.0
 40
2.0
  1
3AD
 41
1.42614
100
AcDbText
  0
TEXT
  5
291
330
6B
100
AcDbEntity
  8
0
 62
     3
100
AcDbText
 10
39.4649
 20
-76.105863
 30
0.0
 40
2.0
  1
ANGLE
 41
1.669883999999995
100
AcDbText
  0
TEXT
  5
292
330
6B
100
AcDbEntity
  8
0
 62
     3
100
AcDbText
 10
60.398787
 20
-76.482704
 30
0.0
 40
2.0
  1
SCALE
 41
0.7719630000000001
100
AcDbText
  0
TEXT
  5
293
330
6B
100
AcDbEntity
  8
0
 62
     3
100
AcDbText
 10
29.84005
 20
-80.27113299999998
 30
0.0
 40
3.0
  1
第
 41
0.833333
100
AcDbText
  0
TEXT
  5
294
330
6B
100
AcDbEntity
  8
0
 62
     3
100
AcDbText
 10
37.6269
 20
-80.27113299999998
 30
0.0
 40
3.0
  1
三
 41
0.833333
100
AcDbText
  0
TEXT
  5
295
330
6B
100
AcDbEntity
  8
0
 62
     3
100
AcDbText
 10
45.41375
 20
-80.27113299999998
 30
0.0
 40
3.0
  1
角
 41
0.833333
100
AcDbText
  0
TEXT
  5
296
330
6B
100
AcDbEntity
  8
0
 62
     3
100
AcDbText
 10
53.2006
 20
-80.27113299999998
 30
0.0
 40
3.0
  1
法
 41
0.833333
100
AcDbText
  0
TEXT
  5
297
330
6B
100
AcDbEntity
  8
0
 62
     3
100
AcDbText
 10
60.261992
 20
-79.982704
 30
0.0
 40
3.0
  1
尺
 41
0.833333
100
AcDbText
  0
TEXT
  5
298
330
6B
100
AcDbEntity
  8
0
 62
     3
100
AcDbText
 10
66.99499399999999
 20
-79.982704
 30
0.0
 40
3.0
  1
度
 41
0.833333
100
AcDbText
  0
TEXT
  5
299
330
6B
100
AcDbEntity
  8
0
 62
     3
100
AcDbText
 10
89.57826500000002
 20
-57.81340400000001
 30
0.0
 40
3.0
  1
承認
 41
1.089472999999999
100
AcDbText
  0
TEXT
  5
29A
330
6B
100
AcDbEntity
  8
0
 62
     3
100
AcDbText
 10
102.821145
 20
-57.87113299999999
 30
0.0
 40
3.0
  1
検図
 41
0.931761
100
AcDbText
  0
TEXT
  5
29B
330
6B
100
AcDbEntity
  8
0
 62
     3
100
AcDbText
 10
115.821542
 20
-57.87113299999999
 30
0.0
 40
3.0
  1
設
 41
0.833333
100
AcDbText
  0
TEXT
  5
29C
330
6B
100
AcDbEntity
  8
0
 62
     3
100
AcDbText
 10
120.31141
 20
-57.87113299999999
 30
0.0
 40
3.0
  1
計
 41
0.833333
100
AcDbText
  0
TEXT
  5
29D
330
6B
100
AcDbEntity
  8
0
 62
     3
100
AcDbText
 10
28.84539
 20
-58.582377
 30
0.0
 40
3.0
  1
品
 41
0.833333
100
AcDbText
  0
TEXT
  5
29E
330
6B
100
AcDbEntity
  8
0
 62
     3
100
AcDbText
 10
36.381032
 20
-58.582377
 30
0.0
 40
3.0
  1
名
 41
0.833333
100
AcDbText
  0
TEXT
  5
29F
330
6B
100
AcDbEntity
  8
0
 62
     3
100
AcDbText
 10
28.652262
 20
-66.04151999999999
 30
0.0
 40
3.0
  1
型
 41
0.833333
100
AcDbText
  0
TEXT
  5
2A0
330
6B
100
AcDbEntity
  8
0
 62
     3
100
AcDbText
 10
36.200353
 20
-66.04151999999999
 30
0.0
 40
3.0
  1
式
 41
0.833333
100
AcDbText
  0
TEXT
  5
2A1
330
6B
100
AcDbEntity
  8
0
 62
     3
100
AcDbText
 10
-39.33982842468469
 20
-89.50000000000001
 30
0.0
 40
2.5
  1
個数
 41
0.8
  7
高2.5
100
AcDbText
  0
LINE
  5
2A2
330
6B
100
AcDbEntity
  8
0
 62
     7
100
AcDbLine
 10
-33.8985705263349
 20
-90.0
 30
0.0
 11
-33.8985705263349
 21
-50.0
 31
0.0
  0
TEXT
  5
2A3
330
6B
100
AcDbEntity
  8
0
 62
     3
100
AcDbText
 10
-137.0
 20
-89.50000000000001
 30
0.0
 40
2.5
  1
NO
 41
0.8
  7
高2.5
100
AcDbText
  0
TEXT
  5
2A4
330
6B
100
AcDbEntity
  8
0
 62
     3
100
AcDbText
 10
-131.4717741847611
 20
-89.50000000000001
 30
0.0
 40
2.5
  1
部　品　名
 41
0.8
  7
高2.5
100
AcDbText
  0
TEXT
  5
2A6
330
6B
100
AcDbEntity
  8
0
 62
     3
100
AcDbText
 10
-86.24691044100456
 20
-89.50000000000001
 30
0.0
 40
2.5
  1
仕　様
 41
0.8
  7
高2.5
100
AcDbText
  0
TEXT
  5
2A7
330
6B
100
AcDbEntity
  8
0
 62
     3
100
AcDbText
 10
-107.9826492905625
 20
-89.50000000000001
 30
0.0
 40
2.5
  1
材　質
 41
0.8
  7
高2.5
100
AcDbText
  0
TEXT
  5
2A8
330
6B
100
AcDbEntity
  8
0
 62
     3
100
AcDbText
 10
-39.33982842468468
 20
-81.50000000000001
 30
0.0
 40
2.5
  1
1
 41
0.8
  7
高2.5
100
AcDbText
  0
TEXT
  5
2A9
330
6B
100
AcDbEntity
  8
0
 62
     3
100
AcDbText
 10
-39.33982842468468
 20
-69.50000000000001
 30
0.0
 40
2.5
  1
2
 41
0.8
  7
高2.5
100
AcDbText
  0
TEXT
  5
2AA
330
6B
100
AcDbEntity
  8
0
 62
     3
100
AcDbText
 10
-39.33982842468468
 20
-77.5
 30
0.0
 40
2.5
  1
1
 41
0.8
  7
高2.5
100
AcDbText
  0
TEXT
  5
2AB
330
6B
100
AcDbEntity
  8
0
 62
     3
100
AcDbText
 10
-86.24691044100456
 20
-65.50000000000003
 30
0.0
 40
2.5
  1
DS-01
 41
0.8
  7
高2.5
100
AcDbText
  0
TEXT
  5
2AC
330
6B
100
AcDbEntity
  8
0
 62
     3
100
AcDbText
 10
-39.33982842468468
 20
-65.50000000000003
 30
0.0
 40
2.5
  1
1
 41
0.8
  7
高2.5
100
AcDbText
  0
TEXT
  5
2AD
330
6B
100
AcDbEntity
  8
0
 62
     3
100
AcDbText
 10
-39.33982842468468
 20
-61.50000000000002
 30
0.0
 40
2.5
  1
1
 41
0.8
  7
高2.5
100
AcDbText
  0
TEXT
  5
2AE
330
6B
100
AcDbEntity
  8
0
 62
     3
100
AcDbText
 10
-39.33982842468468
 20
-53.50000000000001
 30
0.0
 40
2.5
  1
6
 41
0.8
  7
高2.5
100
AcDbText
  0
TEXT
  5
2B0
330
6B
100
AcDbEntity
  8
0
 62
     3
100
AcDbText
 10
-39.33982842468468
 20
-73.50000000000001
 30
0.0
 40
2.5
  1
1
 41
0.8
  7
高2.5
100
AcDbText
  0
TEXT
  5
2B1
330
6B
100
AcDbEntity
  8
0
 62
     3
100
AcDbText
 10
-86.24691044100456
 20
-77.50000000000001
 30
0.0
 40
2.5
  1
%%C230x200x1t（ボンデ鋼板）
 41
0.8
  7
高2.5
100
AcDbText
  0
TEXT
  5
2B5
330
6B
100
AcDbEntity
  8
0
 62
     3
100
AcDbText
 10
-39.33982842468468
 20
-57.5
 30
0.0
 40
2.5
  1
1
 41
0.8
  7
高2.5
100
AcDbText
  0
TEXT
  5
2B6
330
6B
100
AcDbEntity
  8
0
 62
     3
100
AcDbText
 10
-39.33982842468468
 20
-85.50000000000001
 30
0.0
 40
2.5
  1
1
 41
0.8
  7
高2.5
100
AcDbText
  0
LINE
  5
2B7
330
6B
100
AcDbEntity
  8
0
 62
     7
100
AcDbLine
 10
-40.83982842468468
 20
-90.0
 30
0.0
 11
-40.83982842468468
 21
-50.0
 31
0.0
  0
TEXT
  5
2B9
330
6B
100
AcDbEntity
  8
0
 62
     3
100
AcDbText
 10
-131.4717741847611
 20
-69.50000000000001
 30
0.0
 40
2.5
  1
カラー
 41
0.8
  7
高2.5
100
AcDbText
  0
TEXT
  5
2BA
330
6B
100
AcDbEntity
  8
0
 62
     3
100
AcDbText
 10
-107.9826492905625
 20
-69.50000000000001
 30
0.0
 40
2.5
  1
ABS樹脂
 41
0.8
  7
高2.5
100
AcDbText
  0
TEXT
  5
2BB
330
6B
100
AcDbEntity
  8
0
 62
     3
100
AcDbText
 10
-86.24691044100456
 20
-69.50000000000001
 30
0.0
 40
2.5
  1
%%C26x15
 41
0.8
  7
高2.5
100
AcDbText
  0
TEXT
  5
2BC
330
6B
100
AcDbEntity
  8
0
 62
     3
100
AcDbText
 10
-86.24691044100456
 20
-53.50000000000001
 30
0.0
 40
2.5
  1
%%C8x200xM5
 41
0.8
  7
高2.5
100
AcDbText
  0
TEXT
  5
2BD
330
6B
100
AcDbEntity
  8
0
 62
     3
100
AcDbText
 10
-131.4717741847611
 20
-57.50000000000003
 30
0.0
 40
2.5
  1
袋ナット
 41
0.8
  7
高2.5
100
AcDbText
  0
TEXT
  5
2BE
330
6B
100
AcDbEntity
  8
0
 62
     3
100
AcDbText
 10
-86.24691044100456
 20
-57.50000000000002
 30
0.0
 40
2.5
  1
M10
 41
0.8
  7
高2.5
100
AcDbText
  0
TEXT
  5
2BF
330
6B
100
AcDbEntity
  8
0
 62
     3
100
AcDbText
 10
-131.4717741847611
 20
-61.50000000000002
 30
0.0
 40
2.5
  1
オリタタミハンドル
 41
0.8
  7
高2.5
100
AcDbText
  0
TEXT
  5
2C0
330
6B
100
AcDbEntity
  8
0
 62
     3
100
AcDbText
 10
-131.4717741847611
 20
-53.50000000000002
 30
0.0
 40
2.5
  1
組立ボルト
 41
0.8
  7
高2.5
100
AcDbText
  0
TEXT
  5
2C1
330
6B
100
AcDbEntity
  8
0
 62
     3
100
AcDbText
 10
-107.9826492905625
 20
-73.50000000000001
 30
0.0
 40
2.5
  1
STKM
 41
0.8
  7
高2.5
100
AcDbText
  0
TEXT
  5
2C2
330
6B
100
AcDbEntity
  8
0
 62
     3
100
AcDbText
 10
-107.9826492905625
 20
-85.50000000000004
 30
0.0
 40
2.5
  1
SPCC
 41
0.8
  7
高2.5
100
AcDbText
  0
TEXT
  5
2C3
330
6B
100
AcDbEntity
  8
0
 62
     3
100
AcDbText
 10
-131.4717741847611
 20
-73.50000000000001
 30
0.0
 40
2.5
  1
フレーム
 41
0.8
  7
高2.5
100
AcDbText
  0
TEXT
  5
2C4
330
6B
100
AcDbEntity
  8
0
 62
     3
100
AcDbText
 10
-86.24691044100456
 20
-73.50000000000001
 30
0.0
 40
2.5
  1
%%C19.1x1.6t DD-200E
 41
0.8
  7
高2.5
100
AcDbText
  0
TEXT
  5
2C5
330
6B
100
AcDbEntity
  8
0
 62
     3
100
AcDbText
 10
-131.4717741847611
 20
-65.50000000000004
 30
0.0
 40
2.5
  1
ドラムストッパー
 41
0.8
  7
高2.5
100
AcDbText
  0
TEXT
  5
2C6
330
6B
100
AcDbEntity
  8
0
 62
     3
100
AcDbText
 10
-107.9826492905625
 20
-65.50000000000004
 30
0.0
 40
2.5
  1
PA樹脂
 41
0.8
  7
高2.5
100
AcDbText
  0
TEXT
  5
2C7
330
6B
100
AcDbEntity
  8
0
 62
     3
100
AcDbText
 10
-137.0
 20
-81.50000000000001
 30
0.0
 40
2.5
  1
2
 41
0.8
  7
高2.5
100
AcDbText
  0
TEXT
  5
2C8
330
6B
100
AcDbEntity
  8
0
 62
     3
100
AcDbText
 10
-137.0
 20
-77.50000000000001
 30
0.0
 40
2.5
  1
3
 41
0.8
  7
高2.5
100
AcDbText
  0
TEXT
  5
2C9
330
6B
100
AcDbEntity
  8
0
 62
     3
100
AcDbText
 10
-137.0
 20
-73.50000000000001
 30
0.0
 40
2.5
  1
4
 41
0.8
  7
高2.5
100
AcDbText
  0
TEXT
  5
2CA
330
6B
100
AcDbEntity
  8
0
 62
     3
100
AcDbText
 10
-137.0
 20
-69.50000000000001
 30
0.0
 40
2.5
  1
5
 41
0.8
  7
高2.5
100
AcDbText
  0
TEXT
  5
2CB
330
6B
100
AcDbEntity
  8
0
 62
     3
100
AcDbText
 10
-137.0
 20
-65.50000000000004
 30
0.0
 40
2.5
  1
6
 41
0.8
  7
高2.5
100
AcDbText
  0
TEXT
  5
2CC
330
6B
100
AcDbEntity
  8
0
 62
     3
100
AcDbText
 10
-137.0
 20
-61.50000000000002
 30
0.0
 40
2.5
  1
7
 41
0.8
  7
高2.5
100
AcDbText
  0
TEXT
  5
2CD
330
6B
100
AcDbEntity
  8
0
 62
     3
100
AcDbText
 10
-137.0
 20
-57.50000000000003
 30
0.0
 40
2.5
  1
8
 41
0.8
  7
高2.5
100
AcDbText
  0
TEXT
  5
2CE
330
6B
100
AcDbEntity
  8
0
 62
     3
100
AcDbText
 10
-137.0
 20
-53.50000000000002
 30
0.0
 40
2.5
  1
9
 41
0.8
  7
高2.5
100
AcDbText
  0
TEXT
  5
2CF
330
6B
100
AcDbEntity
  8
0
 62
     3
100
AcDbText
 10
-86.24691044100456
 20
-81.50000000000001
 30
0.0
 40
2.5
  1
塗装色：エメラルドグリーン DD-00-1
 41
0.8
  7
高2.5
100
AcDbText
  0
TEXT
  5
2D0
330
6B
100
AcDbEntity
  8
0
 62
     3
100
AcDbText
 10
-131.4717741847611
 20
-77.50000000000001
 30
0.0
 40
2.5
  1
巻胴
 41
0.8
  7
高2.5
100
AcDbText
  0
TEXT
  5
2D1
330
6B
100
AcDbEntity
  8
0
 62
     3
100
AcDbText
 10
-107.9826492905625
 20
-77.50000000000001
 30
0.0
 40
2.5
  1
SPCC
 41
0.8
  7
高2.5
100
AcDbText
  0
TEXT
  5
2D2
330
6B
100
AcDbEntity
  8
0
 62
     3
100
AcDbText
 10
-107.9826492905625
 20
-53.50000000000001
 30
0.0
 40
2.5
  1
SS400
 41
0.8
  7
高2.5
100
AcDbText
  0
TEXT
  5
2D3
330
6B
100
AcDbEntity
  8
0
 62
     3
100
AcDbText
 10
-107.9826492905625
 20
-57.50000000000003
 30
0.0
 40
2.5
  1
SS400
 41
0.8
  7
高2.5
100
AcDbText
  0
TEXT
  5
2D4
330
6B
100
AcDbEntity
  8
0
 62
     3
100
AcDbText
 10
-86.24691044100456
 20
-61.50000000000002
 30
0.0
 40
2.5
  1
M8ナット H-03
 41
0.8
  7
高2.5
100
AcDbText
  0
TEXT
  5
2D5
330
6B
100
AcDbEntity
  8
0
 62
     3
100
AcDbText
 10
-107.9826492905625
 20
-81.50000000000001
 30
0.0
 40
2.5
  1
SPCC
 41
0.8
  7
高2.5
100
AcDbText
  0
TEXT
  5
2D6
330
6B
100
AcDbEntity
  8
0
 62
     3
100
AcDbText
 10
-86.24691044100456
 20
-85.50000000000001
 30
0.0
 40
2.5
  1
塗装色：エメラルドグリーン DDA-00
 41
0.8
  7
高2.5
100
AcDbText
  0
TEXT
  5
2D7
330
6B
100
AcDbEntity
  8
0
 62
     3
100
AcDbText
 10
-131.4717741847611
 20
-81.50000000000001
 30
0.0
 40
2.5
  1
側板（A板）
 41
0.8
  7
高2.5
100
AcDbText
  0
TEXT
  5
2D8
330
6B
100
AcDbEntity
  8
0
 62
     3
100
AcDbText
 10
-131.4717741847611
 20
-85.50000000000007
 30
0.0
 40
2.5
  1
側板（B板）
 41
0.8
  7
高2.5
100
AcDbText
  0
LINE
  5
2D9
330
6B
100
AcDbEntity
  8
0
 62
     7
100
AcDbLine
 10
-87.74691044100454
 20
-90.0
 30
0.0
 11
-87.74691044100454
 21
-50.0
 31
0.0
  0
LINE
  5
2DA
330
6B
100
AcDbEntity
  8
0
 62
     7
100
AcDbLine
 10
-109.4826492905625
 20
-90.0
 30
0.0
 11
-109.4826492905625
 21
-50.0
 31
0.0
  0
LINE
  5
2DB
330
6B
100
AcDbEntity
  8
0
 62
     7
100
AcDbLine
 10
-132.971774184761
 20
-90.0
 30
0.0
 11
-132.971774184761
 21
-50.0
 31
0.0
  0
TEXT
  5
2DC
330
6B
100
AcDbEntity
  8
0
 62
     3
100
AcDbText
 10
-137.0
 20
-85.50000000000007
 30
0.0
 40
2.5
  1
1
 41
0.8
  7
高2.5
100
AcDbText
  0
TEXT
  5
2DD
330
6B
100
AcDbEntity
  8
0
 62
     3
100
AcDbText
 10
-107.9826492905625
 20
-61.50000000000002
 30
0.0
 40
2.5
  1
SS400/PA樹脂
 41
0.8
  7
高2.5
100
AcDbText
  0
TEXT
  5
2DE
330
6B
100
AcDbEntity
  8
0
 62
     3
100
AcDbText
 10
92.37634063986934
 20
-49.71504799999999
 30
0.0
 40
4.5
  1
コード
  7
高4.5
100
AcDbText
  0
LINE
  5
2DF
330
6B
100
AcDbEntity
  8
0
 62
     3
100
AcDbLine
 10
112.7006
 20
-50.27113299999999
 30
0.0
 11
112.7006
 21
-44.271133
 31
0.0
  0
LINE
  5
2E0
330
6B
100
AcDbEntity
  8
0
 62
     3
100
AcDbLine
 10
86.70059999999997
 20
-50.27113299999999
 30
0.0
 11
86.70059999999997
 21
-44.271133
 31
0.0
  0
TEXT
  5
2E1
330
6B
100
AcDbEntity
  8
0
 62
     3
100
AcDbText
 10
118.8231487844925
 20
-49.77277700000001
 30
0.0
 40
4.5
  1
330
  7
高4.5
100
AcDbText
  0
LINE
  5
2E2
330
6B
100
AcDbEntity
  8
0
 62
     3
100
AcDbLine
 10
20.40450371474821
 20
-50.0
 30
0.0
 11
-138.5
 21
-50.0
 31
0.0
  0
LINE
  5
2E3
330
6B
100
AcDbEntity
  8
0
 62
     3
100
AcDbLine
 10
20.40450371474821
 20
-85.99999999999999
 30
0.0
 11
-138.5
 21
-86.00000000000006
 31
0.0
  0
LINE
  5
2E4
330
6B
100
AcDbEntity
  8
0
 62
     7
100
AcDbLine
 10
20.40450371474821
 20
-82.00000000000001
 30
0.0
 11
-138.5
 21
-82.00000000000001
 31
0.0
  0
LINE
  5
2E5
330
6B
100
AcDbEntity
  8
0
 62
     7
100
AcDbLine
 10
20.40450371474821
 20
-78.0
 30
0.0
 11
-138.5
 21
-78.00000000000001
 31
0.0
  0
LINE
  5
2E6
330
6B
100
AcDbEntity
  8
0
 62
     7
100
AcDbLine
 10
20.40450371474821
 20
-74.00000000000001
 30
0.0
 11
-138.5
 21
-74.00000000000001
 31
0.0
  0
LINE
  5
2E7
330
6B
100
AcDbEntity
  8
0
 62
     7
100
AcDbLine
 10
20.40450371474821
 20
-70.0
 30
0.0
 11
-138.5
 21
-70.00000000000003
 31
0.0
  0
LINE
  5
2E8
330
6B
100
AcDbEntity
  8
0
 62
     7
100
AcDbLine
 10
20.40450371474821
 20
-66.00000000000001
 30
0.0
 11
-138.5
 21
-66.00000000000004
 31
0.0
  0
LINE
  5
2E9
330
6B
100
AcDbEntity
  8
0
 62
     7
100
AcDbLine
 10
20.40450371474821
 20
-62.00000000000001
 30
0.0
 11
-138.5
 21
-62.00000000000002
 31
0.0
  0
LINE
  5
2EA
330
6B
100
AcDbEntity
  8
0
 62
     7
100
AcDbLine
 10
20.40450371474821
 20
-57.99999999999999
 30
0.0
 11
-138.5
 21
-58.00000000000004
 31
0.0
  0
LINE
  5
2EB
330
6B
100
AcDbEntity
  8
0
 62
     7
100
AcDbLine
 10
20.40450371474821
 20
-54.0
 30
0.0
 11
-138.5
 21
-54.00000000000002
 31
0.0
  0
LINE
  5
2EC
330
6B
100
AcDbEntity
  8
0
 62
     3
100
AcDbLine
 10
138.399964
 20
-44.271133
 30
0.0
 11
86.70059999999997
 21
-44.271133
 31
0.0
  0
LINE
  5
2ED
330
6B
100
AcDbEntity
  8
0
 62
     7
100
AcDbLine
 10
-22.04836274464174
 20
-90.0
 30
0.0
 11
-22.04836274464174
 21
-50.0
 31
0.0
  0
TEXT
  5
2EE
330
6B
100
AcDbEntity
  8
0
 62
     3
100
AcDbText
 10
-32.39857052633489
 20
-89.50000000000001
 30
0.0
 40
2.5
  1
コード
 41
0.8
  7
高2.5
100
AcDbText
  0
TEXT
  5
2F9
330
6B
100
AcDbEntity
  8
0
 62
     3
100
AcDbText
 10
-32.39857052633488
 20
-53.50000000000001
 30
0.0
 40
2.5
  1
50560
 41
0.8
  7
高2.5
100
AcDbText
  0
TEXT
  5
2FA
330
6B
100
AcDbEntity
  8
0
 62
     3
100
AcDbText
 10
-32.39857052633488
 20
-57.5
 30
0.0
 40
2.5
  1
51657
 41
0.8
  7
高2.5
100
AcDbText
  0
TEXT
  5
2FB
330
6B
100
AcDbEntity
  8
0
 62
     3
100
AcDbText
 10
-32.39857052633488
 20
-61.50000000000002
 30
0.0
 40
2.5
  1
50533
 41
0.8
  7
高2.5
100
AcDbText
  0
TEXT
  5
2FC
330
6B
100
AcDbEntity
  8
0
 62
     3
100
AcDbText
 10
-32.39857052633488
 20
-65.50000000000003
 30
0.0
 40
2.5
  1
50588
 41
0.8
  7
高2.5
100
AcDbText
  0
TEXT
  5
2FD
330
6B
100
AcDbEntity
  8
0
 62
     3
100
AcDbText
 10
-32.39857052633488
 20
-69.50000000000001
 30
0.0
 40
2.5
  1
50031
 41
0.8
  7
高2.5
100
AcDbText
  0
TEXT
  5
2FE
330
6B
100
AcDbEntity
  8
0
 62
     3
100
AcDbText
 10
-32.39857052633488
 20
-73.50000000000001
 30
0.0
 40
2.5
  1
50760
 41
0.8
  7
高2.5
100
AcDbText
  0
TEXT
  5
2FF
330
6B
100
AcDbEntity
  8
0
 62
     3
100
AcDbText
 10
-32.39857052633488
 20
-77.5
 30
0.0
 40
2.5
  1
51527
 41
0.8
  7
高2.5
100
AcDbText
  0
TEXT
  5
300
330
6B
100
AcDbEntity
  8
0
 62
     3
100
AcDbText
 10
-32.39857052633488
 20
-85.50000000000001
 30
0.0
 40
2.5
  1
50929
 41
0.8
  7
高2.5
100
AcDbText
  0
TEXT
  5
301
330
6B
100
AcDbEntity
  8
0
 62
     3
100
AcDbText
 10
-32.39857052633488
 20
-81.50000000000001
 30
0.0
 40
2.5
  1
50929
 41
0.8
  7
高2.5
100
AcDbText
  0
LINE
  5
5D1
330
6B
100
AcDbEntity
  8
0
 62
     3
100
AcDbLine
 10
20.40450371474821
 20
-90.0
 30
0.0
 11
20.40450371474821
 21
-50.0
 31
0.0
  0
TEXT
  5
5E2
330
6B
100
AcDbEntity
  8
0
  6
Continuous
 62
     3
100
AcDbText
 10
-20.54836274464173
 20
-53.50000000000001
 30
0.0
 40
2.5
  1
NDC組立ボルト φ8x216 M5 三価クロメート
 41
0.6
  7
高2.5
100
AcDbText
  0
TEXT
  5
5E4
330
6B
100
AcDbEntity
  8
0
  6
Continuous
 62
     3
100
AcDbText
 10
-20.54836274464173
 20
-57.5
 30
0.0
 40
2.5
  1
袋ナット　M10　三価クロメート
 41
0.6
  7
高2.5
100
AcDbText
  0
TEXT
  5
5E5
330
6B
100
AcDbEntity
  8
0
  6
Continuous
 62
     3
100
AcDbText
 10
-20.54836274464173
 20
-61.50000000000002
 30
0.0
 40
2.5
  1
折りタタミハンドル組立
 41
0.6
  7
高2.5
100
AcDbText
  0
TEXT
  5
5E6
330
6B
100
AcDbEntity
  8
0
  6
Continuous
 62
     3
100
AcDbText
 10
-20.54836274464173
 20
-65.50000000000003
 30
0.0
 40
2.5
  1
ドラムストッパー　黄色
 41
0.6
  7
高2.5
100
AcDbText
  0
TEXT
  5
5E7
330
6B
100
AcDbEntity
  8
0
  6
Continuous
 62
     3
100
AcDbText
 10
-20.54836274464173
 20
-69.5
 30
0.0
 40
2.5
  1
304カラー
 41
0.6
  7
高2.5
100
AcDbText
  0
TEXT
  5
5EA
330
6B
100
AcDbEntity
  8
0
  6
Continuous
 62
     3
100
AcDbText
 10
-20.54836274464173
 20
-77.5
 30
0.0
 40
2.5
  1
ボンデ　1.0x735x200（旧NDC）
 41
0.6
  7
高2.5
100
AcDbText
  0
TEXT
  5
5EB
330
6B
100
AcDbEntity
  8
0
  6
Continuous
 62
     3
100
AcDbText
 10
-20.54836274464173
 20
-81.50000000000001
 30
0.0
 40
2.5
  1
NDD-A板 エメラルドグリーン
 41
0.6
  7
高2.5
100
AcDbText
  0
TEXT
  5
5ED
330
6B
100
AcDbEntity
  8
0
  6
Continuous
 62
     3
100
AcDbText
 10
-20.54836274464173
 20
-89.50000000000001
 30
0.0
 40
2.5
  1
コード番号名称
 41
0.6
  7
高2.5
100
AcDbText
  0
TEXT
  5
5EE
330
6B
100
AcDbEntity
  8
0
  6
Continuous
 62
     3
100
AcDbText
 10
-20.54836274464173
 20
-73.50000000000001
 30
0.0
 40
2.5
  1
DDA-200Eフレーム塗装（NDDA）黒
 41
0.6
  7
高2.5
100
AcDbText
  0
TEXT
  5
5EF
330
6B
100
AcDbEntity
  8
0
  6
Continuous
 62
     3
100
AcDbText
 10
-20.54836274464173
 20
-85.5
 30
0.0
 40
2.5
  1
NDD-A板 エメラルドグリーン
 41
0.6
  7
高2.5
100
AcDbText
  0
TEXT
  5
801
330
6B
100
AcDbEntity
  8
0
 62
     3
100
AcDbText
 10
125.9999999999999
 20
80.5
 30
0.0
 40
3.2
  1
担　当
  7
高3.2
100
AcDbText
  0
TEXT
  5
802
330
6B
100
AcDbEntity
  8
0
 62
     3
100
AcDbText
 10
81.99999999999986
 20
80.5
 30
0.0
 40
3.2
  1
変更・追記内容
  7
高3.2
100
AcDbText
  0
TEXT
  5
803
330
6B
100
AcDbEntity
  8
0
 62
     3
100
AcDbText
 10
57.11351500033913
 20
75.8294614900917
 30
0.0
 40
2.0
  1
1
  7
高2
100
AcDbText
  0
TEXT
  5
804
330
6B
100
AcDbEntity
  8
0
 62
     3
100
AcDbText
 10
56.80500352358183
 20
70.65964477781881
 30
0.0
 40
2.0
  1
2
  7
高2
100
AcDbText
  0
TEXT
  5
805
330
6B
100
AcDbEntity
  8
0
 62
     3
100
AcDbText
 10
63.99999999999988
 20
80.5
 30
0.0
 40
3.2
  1
日　付
  7
高3.2
100
AcDbText
  0
TEXT
  5
806
330
6B
100
AcDbEntity
  8
0
 62
     3
100
AcDbText
 10
63.99999999999988
 20
85.5
 30
0.0
 40
3.2
  1
図　　　　面　　　　略　　　　歴
  7
高3.2
100
AcDbText
  0
TEXT
  5
807
330
6B
100
AcDbEntity
  8
0
 62
     3
100
AcDbText
 10
53.99999999999988
 20
80.5
 30
0.0
 40
3.2
  1
記号
  7
高3.2
100
AcDbText
  0
LINE
  5
808
330
6B
100
AcDbEntity
  8
0
 62
     7
100
AcDbLine
 10
57.49999999999989
 20
73.79089600000009
 30
0.0
 11
55.5999999999999
 21
70.5
 31
0.0
  0
LINE
  5
809
330
6B
100
AcDbEntity
  8
0
 62
     7
100
AcDbLine
 10
57.49999999999989
 20
73.79089600000009
 30
0.0
 11
59.39999999999987
 21
70.5
 31
0.0
  0
LINE
  5
80A
330
6B
100
AcDbEntity
  8
0
 62
     7
100
AcDbLine
 10
55.5999999999999
 20
70.5
 30
0.0
 11
59.39999999999987
 21
70.5
 31
0.0
  0
LINE
  5
80B
330
6B
100
AcDbEntity
  8
0
 62
     7
100
AcDbLine
 10
57.49999999999989
 20
78.79089700000007
 30
0.0
 11
55.5999999999999
 21
75.5
 31
0.0
  0
LINE
  5
80C
330
6B
100
AcDbEntity
  8
0
 62
     7
100
AcDbLine
 10
57.49999999999989
 20
78.79089700000007
 30
0.0
 11
59.39999999999987
 21
75.5
 31
0.0
  0
LINE
  5
80D
330
6B
100
AcDbEntity
  8
0
 62
     7
100
AcDbLine
 10
55.5999999999999
 20
75.5
 30
0.0
 11
59.39999999999987
 21
75.5
 31
0.0
  0
LINE
  5
80E
330
6B
100
AcDbEntity
  8
0
 62
     3
100
AcDbLine
 10
52.49999999999989
 20
85.0
 30
0.0
 11
138.4999999999999
 21
85.0
 31
0.0
  0
LINE
  5
80F
330
6B
100
AcDbEntity
  8
0
 62
     3
100
AcDbLine
 10
52.49999999999989
 20
80.0
 30
0.0
 11
138.4999999999999
 21
80.0
 31
0.0
  0
LINE
  5
810
330
6B
100
AcDbEntity
  8
0
 62
     7
100
AcDbLine
 10
52.49999999999989
 20
75.0
 30
0.0
 11
138.4999999999999
 21
75.0
 31
0.0
  0
LINE
  5
811
330
6B
100
AcDbEntity
  8
0
 62
     3
100
AcDbLine
 10
52.49999999999989
 20
70.0
 30
0.0
 11
138.4999999999999
 21
70.0
 31
0.0
  0
LINE
  5
812
330
6B
100
AcDbEntity
  8
0
 62
     7
100
AcDbLine
 10
124.4999999999997
 20
70.0
 30
0.0
 11
124.4999999999999
 21
85.0
 31
0.0
  0
LINE
  5
813
330
6B
100
AcDbEntity
  8
0
 62
     7
100
AcDbLine
 10
80.49999999999989
 20
70.0
 30
0.0
 11
80.49999999999989
 21
85.0
 31
0.0
  0
LINE
  5
814
330
6B
100
AcDbEntity
  8
0
 62
     7
100
AcDbLine
 10
62.49999999999989
 20
70.0
 30
0.0
 11
62.49999999999989
 21
85.0
 31
0.0
  0
LINE
  5
815
330
6B
100
AcDbEntity
  8
0
 62
     3
100
AcDbLine
 10
52.49999999999989
 20
70.0
 30
0.0
 11
52.49999999999989
 21
90.0
 31
0.0
  0
DIMENSION
  5
A24
330
6B
100
AcDbEntity
  8
0
100
AcDbDimension
  2
*D1
 10
70.19230913923133
 20
-47.31784150552175
 30
0.0
 11
42.21228556763025
 21
-47.31784150552175
 31
0.0
 70
   160
  1
270
 71
     5
 42
53.99662499999999
  3
FREE
100
AcDbAlignedDimension
 13
16.19568413923133
 23
-36.13487130974146
 33
0.0
 14
70.19230913923133
 24
-28.22536568474147
 34
0.0
100
AcDbRotatedDimension
  0
DIMENSION
  5
A25
330
6B
100
AcDbEntity
  8
0
100
AcDbDimension
  2
*D2
 10
-30.82744819796875
 20
55.9493730652585
 30
0.0
 11
-32.95244819796876
 21
8.952310565258516
 31
0.0
 70
    32
  1
470
 71
     5
 42
93.99412499999995
  3
FREE
100
AcDbAlignedDimension
 13
-47.97697148576867
 23
-38.04475193474146
 33
0.0
 14
-69.97559648576879
 24
55.94937306525851
 34
0.0
 50
90.0
100
AcDbRotatedDimension
  0
DIMENSION
  5
A26
330
6B
100
AcDbEntity
  8
0
100
AcDbDimension
  2
*D3
 10
-47.97697148576867
 20
-47.12149796715175
 30
0.0
 11
-83.30134436399133
 21
-47.12149796715175
 31
0.0
 70
   160
  1
360
 71
     5
 42
72.17548875000001
  3
FREE
100
AcDbAlignedDimension
 13
-120.1524602357687
 23
-36.13487130974146
 33
0.0
 14
-47.97697148576867
 24
-36.13487130974146
 34
0.0
100
AcDbRotatedDimension
  0
DIMENSION
  5
A27
330
6B
100
AcDbEntity
  8
0
100
AcDbDimension
  2
*D4
 10
59.77296038923123
 20
-28.66519581106241
 30
0.0
 11
38.67668893496329
 21
-28.66519581106241
 31
0.0
 70
   160
  1
200
 71
     5
 42
39.99749999999995
  3
FREE
100
AcDbAlignedDimension
 13
19.77546038923128
 23
-15.44616443474146
 33
0.0
 14
59.77296038923123
 24
-15.44616443474146
 34
0.0
100
AcDbRotatedDimension
  0
DIMENSION
  5
A28
330
6B
100
AcDbEntity
  8
0
100
AcDbDimension
  2
*D5
 10
5.340404236631286
 20
30.95093556525854
 30
0.0
 11
3.215404236631279
 21
7.952373065258536
 31
0.0
 70
    32
  1
φ230
 71
     5
 42
45.99712499999999
  3
FREE
100
AcDbAlignedDimension
 13
19.77546038923128
 23
-15.04618943474146
 33
0.0
 14
19.77546038923128
 24
30.95093556525853
 34
0.0
 50
90.0
100
AcDbRotatedDimension
  0
DIMENSION
  5
A29
330
6B
100
AcDbEntity
  8
0
100
AcDbDimension
  2
*D6
 10
-4.93290990776876
 20
48.01107883965851
 30
0.0
 11
-7.057909907768769
 21
7.95237359855853
 31
0.0
 70
    32
  1
φ400
 71
     5
 42
80.11741048219997
  3
FREE
100
AcDbAlignedDimension
 13
16.77368214543122
 23
-32.10633164254146
 33
0.0
 14
16.77368214543122
 24
48.01107883965851
 34
0.0
 50
90.0
100
AcDbRotatedDimension
  0
CIRCLE
  5
A2A
330
6B
100
AcDbEntity
  8
0
 62
     3
100
AcDbCircle
 10
-84.06471586076866
 20
7.95237306525853
 30
0.0
 40
38.3976
  0
LINE
  5
A2B
330
6B
100
AcDbEntity
  8
0
 62
     3
100
AcDbLine
 10
19.77546038923128
 20
30.95093556525853
 30
0.0
 11
59.77296038923123
 21
30.95093556525853
 31
0.0
  0
LINE
  5
A2C
330
6B
100
AcDbEntity
  8
0
 62
     3
100
AcDbLine
 10
19.77546038923128
 20
-15.04618943474146
 30
0.0
 11
59.77296038923123
 21
-15.04618943474146
 31
0.0
  0
ARC
  5
A2D
330
6B
100
AcDbEntity
  8
0
 62
     3
100
AcDbCircle
 10
62.76501657403122
 20
47.3222557604585
 30
0.0
 40
0.79995
100
AcDbArc
 50
187.9852720000002
 51
188.9981689999986
  0
ARC
  5
A2E
330
6B
100
AcDbEntity
  8
0
 62
     3
100
AcDbCircle
 10
62.77473863303129
 20
47.2111288396585
 30
0.0
 40
0.79995
100
AcDbArc
 50
0.0
 51
180.0
  0
LINE
  5
A2F
330
6B
100
AcDbEntity
  8
0
 62
     3
100
AcDbLine
 10
59.77296038923123
 20
10.10223869025853
 30
0.0
 11
59.77296038923123
 21
31.35091056525853
 31
0.0
  0
LINE
  5
A30
330
6B
100
AcDbEntity
  8
0
 62
     3
100
AcDbLine
 10
60.17293538923121
 20
38.20485870005852
 30
0.0
 11
60.17293538923121
 21
31.75088556525854
 31
0.0
  0
LINE
  5
A31
330
6B
100
AcDbEntity
  8
0
 62
     3
100
AcDbLine
 10
59.77296038923123
 20
31.35091056525853
 30
0.0
 11
60.17293538923121
 21
31.75088556525854
 31
0.0
  0
LINE
  5
A32
330
6B
100
AcDbEntity
  8
0
 62
     3
100
AcDbLine
 10
60.97288538923129
 20
38.75044806525853
 30
0.0
 11
60.97288538923129
 21
41.05030431525851
 31
0.0
  0
LINE
  5
A33
330
6B
100
AcDbEntity
  8
0
 62
     3
100
AcDbLine
 10
60.27915061703123
 20
41.41925298785852
 30
0.0
 11
60.97288538923129
 21
41.05030431525851
 31
0.0
  0
LINE
  5
A34
330
6B
100
AcDbEntity
  8
0
 62
     3
100
AcDbLine
 10
60.27901835863127
 20
38.38142899705852
 30
0.0
 11
60.97288538923129
 21
38.75044806525853
 31
0.0
  0
ARC
  5
A35
330
6B
100
AcDbEntity
  8
0
 62
     3
100
AcDbCircle
 10
60.37305621423133
 20
41.59582328485849
 30
0.0
 40
0.1999875
100
AcDbArc
 50
179.6653869999996
 51
241.9946169999985
  0
ARC
  5
A36
330
6B
100
AcDbEntity
  8
0
 62
     3
100
AcDbCircle
 10
60.37292288923123
 20
38.20485870005852
 30
0.0
 40
0.1999875
100
AcDbArc
 50
118.0053830000015
 51
180.0
  0
ARC
  5
A37
330
6B
100
AcDbEntity
  8
0
 62
     3
100
AcDbCircle
 10
68.34336550543134
 20
40.86905804385851
 30
0.0
 40
8.1994875
100
AcDbArc
 50
140.9584370000006
 51
175.1149329999992
  0
ARC
  5
A38
330
6B
100
AcDbEntity
  8
0
 62
     3
100
AcDbCircle
 10
62.77473863303129
 20
-31.30638164254146
 30
0.0
 40
0.79995
100
AcDbArc
 50
180.0
 51
0.0
  0
LINE
  5
A39
330
6B
100
AcDbEntity
  8
0
 62
     3
100
AcDbLine
 10
59.77296038923123
 20
7.95237306525853
 30
0.0
 11
59.77296038923123
 21
-15.44616443474146
 31
0.0
  0
LINE
  5
A3A
330
6B
100
AcDbEntity
  8
0
 62
     3
100
AcDbLine
 10
60.17293538923121
 20
-22.30011256954146
 30
0.0
 11
60.17293538923121
 21
-15.84613943474147
 31
0.0
  0
LINE
  5
A3B
330
6B
100
AcDbEntity
  8
0
 62
     3
100
AcDbLine
 10
59.77296038923123
 20
-15.44616443474146
 30
0.0
 11
60.17293538923121
 21
-15.84613943474147
 31
0.0
  0
LINE
  5
A3C
330
6B
100
AcDbEntity
  8
0
 62
     3
100
AcDbLine
 10
60.97288538923129
 20
-22.84570193474145
 30
0.0
 11
60.97288538923129
 21
-25.14555818474146
 31
0.0
  0
LINE
  5
A3D
330
6B
100
AcDbEntity
  8
0
 62
     3
100
AcDbLine
 10
60.27915061703123
 20
-25.51450685734147
 30
0.0
 11
60.97288538923129
 21
-25.14555818474146
 31
0.0
  0
LINE
  5
A3E
330
6B
100
AcDbEntity
  8
0
 62
     3
100
AcDbLine
 10
60.27901835863127
 20
-22.47668179994146
 30
0.0
 11
60.97288538923129
 21
-22.84570193474145
 31
0.0
  0
ARC
  5
A3F
330
6B
100
AcDbEntity
  8
0
 62
     3
100
AcDbCircle
 10
60.37305621423133
 20
-25.69107608774146
 30
0.0
 40
0.1999875
100
AcDbArc
 50
118.0053830000015
 51
180.3346130000003
  0
ARC
  5
A40
330
6B
100
AcDbEntity
  8
0
 62
     3
100
AcDbCircle
 10
60.37292288923123
 20
-22.30011256954146
 30
0.0
 40
0.1999875
100
AcDbArc
 50
180.0
 51
241.9946169999985
  0
ARC
  5
A41
330
6B
100
AcDbEntity
  8
0
 62
     3
100
AcDbCircle
 10
68.34336550543134
 20
-24.96431084674147
 30
0.0
 40
8.1994875
100
AcDbArc
 50
184.8850670000006
 51
219.0415629999993
  0
ARC
  5
A42
330
6B
100
AcDbEntity
  8
0
 62
     3
100
AcDbCircle
 10
16.77368214543122
 20
47.2111288396585
 30
0.0
 40
0.79995
100
AcDbArc
 50
358.9981690000004
 51
180.0
  0
LINE
  5
A43
330
6B
100
AcDbEntity
  8
0
 62
     3
100
AcDbLine
 10
19.3754853892313
 20
38.20485870005852
 30
0.0
 11
19.3754853892313
 21
31.75088556525854
 31
0.0
  0
LINE
  5
A44
330
6B
100
AcDbEntity
  8
0
 62
     3
100
AcDbLine
 10
18.57553538923122
 20
38.75044806525853
 30
0.0
 11
18.57553538923122
 21
41.05030431525851
 31
0.0
  0
LINE
  5
A45
330
6B
100
AcDbEntity
  8
0
 62
     3
100
AcDbLine
 10
19.26927016143128
 20
41.41925298785852
 30
0.0
 11
18.57553538923122
 21
41.05030431525851
 31
0.0
  0
LINE
  5
A46
330
6B
100
AcDbEntity
  8
0
 62
     3
100
AcDbLine
 10
19.26940348643126
 20
38.38142899705852
 30
0.0
 11
18.57553538923122
 21
38.75044806525853
 31
0.0
  0
ARC
  5
A47
330
6B
100
AcDbEntity
  8
0
 62
     3
100
AcDbCircle
 10
19.17536563083132
 20
41.59582328485849
 30
0.0
 40
0.1999875
100
AcDbArc
 50
298.0053830000015
 51
0.3346130000003177
  0
ARC
  5
A48
330
6B
100
AcDbEntity
  8
0
 62
     3
100
AcDbCircle
 10
19.17549788923128
 20
38.20485870005852
 30
0.0
 40
0.1999875
100
AcDbArc
 50
0.0
 51
61.99461699999844
  0
ARC
  5
A49
330
6B
100
AcDbEntity
  8
0
 62
     3
100
AcDbCircle
 10
11.20505633963125
 20
40.86905804385851
 30
0.0
 40
8.1994875
100
AcDbArc
 50
4.885067000000692
 51
39.04156299999931
  0
LINE
  5
A4A
330
6B
100
AcDbEntity
  8
0
 62
     3
100
AcDbLine
 10
19.77546038923128
 20
10.10223869025853
 30
0.0
 11
19.77546038923128
 21
31.35091056525853
 31
0.0
  0
LINE
  5
A4B
330
6B
100
AcDbEntity
  8
0
 62
     3
100
AcDbLine
 10
19.77546038923128
 20
7.95237306525853
 30
0.0
 11
19.77546038923128
 21
-15.44616443474146
 31
0.0
  0
LINE
  5
A4C
330
6B
100
AcDbEntity
  8
0
 62
     3
100
AcDbLine
 10
19.3754853892313
 20
-22.30011256954146
 30
0.0
 11
19.3754853892313
 21
-15.84613943474147
 31
0.0
  0
LINE
  5
A4D
330
6B
100
AcDbEntity
  8
0
 62
     3
100
AcDbLine
 10
19.77546038923128
 20
-15.44616443474146
 30
0.0
 11
19.3754853892313
 21
-15.84613943474147
 31
0.0
  0
LINE
  5
A4E
330
6B
100
AcDbEntity
  8
0
 62
     3
100
AcDbLine
 10
18.57553538923122
 20
-22.84570193474145
 30
0.0
 11
18.57553538923122
 21
-25.14555818474146
 31
0.0
  0
LINE
  5
A4F
330
6B
100
AcDbEntity
  8
0
 62
     3
100
AcDbLine
 10
19.26940348643126
 20
-22.47668179994146
 30
0.0
 11
18.57553538923122
 21
-22.84570193474145
 31
0.0
  0
ARC
  5
A50
330
6B
100
AcDbEntity
  8
0
 62
     3
100
AcDbCircle
 10
19.17549788923128
 20
-22.30011256954146
 30
0.0
 40
0.1999875
100
AcDbArc
 50
298.0053830000015
 51
0.0
  0
ARC
  5
A51
330
6B
100
AcDbEntity
  8
0
 62
     3
100
AcDbCircle
 10
16.78340420443129
 20
-31.41750962994147
 30
0.0
 40
0.79995
100
AcDbArc
 50
7.985272000000166
 51
8.99816899999858
  0
ARC
  5
A52
330
6B
100
AcDbEntity
  8
0
 62
     3
100
AcDbCircle
 10
16.77368214543122
 20
-31.30638164254146
 30
0.0
 40
0.79995
100
AcDbArc
 50
180.0
 51
0.0
  0
LINE
  5
A53
330
6B
100
AcDbEntity
  8
0
 62
     3
100
AcDbLine
 10
19.26927016143128
 20
-25.51450685734147
 30
0.0
 11
18.57553538923122
 21
-25.14555818474146
 31
0.0
  0
ARC
  5
A54
330
6B
100
AcDbEntity
  8
0
 62
     3
100
AcDbCircle
 10
19.17536563083132
 20
-25.69107608774146
 30
0.0
 40
0.1999875
100
AcDbArc
 50
359.6653869999998
 51
61.99461699999844
  0
ARC
  5
A55
330
6B
100
AcDbEntity
  8
0
 62
     3
100
AcDbCircle
 10
11.20505633963125
 20
-24.96431084674147
 30
0.0
 40
8.1994875
100
AcDbArc
 50
320.9584370000007
 51
355.1149329999994
  0
LINE
  5
A56
330
6B
100
AcDbEntity
  8
0
 62
     3
100
AcDbLine
 10
19.77546038923128
 20
31.35091056525853
 30
0.0
 11
19.3754853892313
 21
31.75088556525854
 31
0.0
  0
LINE
  5
A57
330
6B
100
AcDbEntity
  8
0
 62
     3
100
AcDbLine
 10
65.97257288923127
 20
11.05217931525853
 30
0.0
 11
66.37254788923127
 21
11.05217931525853
 31
0.0
  0
LINE
  5
A58
330
6B
100
AcDbEntity
  8
0
 62
     3
100
AcDbLine
 10
65.97257288923127
 20
4.852566815258537
 30
0.0
 11
66.37254788923127
 21
4.852566815258537
 31
0.0
  0
ARC
  5
A59
330
6B
100
AcDbEntity
  8
0
  6
PHANTOM
 62
     7
100
AcDbCircle
 10
-56.98346667796869
 20
-17.35061073274146
 30
0.0
 40
0.1999875
100
AcDbArc
 50
246.0000000000024
 51
328.4053569999991
  0
CIRCLE
  5
A5A
330
6B
100
AcDbEntity
  8
0
 62
     3
100
AcDbCircle
 10
-58.61046258436875
 20
-17.50188021114146
 30
0.0
 40
1.999874999999999
  0
LINE
  5
A5B
330
6B
100
AcDbEntity
  8
0
  6
PHANTOM
 62
     7
100
AcDbLine
 10
-54.86632540756869
 20
-4.939494209341464
 30
0.0
 11
-51.78010764156869
 21
-6.313567257741464
 31
0.0
  0
ARC
  5
A5C
330
6B
100
AcDbEntity
  8
0
  6
PHANTOM
 62
     7
100
AcDbCircle
 10
-53.3462508181687
 20
-6.186793314941464
 30
0.0
 40
0.5113099078
100
AcDbArc
 50
89.86115600000423
 51
148.3990489999993
  0
ARC
  5
A5D
330
6B
100
AcDbEntity
  8
0
  6
PHANTOM
 62
     7
100
AcDbCircle
 10
-53.72415893076868
 20
-6.018537164941463
 30
0.0
 40
0.5113099078
100
AcDbArc
 50
343.6009509999985
 51
42.13884399999971
  0
ARC
  5
A5E
330
6B
100
AcDbEntity
  8
0
  6
PHANTOM
 62
     7
100
AcDbCircle
 10
-52.3914987605687
 20
-6.580047668341464
 30
0.0
 40
0.49996875
100
AcDbArc
 50
335.0000000000015
 51
10.26439000000044
  0
ARC
  5
A5F
330
6B
100
AcDbEntity
  8
0
  6
PHANTOM
 62
     7
100
AcDbCircle
 10
-51.80113779376876
 20
-6.473140217141466
 30
0.0
 40
0.09999375
100
AcDbArc
 50
65.00000000000026
 51
190.2643900000004
  0
ARC
  5
A60
330
6B
100
AcDbEntity
  8
0
  6
PHANTOM
 62
     7
100
AcDbCircle
 10
-51.79706338176874
 20
-6.475039831741465
 30
0.0
 40
0.09999375
100
AcDbArc
 50
35.0000000000018
 51
65.00000000000026
  0
LINE
  5
A61
330
6B
100
AcDbEntity
  8
0
  6
PHANTOM
 62
     7
100
AcDbLine
 10
-53.23000741716874
 20
-6.154713186741464
 30
0.0
 11
-51.91460270176873
 21
-6.740369380941466
 31
0.0
  0
LINE
  5
A62
330
6B
100
AcDbEntity
  8
0
  6
PHANTOM
 62
     7
100
AcDbLine
 10
-51.64908543096874
 20
-6.858584925341464
 30
0.0
 11
-51.50701004456874
 21
-6.921840704941462
 31
0.0
  0
LINE
  5
A63
330
6B
100
AcDbEntity
  8
0
  6
PHANTOM
 62
     7
100
AcDbLine
 10
-53.77810115916872
 20
-5.910685772741466
 30
0.0
 11
-55.09350587456873
 21
-5.325029578541464
 31
0.0
  0
LINE
  5
A64
330
6B
100
AcDbEntity
  8
0
  6
PHANTOM
 62
     7
100
AcDbLine
 10
-55.35902314536873
 20
-5.206814034141462
 30
0.0
 11
-55.50109853176872
 21
-5.143558254541463
 31
0.0
  0
ARC
  5
A65
330
6B
100
AcDbEntity
  8
0
  6
PHANTOM
 62
     7
100
AcDbCircle
 10
-55.0696812303687
 20
-5.396238994341462
 30
0.0
 40
0.49996875
100
AcDbArc
 50
66.00000000000243
 51
157.2188750000002
  0
ARC
  5
A66
330
6B
100
AcDbEntity
  8
0
  6
PHANTOM
 62
     7
100
AcDbCircle
 10
-51.9834634643687
 20
-6.770312042741462
 30
0.0
 40
0.49996875
100
AcDbArc
 50
334.7811249999991
 51
66.00000000000243
  0
ARC
  5
A67
330
6B
100
AcDbEntity
  8
0
  6
PHANTOM
 62
     7
100
AcDbCircle
 10
-54.9708394083687
 20
-5.061898291941467
 30
0.0
 40
0.09999375
100
AcDbArc
 50
301.7356100000043
 51
66.99999999999993
  0
ARC
  5
A68
330
6B
100
AcDbEntity
  8
0
  6
PHANTOM
 62
     7
100
AcDbCircle
 10
-54.97497781636872
 20
-5.060141601741463
 30
0.0
 40
0.09999375
100
AcDbArc
 50
66.99999999999993
 51
96.99999999999613
  0
ARC
  5
A69
330
6B
100
AcDbEntity
  8
0
  6
PHANTOM
 62
     7
100
AcDbCircle
 10
-54.65525913336875
 20
-5.572156532141463
 30
0.0
 40
0.49996875
100
AcDbArc
 50
121.7356100000043
 51
156.9999999999984
  0
LINE
  5
A6A
330
6B
100
AcDbEntity
  8
0
  6
PHANTOM
 62
     7
100
AcDbLine
 10
-51.53114826916868
 20
-6.983336594541466
 30
0.0
 11
-55.31932535996872
 21
-15.02674425014146
 31
0.0
  0
LINE
  5
A6B
330
6B
100
AcDbEntity
  8
0
  6
PHANTOM
 62
     7
100
AcDbLine
 10
-59.77856557336867
 20
-16.13508457454146
 30
0.0
 11
-58.97327830696866
 21
-13.39989873434146
 31
0.0
  0
ARC
  5
A6C
330
6B
100
AcDbEntity
  8
0
  6
PHANTOM
 62
     7
100
AcDbCircle
 10
-57.22148806736868
 20
-15.22386686254147
 30
0.0
 40
0.6445709117999999
100
AcDbArc
 50
160.7892750000001
 51
213.9193779999994
  0
ARC
  5
A6D
330
6B
100
AcDbEntity
  8
0
  6
PHANTOM
 62
     7
100
AcDbCircle
 10
-59.18524265836873
 20
-14.86219240194146
 30
0.0
 40
0.0399975
100
AcDbArc
 50
207.7720239999994
 51
336.9999999999984
  0
LINE
  5
A6E
330
6B
100
AcDbEntity
  8
0
  6
PHANTOM
 62
     7
100
AcDbLine
 10
-57.83016682256874
 20
-15.01177451914146
 30
0.0
 11
-53.7817435981687
 21
-5.918866594741466
 31
0.0
  0
LINE
  5
A6F
330
6B
100
AcDbEntity
  8
0
  6
PHANTOM
 62
     7
100
AcDbLine
 10
-57.28207414716871
 20
-15.25580193314146
 30
0.0
 11
-53.23364985616871
 21
-6.162892942141464
 31
0.0
  0
LINE
  5
A70
330
6B
100
AcDbEntity
  8
0
  6
PHANTOM
 62
     7
100
AcDbLine
 10
-55.5306476181687
 20
-5.202644694741465
 30
0.0
 11
-58.97327830696866
 21
-13.39989873434146
 31
0.0
  0
LINE
  5
A71
330
6B
100
AcDbEntity
  8
0
  6
PHANTOM
 62
     7
100
AcDbLine
 10
-59.14842469296871
 20
-14.87782022514146
 30
0.0
 11
-55.11548316756869
 21
-5.376803409141466
 31
0.0
  0
ARC
  5
A72
330
6B
100
AcDbEntity
  8
0
  6
PHANTOM
 62
     7
100
AcDbCircle
 10
-57.84697430536875
 20
-14.94538293554146
 30
0.0
 40
0.6445709117999999
100
AcDbArc
 50
278.0806219999989
 51
331.2107249999987
  0
ARC
  5
A73
330
6B
100
AcDbEntity
  8
0
  6
PHANTOM
 62
     7
100
AcDbCircle
 10
-59.58672049776868
 20
-16.19156744414146
 30
0.0
 40
0.1999875
100
AcDbArc
 50
163.5946430000009
 51
246.0000000000024
  0
LINE
  5
A74
330
6B
100
AcDbEntity
  8
0
  6
PHANTOM
 62
     7
100
AcDbLine
 10
-59.66806261356868
 20
-16.37426535814146
 30
0.0
 11
-57.06480879376875
 21
-17.53330864674146
 31
0.0
  0
LINE
  5
A75
330
6B
100
AcDbEntity
  8
0
  6
PHANTOM
 62
     7
100
AcDbLine
 10
-59.59051012756868
 20
-16.40879333334146
 30
0.0
 11
-59.64531950176871
 21
-16.38439059194146
 31
0.0
  0
ARC
  5
A76
330
6B
100
AcDbEntity
  8
0
  6
PHANTOM
 62
     7
100
AcDbCircle
 10
-56.26418896896871
 20
-16.16272871334146
 30
0.0
 40
0.0399975
100
AcDbArc
 50
155.0000000000015
 51
285.227976000003
  0
LINE
  5
A77
330
6B
100
AcDbEntity
  8
0
  6
PHANTOM
 62
     7
100
AcDbLine
 10
-56.30043950316866
 20
-16.14582523654146
 30
0.0
 11
-51.93837294936867
 21
-6.791344328141466
 31
0.0
  0
LINE
  5
A78
330
6B
100
AcDbEntity
  8
0
  6
PHANTOM
 62
     7
100
AcDbLine
 10
-56.81312212516871
 20
-17.45538498394147
 30
0.0
 11
-55.31932535996872
 21
-15.02674425014146
 31
0.0
  0
LINE
  5
A79
330
6B
100
AcDbEntity
  8
0
 62
     3
100
AcDbLine
 10
5.376360389231251
 20
-25.54150037014146
 30
0.0
 11
5.376360389231251
 21
-28.91978628074146
 31
0.0
  0
ARC
  5
A7A
330
6B
100
AcDbEntity
  8
0
 62
     3
100
AcDbCircle
 10
5.876329139231245
 20
-25.54150037014146
 30
0.0
 40
0.49996875
100
AcDbArc
 50
88.78112499999875
 51
180.0
  0
LINE
  5
A7B
330
6B
100
AcDbEntity
  8
0
 62
     3
100
AcDbLine
 10
5.886964207831226
 20
-25.04164467974147
 30
0.0
 11
14.77577288923129
 21
-25.23076885874147
 31
0.0
  0
ARC
  5
A7C
330
6B
100
AcDbEntity
  8
0
 62
     3
100
AcDbCircle
 10
5.876329139231245
 20
-28.91978628074146
 30
0.0
 40
0.49996875
100
AcDbArc
 50
180.0
 51
271.2188750000012
  0
LINE
  5
A7D
330
6B
100
AcDbEntity
  8
0
 62
     3
100
AcDbLine
 10
5.886964207831226
 20
-29.41964197114146
 30
0.0
 11
14.77577288923129
 21
-29.23051885874146
 31
0.0
  0
LINE
  5
A7E
330
6B
100
AcDbEntity
  8
0
 62
     3
100
AcDbLine
 10
15.61572038923128
 20
-25.34276185874146
 30
0.0
 11
14.77577288923129
 21
-25.23076885874147
 31
0.0
  0
LINE
  5
A7F
330
6B
100
AcDbEntity
  8
0
 62
     3
100
AcDbLine
 10
15.61572038923128
 20
-29.11852585874148
 30
0.0
 11
14.77577288923129
 21
-29.23051885874146
 31
0.0
  0
LINE
  5
A80
330
6B
100
AcDbEntity
  8
0
 62
     3
100
AcDbLine
 10
63.57468863303125
 20
5.352535565258531
 30
0.0
 11
63.57468863303125
 21
-31.30638164254146
 31
0.0
  0
LINE
  5
A81
330
6B
100
AcDbEntity
  8
0
 62
     3
100
AcDbLine
 10
15.97373214543125
 20
47.2111288396585
 30
0.0
 11
15.97373214543125
 21
-25.36916447514146
 31
0.0
  0
LINE
  5
A82
330
6B
100
AcDbEntity
  8
0
 62
     3
100
AcDbLine
 10
15.97373214543125
 20
-29.09212217574147
 30
0.0
 11
15.97373214543125
 21
-31.30638164254146
 31
0.0
  0
LINE
  5
A83
330
6B
100
AcDbEntity
  8
0
 62
     3
100
AcDbLine
 10
15.61572038923128
 20
-25.34276185874146
 30
0.0
 11
15.97373214543125
 21
-25.39049647514146
 31
0.0
  0
LINE
  5
A84
330
6B
100
AcDbEntity
  8
0
 62
     3
100
AcDbLine
 10
15.61572038923128
 20
-29.11852585874148
 30
0.0
 11
15.97373214543125
 21
-29.07079017574146
 31
0.0
  0
ARC
  5
A85
330
6B
100
AcDbEntity
  8
0
 62
     3
100
AcDbCircle
 10
91.98577819972157
 20
7.95237306525853
 30
0.0
 40
40.05870470779999
100
AcDbArc
 50
72.29989799999979
 51
90.0
  0
ARC
  5
A86
330
6B
100
AcDbEntity
  8
0
 62
     3
100
AcDbCircle
 10
91.98577819972157
 20
7.95237306525853
 30
0.0
 40
38.4588047078
100
AcDbArc
 50
71.53757200000027
 51
90.0
  0
ARC
  5
A87
330
6B
100
AcDbEntity
  8
0
 62
     3
100
AcDbCircle
 10
91.98577819972157
 20
7.95237306525853
 30
0.0
 40
38.4588047078
100
AcDbArc
 50
50.08784300000222
 51
65.41746800000351
  0
ARC
  5
A88
330
6B
100
AcDbEntity
  8
0
 62
     3
100
AcDbCircle
 10
91.98577819972157
 20
7.95237306525853
 30
0.0
 40
40.05870470779999
100
AcDbArc
 50
18.43758200000049
 51
45.35214799999822
  0
ARC
  5
A89
330
6B
100
AcDbEntity
  8
0
 62
     3
100
AcDbCircle
 10
91.98577819972157
 20
7.95237306525853
 30
0.0
 40
40.05870470779999
100
AcDbArc
 50
49.68098399999717
 51
66.46002199999936
  0
LINE
  5
A8A
330
6B
100
AcDbEntity
  8
0
 62
     3
100
AcDbLine
 10
63.57468863303125
 20
10.55221056525853
 30
0.0
 11
63.57468863303125
 21
47.2111288396585
 31
0.0
  0
CIRCLE
  5
A8B
330
6B
100
AcDbEntity
  8
0
 62
     3
100
AcDbCircle
 10
-84.06471586076866
 20
7.95237306525853
 30
0.0
 40
2.870834961599998
  0
LINE
  5
A8C
330
6B
100
AcDbEntity
  8
0
 62
     3
100
AcDbLine
 10
104.1650169497215
 20
52.12961181525852
 30
0.0
 11
104.1650169497215
 21
54.03949244025851
 31
0.0
  0
LINE
  5
A8D
330
6B
100
AcDbEntity
  8
0
 62
     3
100
AcDbLine
 10
15.97373214543125
 20
-25.39049647514146
 30
0.0
 11
15.97373214543125
 21
-29.07079017574146
 31
0.0
  0
LINE
  5
A8E
330
6B
100
AcDbEntity
  8
0
 62
     3
100
AcDbLine
 10
61.97491129203126
 20
47.2251151654585
 30
0.0
 11
61.97491129203126
 21
-31.32036796834146
 31
0.0
  0
LINE
  5
A8F
330
6B
100
AcDbEntity
  8
0
 62
     3
100
AcDbLine
 10
59.77296038923123
 20
10.10223869025853
 30
0.0
 11
59.77296038923123
 21
7.95237306525853
 31
0.0
  0
LINE
  5
A90
330
6B
100
AcDbEntity
  8
0
 62
     3
100
AcDbLine
 10
63.57468863303125
 20
10.55221056525853
 30
0.0
 11
63.57468863303125
 21
5.352535565258531
 31
0.0
  0
LINE
  5
A91
330
6B
100
AcDbEntity
  8
0
 62
     3
100
AcDbLine
 10
19.77546038923128
 20
10.10223869025853
 30
0.0
 11
19.77546038923128
 21
7.95237306525853
 31
0.0
  0
LWPOLYLINE
  5
A92
330
6B
100
AcDbEntity
  8
0
 62
     7
100
AcDbPolyline
 90
        2
 70
     1
 43
0.399975
 10
117.5624696899215
 20
35.78835267445852
 42
1.0
 10
117.1624946899215
 20
35.78835267445852
 42
1.0
  0
LINE
  5
A93
330
6B
100
AcDbEntity
  8
0
 62
     7
100
AcDbLine
 10
117.3624821899215
 20
35.78835267445852
 30
0.0
 11
115.9219866265216
 21
60.34750563145853
 31
0.0
  0
CIRCLE
  5
A94
330
6B
100
AcDbEntity
  8
0
 62
     7
100
AcDbCircle
 10
115.6877879315215
 20
64.34039312705853
 30
0.0
 40
3.999749999999999
  0
TEXT
  5
A95
330
6B
100
AcDbEntity
  8
0
 62
     4
100
AcDbText
 10
114.1027279350696
 20
61.78047388255555
 30
0.0
 40
4.799699999999999
  1
6
  7
高4.5
100
AcDbText
  0
LINE
  5
A96
330
6B
100
AcDbEntity
  8
0
 62
     3
100
AcDbLine
 10
120.5240968433215
 20
36.77658317285852
 30
0.0
 11
118.5958546993215
 21
39.07457287285853
 31
0.0
  0
ARC
  5
A97
330
6B
100
AcDbEntity
  8
0
 62
     3
100
AcDbCircle
 10
91.98577819972157
 20
7.95237306525853
 30
0.0
 40
38.4588047078
100
AcDbArc
 50
19.82003600000075
 51
45.57548999999979
  0
LINE
  5
A98
330
6B
100
AcDbEntity
  8
0
 62
     3
100
AcDbLine
 10
114.2328655365216
 20
31.49761392905853
 30
0.0
 11
120.5240968433215
 21
36.77658317285852
 31
0.0
  0
LINE
  5
A99
330
6B
100
AcDbEntity
  8
0
 62
     3
100
AcDbLine
 10
104.0250256997214
 20
31.40602178725854
 30
0.0
 11
107.3048206997216
 21
31.40602178725854
 31
0.0
  0
ARC
  5
A9A
330
6B
100
AcDbEntity
  8
0
 62
     3
100
AcDbCircle
 10
107.7047956997216
 20
31.45601866225853
 30
0.0
 40
0.399975
100
AcDbArc
 50
90.0
 51
180.0
  0
ARC
  5
A9B
330
6B
100
AcDbEntity
  8
0
 62
     3
100
AcDbCircle
 10
107.7047956997216
 20
29.55613741225855
 30
0.0
 40
0.399975
100
AcDbArc
 50
180.0
 51
270.0
  0
LINE
  5
A9C
330
6B
100
AcDbEntity
  8
0
 62
     3
100
AcDbLine
 10
104.0250256997214
 20
29.60613428725854
 30
0.0
 11
107.3048206997216
 21
29.60613428725854
 31
0.0
  0
ARC
  5
A9D
330
6B
100
AcDbEntity
  8
0
 62
     3
100
AcDbCircle
 10
109.1047081997215
 20
31.45601866225853
 30
0.0
 40
0.399975
100
AcDbArc
 50
0.0
 51
90.0
  0
LINE
  5
A9E
330
6B
100
AcDbEntity
  8
0
 62
     3
100
AcDbLine
 10
111.4350820089215
 20
29.91178771605854
 30
0.0
 11
112.4262445907215
 21
30.23959869325853
 31
0.0
  0
ARC
  5
A9F
330
6B
100
AcDbEntity
  8
0
 62
     3
100
AcDbCircle
 10
110.0406571659215
 20
30.15609991225854
 30
0.0
 40
0.9999374999999998
100
AcDbArc
 50
270.0
 51
304.9999999999974
  0
LINE
  5
AA0
330
6B
100
AcDbEntity
  8
0
 62
     3
100
AcDbLine
 10
104.0250256997214
 20
29.60613428725854
 30
0.0
 11
104.0250256997214
 21
31.40602178725854
 31
0.0
  0
LINE
  5
AA1
330
6B
100
AcDbEntity
  8
0
 62
     3
100
AcDbLine
 10
112.5089572875216
 20
33.95960937805853
 30
0.0
 11
109.5046831997215
 21
31.85599366225853
 31
0.0
  0
LINE
  5
AA2
330
6B
100
AcDbEntity
  8
0
 62
     3
100
AcDbLine
 10
114.2295793419215
 20
31.50230696905854
 30
0.0
 11
112.4262445907215
 21
30.23959869325853
 31
0.0
  0
LINE
  5
AA3
330
6B
100
AcDbEntity
  8
0
 62
     3
100
AcDbLine
 10
110.0406571659215
 20
29.15616241225854
 30
0.0
 11
107.7047956997216
 21
29.15616241225854
 31
0.0
  0
LINE
  5
AA4
330
6B
100
AcDbEntity
  8
0
 62
     3
100
AcDbLine
 10
110.6141978507216
 20
29.33699910925853
 30
0.0
 11
111.4350820089215
 21
29.91178771605854
 31
0.0
  0
ARC
  5
AA5
330
6B
100
AcDbEntity
  8
0
 62
     3
100
AcDbCircle
 10
109.1047081997215
 20
29.55613741225855
 30
0.0
 40
0.399975
100
AcDbArc
 50
270.0
 51
0.0
  0
LINE
  5
AA6
330
6B
100
AcDbEntity
  8
0
 62
     3
100
AcDbLine
 10
109.5046831997215
 20
31.45601866225853
 30
0.0
 11
109.5046831997215
 21
29.55613741225855
 31
0.0
  0
LINE
  5
AA7
330
6B
100
AcDbEntity
  8
0
 62
     3
100
AcDbLine
 10
107.7047956997216
 20
31.85599366225853
 30
0.0
 11
109.5046831997215
 21
31.85599366225853
 31
0.0
  0
LINE
  5
AA8
330
6B
100
AcDbEntity
  8
0
 62
     3
100
AcDbLine
 10
107.3048206997216
 20
31.45601866225853
 30
0.0
 11
107.3048206997216
 21
29.55613741225855
 31
0.0
  0
LINE
  5
AA9
330
6B
100
AcDbEntity
  8
0
 62
     3
100
AcDbLine
 10
112.5056710929215
 20
33.96430241805854
 30
0.0
 11
118.5958546993215
 21
39.07457287285853
 31
0.0
  0
LINE
  5
AAA
330
6B
100
AcDbEntity
  8
0
 62
     3
100
AcDbLine
 10
65.97257288923127
 20
10.55221056525853
 30
0.0
 11
63.57468863303125
 21
10.55221056525853
 31
0.0
  0
LINE
  5
AAB
330
6B
100
AcDbEntity
  8
0
 62
     3
100
AcDbLine
 10
65.97257288923127
 20
5.352535565258531
 30
0.0
 11
63.57468863303125
 21
5.352535565258531
 31
0.0
  0
LINE
  5
AAC
330
6B
100
AcDbEntity
  8
0
 62
     3
100
AcDbLine
 10
65.97257288923127
 20
4.852566815258537
 30
0.0
 11
65.97257288923127
 21
11.05217931525853
 31
0.0
  0
ARC
  5
AAD
330
6B
100
AcDbEntity
  8
0
 62
     3
100
AcDbCircle
 10
60.37292288923123
 20
46.12998681525851
 30
0.0
 40
5.999624999999999
100
AcDbArc
 50
0.0
 51
90.0
  0
ARC
  5
AAE
330
6B
100
AcDbEntity
  8
0
 62
     3
100
AcDbCircle
 10
60.37292288923123
 20
46.12998681525851
 30
0.0
 40
9.81938625
100
AcDbArc
 50
0.0
 51
90.0
  0
ARC
  5
AAF
330
6B
100
AcDbEntity
  8
0
 62
     3
100
AcDbCircle
 10
60.37292288923123
 20
-28.22536568474147
 30
0.0
 40
5.999624999999999
100
AcDbArc
 50
270.0
 51
0.0
  0
ARC
  5
AB0
330
6B
100
AcDbEntity
  8
0
 62
     3
100
AcDbCircle
 10
60.37292288923123
 20
-28.22536568474147
 30
0.0
 40
9.81938625
100
AcDbArc
 50
270.0
 51
0.0
  0
ARC
  5
AB1
330
6B
100
AcDbEntity
  8
0
 62
     3
100
AcDbCircle
 10
18.10660043283133
 20
-36.13383457454147
 30
0.0
 40
1.910916293599999
100
AcDbArc
 50
87.3317569999987
 51
270.0
  0
LINE
  5
AB2
330
6B
100
AcDbEntity
  8
0
 62
     3
100
AcDbLine
 10
17.5735094864313
 20
-31.32036796834146
 30
0.0
 11
17.5735094864313
 21
47.2251151654585
 31
0.0
  0
CIRCLE
  5
AB3
330
6B
100
AcDbEntity
  8
0
 62
     3
100
AcDbCircle
 10
-84.06471586076866
 20
7.95237306525853
 30
0.0
 40
39.9975
  0
LINE
  5
AB4
330
6B
100
AcDbEntity
  8
0
 62
     3
100
AcDbLine
 10
-111.7367825151687
 20
-20.92766715274147
 30
0.0
 11
-119.9000344133687
 21
-35.18593222214147
 31
0.0
  0
LINE
  5
AB5
330
6B
100
AcDbEntity
  8
0
 62
     3
100
AcDbLine
 10
-108.7974537013687
 20
-23.48155232494146
 30
0.0
 11
-114.9483705783687
 21
-34.22499068474146
 31
0.0
  0
LINE
  5
AB6
330
6B
100
AcDbEntity
  8
0
 62
     3
100
AcDbLine
 10
-59.33197802016866
 20
-23.48155232494146
 30
0.0
 11
-53.18106114316873
 21
-34.22499068474146
 31
0.0
  0
LINE
  5
AB7
330
6B
100
AcDbEntity
  8
0
 62
     3
100
AcDbLine
 10
-56.39264920636873
 20
-20.92766715274147
 30
0.0
 11
-48.22939624156873
 21
-35.18593222214147
 31
0.0
  0
LINE
  5
AB8
330
6B
100
AcDbEntity
  8
0
 62
     3
100
AcDbLine
 10
-84.06471586076866
 20
-34.22499068474146
 30
0.0
 11
-118.2425796107687
 21
-34.22499068474146
 31
0.0
  0
LINE
  5
AB9
330
6B
100
AcDbEntity
  8
0
 62
     3
100
AcDbLine
 10
-84.06471586076866
 20
-38.04475193474146
 30
0.0
 11
-118.2425796107687
 21
-38.04475193474146
 31
0.0
  0
LINE
  5
ABA
330
6B
100
AcDbEntity
  8
0
 62
     3
100
AcDbLine
 10
-84.06471586076866
 20
-38.04475193474146
 30
0.0
 11
-49.88685211076876
 21
-38.04475193474146
 31
0.0
  0
LINE
  5
ABB
330
6B
100
AcDbEntity
  8
0
 62
     3
100
AcDbLine
 10
-84.06471586076866
 20
-34.22499068474146
 30
0.0
 11
-49.88685211076876
 21
-34.22499068474146
 31
0.0
  0
CIRCLE
  5
ABC
330
6B
100
AcDbEntity
  8
0
 62
     3
100
AcDbCircle
 10
91.98577819972157
 20
7.95237306525853
 30
0.0
 40
0.9999374999999998
  0
LINE
  5
ABD
330
6B
100
AcDbEntity
  8
0
 62
     3
100
AcDbLine
 10
104.1650169497215
 20
2.674214437458534
 30
0.0
 11
104.1650169497215
 21
12.95206056525854
 31
0.0
  0
LINE
  5
ABE
330
6B
100
AcDbEntity
  8
0
 62
     3
100
AcDbLine
 10
104.1650169497215
 20
12.95206056525854
 30
0.0
 11
91.98577819972157
 21
12.95206056525854
 31
0.0
  0
LINE
  5
ABF
330
6B
100
AcDbEntity
  8
0
 62
     3
100
AcDbLine
 10
91.98577819972157
 20
2.95268556525853
 30
0.0
 11
104.1650169497215
 21
2.95268556525853
 31
0.0
  0
LINE
  5
AC0
330
6B
100
AcDbEntity
  8
0
 62
     3
100
AcDbLine
 10
91.98577819972157
 20
55.94937306525851
 30
0.0
 11
106.0748975747214
 21
55.94937306525851
 31
0.0
  0
LINE
  5
AC1
330
6B
100
AcDbEntity
  8
0
 62
     3
100
AcDbLine
 10
91.98577819972157
 20
52.12961181525852
 30
0.0
 11
104.1650169497215
 21
52.12961181525852
 31
0.0
  0
LINE
  5
AC2
330
6B
100
AcDbEntity
  8
0
 62
     3
100
AcDbLine
 10
104.1650169497215
 20
12.95206056525854
 30
0.0
 11
104.1650169497215
 21
29.60613428725854
 31
0.0
  0
LINE
  5
AC3
330
6B
100
AcDbEntity
  8
0
 62
     3
100
AcDbLine
 10
104.1650169497215
 20
31.40602178725854
 30
0.0
 11
104.1650169497215
 21
52.12961181525852
 31
0.0
  0
CIRCLE
  5
AC4
330
6B
100
AcDbEntity
  8
0
 62
     3
100
AcDbCircle
 10
91.98577819972157
 20
7.95237306525853
 30
0.0
 40
1.899881249999999
  0
LINE
  5
AC5
330
6B
100
AcDbEntity
  8
0
 62
     3
100
AcDbLine
 10
107.9847781997216
 20
31.85599366225853
 30
0.0
 11
107.9847781997216
 21
54.03949244025851
 31
0.0
  0
LINE
  5
AC6
330
6B
100
AcDbEntity
  8
0
 62
     3
100
AcDbLine
 10
107.9847781997216
 20
5.393993240658534
 30
0.0
 11
107.9847781997216
 21
29.15616241225854
 31
0.0
  0
LINE
  5
AC7
330
6B
100
AcDbEntity
  8
0
 62
     3
100
AcDbLine
 10
70.19230913923133
 20
46.12998681525851
 30
0.0
 11
70.19230913923133
 21
-28.22536568474147
 31
0.0
  0
LINE
  5
AC8
330
6B
100
AcDbEntity
  8
0
 62
     3
100
AcDbLine
 10
66.37254788923127
 20
-28.22536568474147
 30
0.0
 11
66.37254788923127
 21
46.12998681525851
 31
0.0
  0
LINE
  5
AC9
330
6B
100
AcDbEntity
  8
0
 62
     3
100
AcDbLine
 10
38.10431476423128
 20
55.94937306525851
 30
0.0
 11
60.37292288923123
 21
55.94937306525851
 31
0.0
  0
LINE
  5
ACA
330
6B
100
AcDbEntity
  8
0
 62
     3
100
AcDbLine
 10
60.37292288923123
 20
52.12961181525852
 30
0.0
 11
38.10431476423128
 21
52.12961181525852
 31
0.0
  0
ARC
  5
ACB
330
6B
100
AcDbEntity
  8
0
 62
     3
100
AcDbCircle
 10
38.10431476423128
 20
54.03949244025851
 30
0.0
 40
1.909880624999998
100
AcDbArc
 50
90.0
 51
270.0
  0
LINE
  5
ACC
330
6B
100
AcDbEntity
  8
0
 62
     3
100
AcDbLine
 10
60.37292288923123
 20
-34.22499068474146
 30
0.0
 11
18.19555913923131
 21
-34.22499068474146
 31
0.0
  0
LINE
  5
ACD
330
6B
100
AcDbEntity
  8
0
 62
     3
100
AcDbLine
 10
18.10660043283133
 20
-38.04475193474146
 30
0.0
 11
60.37292288923123
 21
-38.04475193474146
 31
0.0
  0
LINE
  5
ACE
330
6B
100
AcDbEntity
  8
0
 62
     3
100
AcDbLine
 10
-68.0657158607687
 20
44.61068764405853
 30
0.0
 11
-68.0657158607687
 21
54.03949244025851
 31
0.0
  0
LINE
  5
ACF
330
6B
100
AcDbEntity
  8
0
 62
     3
100
AcDbLine
 10
-71.8854771107687
 20
52.12961181525852
 30
0.0
 11
-71.8854771107687
 21
46.05048565105852
 31
0.0
  0
ARC
  5
AD0
330
6B
100
AcDbEntity
  8
0
 62
     3
100
AcDbCircle
 10
-69.97559648576879
 20
54.03949244025851
 30
0.0
 40
1.909880624999998
100
AcDbArc
 50
270.0
 51
0.0
  0
LINE
  5
AD1
330
6B
100
AcDbEntity
  8
0
 62
     3
100
AcDbLine
 10
-84.06471586076866
 20
52.12961181525852
 30
0.0
 11
-69.97559648576879
 21
52.12961181525852
 31
0.0
  0
LINE
  5
AD2
330
6B
100
AcDbEntity
  8
0
 62
     3
100
AcDbLine
 10
-84.06471586076866
 20
55.94937306525851
 30
0.0
 11
-69.97559648576879
 21
55.94937306525851
 31
0.0
  0
ARC
  5
AD3
330
6B
100
AcDbEntity
  8
0
 62
     3
100
AcDbCircle
 10
-69.97559648576879
 20
54.03949244025851
 30
0.0
 40
1.909880624999998
100
AcDbArc
 50
0.0
 51
90.0
  0
LINE
  5
AD4
330
6B
100
AcDbEntity
  8
0
 62
     3
100
AcDbLine
 10
-84.06471586076866
 20
55.94937306525851
 30
0.0
 11
-98.15383523576867
 21
55.94937306525851
 31
0.0
  0
LINE
  5
AD5
330
6B
100
AcDbEntity
  8
0
 62
     3
100
AcDbLine
 10
-84.06471586076866
 20
52.12961181525852
 30
0.0
 11
-98.15383523576867
 21
52.12961181525852
 31
0.0
  0
LINE
  5
AD6
330
6B
100
AcDbEntity
  8
0
 62
     3
100
AcDbLine
 10
-96.2439546107687
 20
52.12961181525852
 30
0.0
 11
-96.2439546107687
 21
46.05048565105852
 31
0.0
  0
ARC
  5
AD7
330
6B
100
AcDbEntity
  8
0
 62
     3
100
AcDbCircle
 10
-98.15383523576867
 20
54.03949244025851
 30
0.0
 40
1.909880624999998
100
AcDbArc
 50
180.0
 51
270.0
  0
ARC
  5
AD8
330
6B
100
AcDbEntity
  8
0
 62
     3
100
AcDbCircle
 10
-98.15383523576867
 20
54.03949244025851
 30
0.0
 40
1.909880624999998
100
AcDbArc
 50
90.0
 51
180.0
  0
LINE
  5
AD9
330
6B
100
AcDbEntity
  8
0
 62
     3
100
AcDbLine
 10
-100.0637158607687
 20
44.61068764405853
 30
0.0
 11
-100.0637158607687
 21
54.03949244025851
 31
0.0
  0
ARC
  5
ADA
330
6B
100
AcDbEntity
  8
0
 62
     3
100
AcDbCircle
 10
-118.2425796107687
 20
-36.13487130974146
 30
0.0
 40
1.909880624999998
100
AcDbArc
 50
90.0
 51
270.0
  0
ARC
  5
ADB
330
6B
100
AcDbEntity
  8
0
 62
     3
100
AcDbCircle
 10
-49.88685211076876
 20
-36.13487130974146
 30
0.0
 40
1.909880624999998
100
AcDbArc
 50
270.0
 51
90.0
  0
LWPOLYLINE
  5
ADC
330
6B
100
AcDbEntity
  8
0
 62
     7
100
AcDbPolyline
 90
        2
 70
     1
 43
0.399975
 10
17.25083845463126
 20
47.91373452405851
 42
1.0
 10
16.85086345463128
 20
47.91373452405851
 42
1.0
  0
LINE
  5
ADD
330
6B
100
AcDbEntity
  8
0
 62
     7
100
AcDbLine
 10
17.05085095463124
 20
47.91373452405851
 30
0.0
 11
12.13392094863133
 21
60.61055478985854
 31
0.0
  0
CIRCLE
  5
ADE
330
6B
100
AcDbEntity
  8
0
 62
     7
100
AcDbCircle
 10
10.68951629623126
 20
64.34039312705853
 30
0.0
 40
3.999749999999999
  0
TEXT
  5
ADF
330
6B
100
AcDbEntity
  8
0
 62
     4
100
AcDbText
 10
9.899094156620492
 20
62.15633971745254
 30
0.0
 40
4.799699999999999
  1
1
  7
高4.5
100
AcDbText
  0
LWPOLYLINE
  5
AE0
330
6B
100
AcDbEntity
  8
0
 62
     7
100
AcDbPolyline
 90
        2
 70
     1
 43
0.399975
 10
63.29640309363134
 20
47.57725528865852
 42
1.0
 10
62.8964280936313
 20
47.57725528865852
 42
1.0
  0
LINE
  5
AE1
330
6B
100
AcDbEntity
  8
0
 62
     7
100
AcDbLine
 10
63.09641559363126
 20
47.57725528865852
 30
0.0
 11
55.0681163270313
 21
61.2128595434585
 31
0.0
  0
CIRCLE
  5
AE2
330
6B
100
AcDbEntity
  8
0
 62
     7
100
AcDbCircle
 10
53.03878183503133
 20
64.65956891065854
 30
0.0
 40
3.999749999999999
  0
TEXT
  5
AE3
330
6B
100
AcDbEntity
  8
0
 62
     4
100
AcDbText
 10
51.45372183857944
 20
62.09964966615553
 30
0.0
 40
4.799699999999999
  1
2
  7
高4.5
100
AcDbText
  0
LWPOLYLINE
  5
AE4
330
6B
100
AcDbEntity
  8
0
 62
     7
100
AcDbPolyline
 90
        2
 70
     1
 43
0.399975
 10
36.22826242483137
 20
30.58554400365853
 42
1.0
 10
35.82828742483133
 20
30.58554400365853
 42
1.0
  0
LINE
  5
AE5
330
6B
100
AcDbEntity
  8
0
 62
     7
100
AcDbLine
 10
36.02827492483129
 20
30.58554400365853
 30
0.0
 11
27.10357408683132
 21
60.50750309765851
 31
0.0
  0
CIRCLE
  5
AE6
330
6B
100
AcDbEntity
  8
0
 62
     7
100
AcDbCircle
 10
25.9603527426313
 20
64.34039312705853
 30
0.0
 40
3.999749999999999
  0
TEXT
  5
AE7
330
6B
100
AcDbEntity
  8
0
 62
     4
100
AcDbText
 10
24.37529274617936
 20
61.78047388255555
 30
0.0
 40
4.799699999999999
  1
3
  7
高4.5
100
AcDbText
  0
LWPOLYLINE
  5
AE8
330
6B
100
AcDbEntity
  8
0
 62
     7
100
AcDbPolyline
 90
        2
 70
     1
 43
0.399975
 10
66.76675364983129
 20
54.06052792545853
 42
1.0
 10
66.3667786498313
 20
54.06052792545853
 42
1.0
  0
LINE
  5
AE9
330
6B
100
AcDbEntity
  8
0
 62
     7
100
AcDbLine
 10
66.56676614983127
 20
54.06052792545853
 30
0.0
 11
69.56887930603125
 21
60.98949110485853
 31
0.0
  0
CIRCLE
  5
AEA
330
6B
100
AcDbEntity
  8
0
 62
     7
100
AcDbCircle
 10
71.15901458303125
 20
64.65956891065854
 30
0.0
 40
3.999749999999999
  0
TEXT
  5
AEB
330
6B
100
AcDbEntity
  8
0
 62
     4
100
AcDbText
 10
69.5739545865794
 20
62.09964966615553
 30
0.0
 40
4.799699999999999
  1
4
  7
高4.5
100
AcDbText
  0
LWPOLYLINE
  5
AEC
330
6B
100
AcDbEntity
  8
0
 62
     7
100
AcDbPolyline
 90
        2
 70
     1
 43
0.399975
 10
64.66684970203124
 20
9.219448001458534
 42
1.0
 10
64.2668747020312
 20
9.219448001458534
 42
1.0
  0
LINE
  5
AED
330
6B
100
AcDbEntity
  8
0
 62
     7
100
AcDbLine
 10
64.46686220203128
 20
9.219448001458534
 30
0.0
 11
86.6429289112312
 21
60.98300404365852
 31
0.0
  0
CIRCLE
  5
AEE
330
6B
100
AcDbEntity
  8
0
 62
     7
100
AcDbCircle
 10
88.21800912923123
 20
64.65956891065854
 30
0.0
 40
3.999749999999999
  0
TEXT
  5
AEF
330
6B
100
AcDbEntity
  8
0
 62
     4
100
AcDbText
 10
86.6329491327794
 20
62.09964966615553
 30
0.0
 40
4.799699999999999
  1
5
  7
高4.5
100
AcDbText
  0
LWPOLYLINE
  5
AF0
330
6B
100
AcDbEntity
  8
0
 62
     7
100
AcDbPolyline
 90
        2
 70
     1
 43
0.399975
 10
-84.17959081396872
 20
9.110703865058529
 42
1.0
 10
-84.57956581396871
 20
9.110703865058529
 42
1.0
  0
LINE
  5
AF1
330
6B
100
AcDbEntity
  8
0
 62
     7
100
AcDbLine
 10
-84.3795783139687
 20
9.110703865058529
 30
0.0
 11
-58.23435489256866
 21
60.77164765425852
 31
0.0
  0
CIRCLE
  5
AF2
330
6B
100
AcDbEntity
  8
0
 62
     7
100
AcDbCircle
 10
-56.42823951516874
 20
64.34039312705853
 30
0.0
 40
3.999749999999999
  0
TEXT
  5
AF3
330
6B
100
AcDbEntity
  8
0
 62
     4
100
AcDbText
 10
-58.01329951162063
 20
61.78047388255555
 30
0.0
 40
4.799699999999999
  1
8
  7
高4.5
100
AcDbText
  0
LWPOLYLINE
  5
AF4
330
6B
100
AcDbEntity
  8
0
 62
     7
100
AcDbPolyline
 90
        2
 70
     1
 43
0.399975
 10
-64.3855021551687
 20
19.36344116225853
 42
1.0
 10
-64.78547715516873
 20
19.36344116225853
 42
1.0
  0
LINE
  5
AF5
330
6B
100
AcDbEntity
  8
0
 62
     7
100
AcDbLine
 10
-64.58548965516871
 20
19.36344116225853
 30
0.0
 11
-43.19204709556868
 21
60.78661311885852
 31
0.0
  0
CIRCLE
  5
AF6
330
6B
100
AcDbEntity
  8
0
 62
     7
100
AcDbCircle
 10
-41.3566588811687
 20
64.34039312705853
 30
0.0
 40
3.999749999999999
  0
TEXT
  5
AF7
330
6B
100
AcDbEntity
  8
0
 62
     4
100
AcDbText
 10
-42.94171887762058
 20
61.78047388255555
 30
0.0
 40
4.799699999999999
  1
9
  7
高4.5
100
AcDbText
  0
LWPOLYLINE
  5
AF8
330
6B
100
AcDbEntity
  8
0
 62
     7
100
AcDbPolyline
 90
        2
 70
     1
 43
0.399975
 10
8.388672374631312
 20
-28.48386579414146
 42
1.0
 10
7.988697374631271
 20
-28.48386579414146
 42
1.0
  0
LINE
  5
AF9
330
6B
100
AcDbEntity
  8
0
 62
     7
100
AcDbLine
 10
8.188684874631292
 20
-28.48386579414146
 30
0.0
 11
-1.491387416368752
 21
-41.70093514234145
 31
0.0
  0
CIRCLE
  5
AFA
330
6B
100
AcDbEntity
  8
0
 62
     7
100
AcDbCircle
 10
-3.854717032368682
 20
-44.92780118394146
 30
0.0
 40
3.999749999999999
  0
TEXT
  5
AFB
330
6B
100
AcDbEntity
  8
0
 62
     4
100
AcDbText
 10
-5.593751744972962
 20
-47.73337584057962
 30
0.0
 40
4.799699999999999
  1
7
  7
高4.5
100
AcDbText
  0
ARC
  5
AFC
330
6B
100
AcDbEntity
  8
0
 62
     3
100
AcDbCircle
 10
106.0748975747214
 20
54.03949244025851
 30
0.0
 40
1.909880624999998
100
AcDbArc
 50
0.0
 51
90.0
  0
ARC
  5
AFD
330
6B
100
AcDbEntity
  8
0
 62
     3
100
AcDbCircle
 10
106.0748975747214
 20
54.03949244025851
 30
0.0
 40
1.909880624999998
100
AcDbArc
 50
90.0
 51
180.0
  0
LINE
  5
AFE
330
6B
100
AcDbEntity
  8
0
 62
     7
100
AcDbLine
 10
117.7650735597215
 20
35.24468318925852
 30
0.0
 11
116.6081282733216
 21
36.62347700925851
 31
0.0
  0
LINE
  5
AFF
330
6B
100
AcDbEntity
  8
0
 62
     7
100
AcDbLine
 10
115.1653853837214
 20
35.41287214345852
 30
0.0
 11
116.3223306701215
 21
34.03407832345852
 31
0.0
  0
ARC
  5
B00
330
6B
100
AcDbEntity
  8
0
 62
     7
100
AcDbCircle
 10
91.98577819972157
 20
7.95237306525853
 30
0.0
 40
33.5979
100
AcDbArc
 50
23.52767000000179
 51
46.38528699999842
  0
ARC
  5
B01
330
6B
100
AcDbEntity
  8
0
 62
     7
100
AcDbCircle
 10
91.98577819972157
 20
7.95237306525853
 30
0.0
 40
30.29810625
100
AcDbArc
 50
21.99803099999861
 51
47.45108699999962
  0
ARC
  5
B02
330
6B
100
AcDbEntity
  8
0
 62
     7
100
AcDbCircle
 10
91.98577819972157
 20
7.95237306525853
 30
0.0
 40
30.29810625
100
AcDbArc
 50
53.33763200000146
 51
58.12601499999892
  0
ARC
  5
B03
330
6B
100
AcDbEntity
  8
0
 62
     7
100
AcDbCircle
 10
91.98577819972157
 20
7.95237306525853
 30
0.0
 40
33.5979
100
AcDbArc
 50
51.56616699999926
 51
61.56310999999886
  0
ARC
  5
B04
330
6B
100
AcDbEntity
  8
0
 62
     7
100
AcDbCircle
 10
91.98577819972157
 20
7.95237306525853
 30
0.0
 40
33.5979
100
AcDbArc
 50
68.74619099999552
 51
90.0
  0
ARC
  5
B05
330
6B
100
AcDbEntity
  8
0
 62
     7
100
AcDbCircle
 10
91.98577819972157
 20
7.95237306525853
 30
0.0
 40
30.29810625
100
AcDbArc
 50
66.29797099999595
 51
90.0
  0
LINE
  5
B06
330
6B
100
AcDbEntity
  8
0
 62
     7
100
AcDbLine
 10
112.4262445907215
 20
30.23959869325853
 30
0.0
 11
110.7056236029215
 21
32.69690110225852
 31
0.0
  0
LINE
  5
B07
330
6B
100
AcDbEntity
  8
0
 62
     7
100
AcDbLine
 10
114.2295793419215
 20
31.50230696905854
 30
0.0
 11
112.5089572875216
 21
33.95960937805853
 31
0.0
  0
LINE
  5
B08
330
6B
100
AcDbEntity
  8
0
 62
     7
100
AcDbLine
 10
115.9419821767215
 20
32.93173335765855
 30
0.0
 11
114.0137400327216
 21
35.22972305765855
 31
0.0
  0
LINE
  5
B09
330
6B
100
AcDbEntity
  8
0
 62
     7
100
AcDbLine
 10
116.3211158127215
 20
34.03305865385852
 30
0.0
 11
115.1641705263216
 21
35.41185247385852
 31
0.0
  0
ARC
  5
B0A
330
6B
100
AcDbEntity
  8
0
 62
     7
100
AcDbCircle
 10
116.4743147705215
 20
34.16160848565854
 30
0.0
 40
0.1999875
100
AcDbArc
 50
220.0000000000002
 51
309.9999999999964
  0
LINE
  5
B0B
330
6B
100
AcDbEntity
  8
0
 62
     7
100
AcDbLine
 10
116.6028646023215
 20
34.00840952785852
 30
0.0
 11
117.7404233671215
 21
34.96293439965852
 31
0.0
  0
LINE
  5
B0C
330
6B
100
AcDbEntity
  8
0
 62
     7
100
AcDbLine
 10
116.6069134159215
 20
36.62245733965852
 30
0.0
 11
117.7638587023215
 21
35.24366351965853
 31
0.0
  0
ARC
  5
B0D
330
6B
100
AcDbEntity
  8
0
 62
     7
100
AcDbCircle
 10
117.6118746019214
 20
35.11613335745852
 30
0.0
 40
0.1999875
100
AcDbArc
 50
309.9999999999964
 51
40.00000000000023
  0
ARC
  5
B0E
330
6B
100
AcDbEntity
  8
0
 62
     7
100
AcDbCircle
 10
116.4549293155215
 20
36.49492717745852
 30
0.0
 40
0.1999875
100
AcDbArc
 50
40.00000000000023
 51
129.9999999999963
  0
LINE
  5
B0F
330
6B
100
AcDbEntity
  8
0
 62
     7
100
AcDbLine
 10
115.1888207189216
 20
35.69360126345853
 30
0.0
 11
116.3263794837216
 21
36.64812720185853
 31
0.0
  0
ARC
  5
B10
330
6B
100
AcDbEntity
  8
0
 62
     7
100
AcDbCircle
 10
115.3173694841215
 20
35.54040230565855
 30
0.0
 40
0.1999875
100
AcDbArc
 50
129.9999999999963
 51
220.0000000000002
  0
LINE
  5
B11
330
6B
100
AcDbEntity
  8
0
 62
     7
100
AcDbLine
 10
119.8348353915216
 20
36.19822465585854
 30
0.0
 11
117.9065932475214
 21
38.49621435585853
 31
0.0
  0
ARC
  5
B12
330
6B
100
AcDbEntity
  8
0
 62
     7
100
AcDbCircle
 10
91.98577819972157
 20
7.95237306525853
 30
0.0
 40
18.49884375
100
AcDbArc
 50
48.82368400000427
 51
90.0
  0
ARC
  5
B13
330
6B
100
AcDbEntity
  8
0
 62
     7
100
AcDbCircle
 10
91.98577819972157
 20
7.95237306525853
 30
0.0
 40
18.49884375
100
AcDbArc
 50
358.7190509999996
 51
30.1327219999982
  0
LINE
  5
B14
330
6B
100
AcDbEntity
  8
0
 62
     7
100
AcDbLine
 10
15.61572038923128
 20
-25.66174032134146
 30
0.0
 11
5.87720375123132
 21
-25.49175414614146
 31
0.0
  0
LINE
  5
B15
330
6B
100
AcDbEntity
  8
0
 62
     7
100
AcDbLine
 10
15.61572038923128
 20
-25.66174032134146
 30
0.0
 11
15.97373214543125
 21
-25.66798953074147
 31
0.0
  0
LINE
  5
B16
330
6B
100
AcDbEntity
  8
0
 62
     7
100
AcDbLine
 10
15.61572038923128
 20
-26.93066260874147
 30
0.0
 11
5.829922439831307
 21
-26.93066260874147
 31
0.0
  0
LINE
  5
B17
330
6B
100
AcDbEntity
  8
0
 62
     7
100
AcDbLine
 10
15.61572038923128
 20
-27.53062510874146
 30
0.0
 11
5.829922439831307
 21
-27.53062510874146
 31
0.0
  0
LINE
  5
B18
330
6B
100
AcDbEntity
  8
0
 62
     7
100
AcDbLine
 10
15.61572038923128
 20
-28.79954739614147
 30
0.0
 11
5.87720375123132
 21
-28.96953357134147
 31
0.0
  0
LINE
  5
B19
330
6B
100
AcDbEntity
  8
0
 62
     7
100
AcDbLine
 10
15.61572038923128
 20
-28.79954739614147
 30
0.0
 11
15.97373214543125
 21
-28.79329818674147
 31
0.0
  0
ARC
  5
B1A
330
6B
100
AcDbEntity
  8
0
 62
     7
100
AcDbCircle
 10
15.72953300883131
 20
-27.57298299454146
 30
0.0
 40
0.6445709117999999
100
AcDbArc
 50
67.73721699999871
 51
85.21072500000265
  0
LINE
  5
B1B
330
6B
100
AcDbEntity
  8
0
 62
     7
100
AcDbLine
 10
15.61572038923128
 20
-26.93066260874147
 30
0.0
 11
15.78334937843129
 21
-26.93066260874147
 31
0.0
  0
LINE
  5
B1C
330
6B
100
AcDbEntity
  8
0
 62
     7
100
AcDbLine
 10
15.61572038923128
 20
-27.53062510874146
 30
0.0
 11
15.78334937843129
 21
-27.53062510874146
 31
0.0
  0
ARC
  5
B1D
330
6B
100
AcDbEntity
  8
0
 62
     7
100
AcDbCircle
 10
15.72953300883131
 20
-26.88830365634146
 30
0.0
 40
0.6445709117999999
100
AcDbArc
 50
274.7892749999974
 51
292.2627830000014
  0
ARC
  5
B1E
330
6B
100
AcDbEntity
  8
0
 62
     7
100
AcDbCircle
 10
5.868477896631304
 20
-25.99164610094146
 30
0.0
 40
0.49996875
100
AcDbArc
 50
89.00000000000148
 51
124.264389999999
  0
ARC
  5
B1F
330
6B
100
AcDbEntity
  8
0
 62
     7
100
AcDbCircle
 10
5.530769938031255
 20
-25.49131364034146
 30
0.0
 40
0.09999375
100
AcDbArc
 50
149.0000000000021
 51
178.9999999999999
  0
ARC
  5
B20
330
6B
100
AcDbEntity
  8
0
 62
     7
100
AcDbCircle
 10
5.897554479231303
 20
-27.43747893074147
 30
0.0
 40
0.5113099078
100
AcDbArc
 50
97.60095099999639
 51
156.1388440000003
  0
ARC
  5
B21
330
6B
100
AcDbEntity
  8
0
 62
     7
100
AcDbCircle
 10
5.897554479231303
 20
-27.02380772014147
 30
0.0
 40
0.5113099078
100
AcDbArc
 50
203.8611559999996
 51
262.3990490000036
  0
ARC
  5
B22
330
6B
100
AcDbEntity
  8
0
 62
     7
100
AcDbCircle
 10
5.868477896631304
 20
-28.46964054994147
 30
0.0
 40
0.49996875
100
AcDbArc
 50
235.735610000001
 51
270.9999999999985
  0
ARC
  5
B23
330
6B
100
AcDbEntity
  8
0
 62
     7
100
AcDbCircle
 10
5.530769938031255
 20
-28.96997301054147
 30
0.0
 40
0.09999375
100
AcDbArc
 50
181.0000000000001
 51
210.9999999999979
  0
CIRCLE
  5
B24
330
6B
100
AcDbEntity
  8
0
 62
     7
100
AcDbCircle
 10
-84.06471586076866
 20
7.95237306525853
 30
0.0
 40
23.7985125
  0
CIRCLE
  5
B26
330
6B
100
AcDbEntity
  8
0
 62
     7
100
AcDbCircle
 10
-84.06471586076866
 20
7.95237306525853
 30
0.0
 40
30.798075
  0
CIRCLE
  5
B27
330
6B
100
AcDbEntity
  8
0
 62
     7
100
AcDbCircle
 10
-58.61046258436875
 20
-17.50188021114146
 30
0.0
 40
1.259921249999998
  0
LINE
  5
B28
330
6B
100
AcDbEntity
  8
0
 62
     7
100
AcDbLine
 10
-65.01334771236867
 20
-2.047001934741469
 30
0.0
 11
-65.87931918576874
 21
-2.546970684741467
 31
0.0
  0
LINE
  5
B29
330
6B
100
AcDbEntity
  8
0
 62
     7
100
AcDbLine
 10
-64.14737623896866
 20
-3.546908184741464
 30
0.0
 11
-64.14737623896866
 21
-2.546970684741467
 31
0.0
  0
LINE
  5
B2A
330
6B
100
AcDbEntity
  8
0
 62
     7
100
AcDbLine
 10
-65.87931918576874
 20
-3.546908184741464
 30
0.0
 11
-65.87931918576874
 21
-2.546970684741467
 31
0.0
  0
LINE
  5
B2B
330
6B
100
AcDbEntity
  8
0
 62
     7
100
AcDbLine
 10
-65.01334771236867
 20
-4.046876934741465
 30
0.0
 11
-65.87931918576874
 21
-3.546908184741464
 31
0.0
  0
LINE
  5
B2C
330
6B
100
AcDbEntity
  8
0
 62
     7
100
AcDbLine
 10
-65.01334771236867
 20
-4.046876934741465
 30
0.0
 11
-64.14737623896866
 21
-3.546908184741464
 31
0.0
  0
LINE
  5
B2D
330
6B
100
AcDbEntity
  8
0
 62
     7
100
AcDbLine
 10
-64.14737623896866
 20
-2.546970684741467
 30
0.0
 11
-65.01334771236867
 21
-2.047001934741469
 31
0.0
  0
CIRCLE
  5
B2E
330
6B
100
AcDbEntity
  8
0
 62
     7
100
AcDbCircle
 10
-65.01334771236867
 20
-3.046939434741467
 30
0.0
 40
0.549965625
  0
LINE
  5
B2F
330
6B
100
AcDbEntity
  8
0
 62
     7
100
AcDbLine
 10
-64.14737623896866
 20
19.45165431525854
 30
0.0
 11
-64.14737623896866
 21
18.45171681525854
 31
0.0
  0
LINE
  5
B30
330
6B
100
AcDbEntity
  8
0
 62
     7
100
AcDbLine
 10
-65.01334771236867
 20
19.95162306525853
 30
0.0
 11
-64.14737623896866
 21
19.45165431525854
 31
0.0
  0
LINE
  5
B31
330
6B
100
AcDbEntity
  8
0
 62
     7
100
AcDbLine
 10
-65.87931918576874
 20
19.45165431525854
 30
0.0
 11
-65.87931918576874
 21
18.45171681525854
 31
0.0
  0
LINE
  5
B32
330
6B
100
AcDbEntity
  8
0
 62
     7
100
AcDbLine
 10
-65.01334771236867
 20
19.95162306525853
 30
0.0
 11
-65.87931918576874
 21
19.45165431525854
 31
0.0
  0
LINE
  5
B33
330
6B
100
AcDbEntity
  8
0
 62
     7
100
AcDbLine
 10
-65.01334771236867
 20
17.95174806525853
 30
0.0
 11
-65.87931918576874
 21
18.45171681525854
 31
0.0
  0
LINE
  5
B34
330
6B
100
AcDbEntity
  8
0
 62
     7
100
AcDbLine
 10
-64.14737623896866
 20
18.45171681525854
 30
0.0
 11
-65.01334771236867
 21
17.95174806525853
 31
0.0
  0
CIRCLE
  5
B35
330
6B
100
AcDbEntity
  8
0
 62
     7
100
AcDbCircle
 10
-65.01334771236867
 20
18.95168556525853
 30
0.0
 40
0.549965625
  0
CIRCLE
  5
B36
330
6B
100
AcDbEntity
  8
0
 62
     7
100
AcDbCircle
 10
-84.0541191897687
 20
30.00738494085851
 30
0.0
 40
0.4663356522
  0
LINE
  5
B37
330
6B
100
AcDbEntity
  8
0
 62
     7
100
AcDbLine
 10
-84.93068733416867
 20
30.45096681525854
 30
0.0
 11
-84.93068733416867
 21
29.45102931525854
 31
0.0
  0
LINE
  5
B38
330
6B
100
AcDbEntity
  8
0
 62
     7
100
AcDbLine
 10
-84.06471586076866
 20
30.95093556525853
 30
0.0
 11
-83.19874438736865
 21
30.45096681525854
 31
0.0
  0
LINE
  5
B39
330
6B
100
AcDbEntity
  8
0
 62
     7
100
AcDbLine
 10
-84.93068733416867
 20
30.45096681525854
 30
0.0
 11
-84.06471586076866
 21
30.95093556525853
 31
0.0
  0
LINE
  5
B3A
330
6B
100
AcDbEntity
  8
0
 62
     7
100
AcDbLine
 10
-84.93068733416867
 20
29.45102931525854
 30
0.0
 11
-84.06471586076866
 21
28.95106056525854
 31
0.0
  0
LINE
  5
B3B
330
6B
100
AcDbEntity
  8
0
 62
     7
100
AcDbLine
 10
-83.19874438736865
 20
29.45102931525854
 30
0.0
 11
-84.06471586076866
 21
28.95106056525854
 31
0.0
  0
LINE
  5
B3C
330
6B
100
AcDbEntity
  8
0
 62
     7
100
AcDbLine
 10
-83.19874438736865
 20
30.45096681525854
 30
0.0
 11
-83.19874438736865
 21
29.45102931525854
 31
0.0
  0
LINE
  5
B3D
330
6B
100
AcDbEntity
  8
0
 62
     7
100
AcDbLine
 10
-82.39075328996864
 20
6.952435565258529
 30
0.0
 11
-84.06471586076866
 21
6.002494940258532
 31
0.0
  0
LINE
  5
B3E
330
6B
100
AcDbEntity
  8
0
 62
     7
100
AcDbLine
 10
-82.39075328996864
 20
6.952435565258529
 30
0.0
 11
-82.39075328996864
 21
8.952310565258532
 31
0.0
  0
LINE
  5
B3F
330
6B
100
AcDbEntity
  8
0
 62
     7
100
AcDbLine
 10
-82.39075328996864
 20
8.952310565258532
 30
0.0
 11
-84.06471586076866
 21
9.902251190258536
 31
0.0
  0
LINE
  5
B40
330
6B
100
AcDbEntity
  8
0
 62
     7
100
AcDbLine
 10
-85.73867736496862
 20
6.952435565258529
 30
0.0
 11
-85.73867736496862
 21
8.952310565258532
 31
0.0
  0
LINE
  5
B41
330
6B
100
AcDbEntity
  8
0
 62
     7
100
AcDbLine
 10
-85.73867736496862
 20
6.952435565258529
 30
0.0
 11
-84.06471586076866
 21
6.002494940258532
 31
0.0
  0
LINE
  5
B42
330
6B
100
AcDbEntity
  8
0
 62
     7
100
AcDbLine
 10
-85.73867736496862
 20
8.952310565258532
 30
0.0
 11
-84.06471586076866
 21
9.902251190258536
 31
0.0
  0
CIRCLE
  5
B43
330
6B
100
AcDbEntity
  8
0
 62
     7
100
AcDbCircle
 10
-103.0873818031686
 20
18.97268265285853
 30
0.0
 40
0.4713529386
  0
LINE
  5
B44
330
6B
100
AcDbEntity
  8
0
 62
     7
100
AcDbLine
 10
-103.9820554825687
 20
-3.546908184741464
 30
0.0
 11
-103.9820554825687
 21
-2.546970684741467
 31
0.0
  0
LINE
  5
B45
330
6B
100
AcDbEntity
  8
0
 62
     7
100
AcDbLine
 10
-102.2501125357686
 20
-3.546908184741464
 30
0.0
 11
-102.2501125357686
 21
-2.546970684741467
 31
0.0
  0
LINE
  5
B46
330
6B
100
AcDbEntity
  8
0
 62
     7
100
AcDbLine
 10
-103.1160840091687
 20
-4.046876934741465
 30
0.0
 11
-102.2501125357686
 21
-3.546908184741464
 31
0.0
  0
LINE
  5
B47
330
6B
100
AcDbEntity
  8
0
 62
     7
100
AcDbLine
 10
-103.1160840091687
 20
-2.047001934741469
 30
0.0
 11
-102.2501125357686
 21
-2.546970684741467
 31
0.0
  0
LINE
  5
B48
330
6B
100
AcDbEntity
  8
0
 62
     7
100
AcDbLine
 10
-103.9820554825687
 20
-2.546970684741467
 30
0.0
 11
-103.1160840091687
 21
-2.047001934741469
 31
0.0
  0
LINE
  5
B49
330
6B
100
AcDbEntity
  8
0
 62
     7
100
AcDbLine
 10
-103.1160840091687
 20
-4.046876934741465
 30
0.0
 11
-103.9820554825687
 21
-3.546908184741464
 31
0.0
  0
CIRCLE
  5
B4A
330
6B
100
AcDbEntity
  8
0
 62
     7
100
AcDbCircle
 10
-103.1160840091687
 20
-3.046939434741467
 30
0.0
 40
0.549965625
  0
LINE
  5
B4B
330
6B
100
AcDbEntity
  8
0
 62
     7
100
AcDbLine
 10
-103.9820554825687
 20
19.45165431525854
 30
0.0
 11
-103.9820554825687
 21
18.45171681525854
 31
0.0
  0
LINE
  5
B4C
330
6B
100
AcDbEntity
  8
0
 62
     7
100
AcDbLine
 10
-103.1160840091687
 20
19.95162306525853
 30
0.0
 11
-103.9820554825687
 21
19.45165431525854
 31
0.0
  0
LINE
  5
B4D
330
6B
100
AcDbEntity
  8
0
 62
     7
100
AcDbLine
 10
-103.9820554825687
 20
18.45171681525854
 30
0.0
 11
-103.1160840091687
 21
17.95174806525853
 31
0.0
  0
LINE
  5
B4E
330
6B
100
AcDbEntity
  8
0
 62
     7
100
AcDbLine
 10
-103.1160840091687
 20
17.95174806525853
 30
0.0
 11
-102.2501125357686
 21
18.45171681525854
 31
0.0
  0
LINE
  5
B4F
330
6B
100
AcDbEntity
  8
0
 62
     7
100
AcDbLine
 10
-102.2501125357686
 20
19.45165431525854
 30
0.0
 11
-102.2501125357686
 21
18.45171681525854
 31
0.0
  0
LINE
  5
B50
330
6B
100
AcDbEntity
  8
0
 62
     7
100
AcDbLine
 10
-103.1160840091687
 20
19.95162306525853
 30
0.0
 11
-102.2501125357686
 21
19.45165431525854
 31
0.0
  0
LINE
  5
B51
330
6B
100
AcDbEntity
  8
0
 62
     7
100
AcDbLine
 10
-83.19874438736865
 20
-13.54628318474146
 30
0.0
 11
-84.06471586076866
 21
-13.04631443474146
 31
0.0
  0
LINE
  5
B52
330
6B
100
AcDbEntity
  8
0
 62
     7
100
AcDbLine
 10
-83.19874438736865
 20
-14.54622068474147
 30
0.0
 11
-83.19874438736865
 21
-13.54628318474146
 31
0.0
  0
LINE
  5
B53
330
6B
100
AcDbEntity
  8
0
 62
     7
100
AcDbLine
 10
-84.06471586076866
 20
-15.04618943474146
 30
0.0
 11
-83.19874438736865
 21
-14.54622068474147
 31
0.0
  0
LINE
  5
B54
330
6B
100
AcDbEntity
  8
0
 62
     7
100
AcDbLine
 10
-84.93068733416867
 20
-14.54622068474147
 30
0.0
 11
-84.06471586076866
 21
-15.04618943474146
 31
0.0
  0
LINE
  5
B55
330
6B
100
AcDbEntity
  8
0
 62
     7
100
AcDbLine
 10
-84.93068733416867
 20
-13.54628318474146
 30
0.0
 11
-84.06471586076866
 21
-13.04631443474146
 31
0.0
  0
LINE
  5
B56
330
6B
100
AcDbEntity
  8
0
 62
     7
100
AcDbLine
 10
-84.93068733416867
 20
-14.54622068474147
 30
0.0
 11
-84.93068733416867
 21
-13.54628318474146
 31
0.0
  0
CIRCLE
  5
B57
330
6B
100
AcDbEntity
  8
0
 62
     7
100
AcDbCircle
 10
-84.06471586076866
 20
-14.04625193474146
 30
0.0
 40
0.549965625
  0
CIRCLE
  5
C40
330
6B
100
AcDbEntity
  8
0
  6
Continuous
100
AcDbCircle
 10
-84.06471586076866
 20
7.95237306525853
 30
0.0
 40
30.3
  0
CIRCLE
  5
C41
330
6B
100
AcDbEntity
  8
0
  6
Continuous
100
AcDbCircle
 10
-84.06471586076866
 20
7.952373065258544
 30
0.0
 40
34.4
  0
CIRCLE
  5
C42
330
6B
100
AcDbEntity
  8
0
  6
Continuous
100
AcDbCircle
 10
-84.06471586076866
 20
7.952373065258544
 30
0.0
 40
34.8
  0
CIRCLE
  5
C83
330
6B
100
AcDbEntity
  8
0
  6
Continuous
100
AcDbCircle
 10
-84.06471586076866
 20
7.95237306525853
 30
0.0
 40
22.0
  0
TEXT
  5
D62
330
6B
100
AcDbEntity
  8
0
 62
     4
100
AcDbText
 10
87.77747715281285
 20
-39.89334658427177
 30
0.0
 40
4.5
  1
※耐荷重24.5kgf
  7
高4.5
100
AcDbText
  0
ENDSEC
  0
SECTION
  2
OBJECTS
  0
DICTIONARY
  5
C
330
0
100
AcDbDictionary
281
     1
  3
ACAD_COLOR
350
62
  3
ACAD_DGNDEFINITIONS
350
D2E
  3
ACAD_DWFDEFINITIONS
350
D2D
  3
ACAD_GROUP
350
D
  3
ACAD_LAYOUT
350
61
  3
ACAD_MATERIAL
350
10
  3
ACAD_MLEADERSTYLE
350
65
  3
ACAD_MLINESTYLE
350
5E
  3
ACAD_PDFDEFINITIONS
350
D2C
  3
ACAD_PLOTSETTINGS
350
60
  3
ACAD_PLOTSTYLENAME
350
E
  3
ACAD_SCALELIST
350
42
  3
ACAD_TABLESTYLE
350
63
  3
ACAD_VISUALSTYLE
350
29
  3
ACDBHEADERROUNDTRIPXREC
350
DA5
  3
AcDbVariableDictionary
350
544
  3
DWGPROPS
350
DA8
  0
DICTIONARY
  5
DA9
330
8
100
AcDbDictionary
280
     1
281
     1
  3
ACAD_XREC_ROUNDTRIP
360
DAA
  0
DICTIONARY
  5
3A8
330
2
100
AcDbDictionary
280
     1
281
     1
  3
ACAD_LAYERSTATES
360
3A9
  0
DICTIONARY
  5
53E
330
54
100
AcDbDictionary
280
     1
281
     1
  3
ADSK_XREC_LAYER_RECONCILED
360
53F
  0
DICTIONARY
  5
5CE
330
6B
100
AcDbDictionary
280
     1
281
     1
  3
ACAD_SORTENTS
360
5CF
  0
DICTIONARY
  5
62
102
{ACAD_REACTORS
330
C
102
}
330
C
100
AcDbDictionary
281
     1
  0
DICTIONARY
  5
D2E
102
{ACAD_REACTORS
330
C
102
}
330
C
100
AcDbDictionary
281
     1
  0
DICTIONARY
  5
D2D
102
{ACAD_REACTORS
330
C
102
}
330
C
100
AcDbDictionary
281
     1
  0
DICTIONARY
  5
D
102
{ACAD_REACTORS
330
C
102
}
330
C
100
AcDbDictionary
281
     1
  0
DICTIONARY
  5
61
102
{ACAD_REACTORS
330
C
102
}
330
C
100
AcDbDictionary
281
     1
  3
Model
350
6E
  3
レイアウト1
350
6A
  0
DICTIONARY
  5
10
102
{ACAD_REACTORS
330
C
102
}
330
C
100
AcDbDictionary
281
     1
  3
ByBlock
350
19
  3
ByLayer
350
11
  3
Global
350
21
  0
DICTIONARY
  5
65
102
{ACAD_REACTORS
330
C
102
}
330
C
100
AcDbDictionary
281
     1
  3
Standard
350
66
  0
DICTIONARY
  5
5E
102
{ACAD_REACTORS
330
C
102
}
330
C
100
AcDbDictionary
281
     1
  3
Standard
350
5F
  0
DICTIONARY
  5
D2C
102
{ACAD_REACTORS
330
C
102
}
330
C
100
AcDbDictionary
281
     1
  0
DICTIONARY
  5
60
102
{ACAD_REACTORS
330
C
102
}
330
C
100
AcDbDictionary
281
     1
  0
ACDBDICTIONARYWDFLT
  5
E
102
{ACAD_REACTORS
330
C
102
}
330
C
100
AcDbDictionary
281
     1
  3
Normal
350
F
100
AcDbDictionaryWithDefault
340
F
  0
DICTIONARY
  5
42
102
{ACAD_REACTORS
330
C
102
}
330
C
100
AcDbDictionary
281
     1
  3
A0
350
43
  3
A1
350
44
  3
A2
350
45
  3
A3
350
46
  3
A4
350
47
  3
A5
350
48
  3
A6
350
49
  3
A7
350
4A
  3
A8
350
4B
  3
A9
350
4C
  3
B0
350
4D
  3
B1
350
4E
  3
B2
350
4F
  3
B3
350
50
  3
B4
350
51
  3
B5
350
52
  3
B6
350
53
  0
DICTIONARY
  5
63
102
{ACAD_REACTORS
330
C
102
}
330
C
100
AcDbDictionary
281
     1
  3
Standard
350
64
  0
DICTIONARY
  5
29
102
{ACAD_REACTORS
330
C
102
}
330
C
100
AcDbDictionary
281
     1
  3
2dWireframe
350
2F
  3
3D Hidden
350
595
  3
3dWireframe
350
3A7
  3
Basic
350
2E
  3
Brighten
350
35
  3
ColorChange
350
39
  3
Conceptual
350
32
  3
Dim
350
34
  3
EdgeColorOff
350
41
  3
Facepattern
350
38
  3
Flat
350
2A
  3
FlatWithEdges
350
2B
  3
Gouraud
350
2C
  3
GouraudWithEdges
350
2D
  3
Hidden
350
31
  3
JitterOff
350
3F
  3
Linepattern
350
37
  3
OverhangOff
350
40
  3
Realistic
350
33
  3
Shaded
350
3E
  3
Shaded with edges
350
3D
  3
Shades of Gray
350
3A
  3
Sketchy
350
3B
  3
Thicken
350
36
  3
Wireframe
350
30
  3
X-Ray
350
3C
  0
DICTIONARY
  5
DA5
102
{ACAD_REACTORS
330
C
102
}
330
C
100
AcDbDictionary
281
     1
  3
COLORDICT
350
DA6
  3
MATERIALDICT
350
DA7
  0
DICTIONARY
  5
544
102
{ACAD_REACTORS
330
C
102
}
330
C
100
AcDbDictionary
281
     1
  3
CANNOSCALE
350
DAB
  3
CMLEADERSTYLE
350
546
  3
CTABLESTYLE
350
545
  3
DIMASSOC
350
54A
  3
HIDETEXT
350
D64
  3
INDEXCTL
350
549
  3
MSLTSCALE
350
D63
  3
SORTENTS
350
548
  3
XCLIPFRAME
350
95E
  0
XRECORD
  5
DA8
102
{ACAD_REACTORS
330
C
102
}
330
C
100
AcDbXrecord
280
     1
  1
DWGPROPS COOKIE
  2

  3

  4

  6

  7

  8
nakashinde
  9

300
=
301
=
302
=
303
=
304
=
305
=
306
=
307
=
308
=
309
=
 40
0.0
 41
2455663.380508704
 42
2460074.38550338
  1

 90
        0
  0
XRECORD
  5
DAA
102
{ACAD_REACTORS
330
DA9
102
}
330
DA9
100
AcDbXrecord
280
     1
102
VTR_0.000_0.000_1.000_1.000_VISUALSTYLE
340
2F
102
VTR_0.000_0.000_1.000_1.000_GRIDDISPLAY
 70
     3
102
VTR_0.000_0.000_1.000_1.000_GRIDMAJOR
 70
     5
102
VTR_0.000_0.000_1.000_1.000_DEFAULTLIGHTING
280
     1
102
VTR_0.000_0.000_1.000_1.000_DEFAULTLIGHTINGTYPE
 70
     1
102
VTR_0.000_0.000_1.000_1.000_BRIGHTNESS
141
0.0
102
VTR_0.000_0.000_1.000_1.000_CONTRAST
142
0.0
  0
DICTIONARY
  5
3A9
102
{ACAD_REACTORS
330
3A8
102
}
330
3A8
100
AcDbDictionary
281
     1
  0
XRECORD
  5
53F
102
{ACAD_REACTORS
330
53E
102
}
330
53E
100
AcDbXrecord
280
     1
290
     1
  0
SORTENTSTABLE
  5
5CF
102
{ACAD_REACTORS
330
5CE
102
}
330
5CE
100
AcDbSortentsTable
330
6B
331
F8
  5
F8
331
15A
  5
15A
331
15B
  5
15B
331
15C
  5
15C
331
160
  5
160
331
161
  5
161
331
1EE
  5
1EE
331
1EF
  5
1EF
331
1F0
  5
1F0
331
1F1
  5
1F1
331
256
  5
256
331
258
  5
258
331
25A
  5
25A
331
25B
  5
25B
331
25C
  5
25C
331
25D
  5
25D
331
25E
  5
25E
331
25F
  5
25F
331
260
  5
260
331
261
  5
261
331
262
  5
262
331
263
  5
263
331
264
  5
264
331
265
  5
265
331
26A
  5
26A
331
26B
  5
26B
331
26C
  5
26C
331
26D
  5
26D
331
26E
  5
26E
331
26F
  5
26F
331
270
  5
270
331
271
  5
271
331
272
  5
272
331
273
  5
273
331
274
  5
274
331
275
  5
275
331
276
  5
276
331
278
  5
278
331
27A
  5
27A
331
280
  5
280
331
286
  5
286
331
287
  5
287
331
288
  5
288
331
289
  5
289
331
28A
  5
28A
331
28B
  5
28B
331
28C
  5
28C
331
28D
  5
28D
331
28E
  5
28E
331
28F
  5
28F
331
290
  5
290
331
291
  5
291
331
292
  5
292
331
293
  5
293
331
294
  5
294
331
295
  5
295
331
296
  5
296
331
297
  5
297
331
298
  5
298
331
299
  5
299
331
29A
  5
29A
331
29B
  5
29B
331
29C
  5
29C
331
29D
  5
29D
331
29E
  5
29E
331
29F
  5
29F
331
2A0
  5
2A0
331
2A1
  5
2A1
331
2A2
  5
2A2
331
2A3
  5
2A3
331
2A4
  5
2A4
331
2A6
  5
2A6
331
2A7
  5
2A7
331
2A8
  5
2A8
331
2A9
  5
2A9
331
2AA
  5
2AA
331
2AB
  5
2AB
331
2AC
  5
2AC
331
2AD
  5
2AD
331
2AE
  5
2AE
331
2B0
  5
2B0
331
2B1
  5
2B1
331
2B5
  5
2B5
331
2B6
  5
2B6
331
2B7
  5
2B7
331
2B9
  5
2B9
331
2BA
  5
2BA
331
2BB
  5
2BB
331
2BC
  5
2BC
331
2BD
  5
2BD
331
2BE
  5
2BE
331
2BF
  5
2BF
331
2C0
  5
2C0
331
2C1
  5
2C1
331
2C2
  5
2C2
331
2C3
  5
2C3
331
2C4
  5
2C4
331
2C5
  5
2C5
331
2C6
  5
2C6
331
2C7
  5
2C7
331
2C8
  5
2C8
331
2C9
  5
2C9
331
2CA
  5
2CA
331
2CB
  5
2CB
331
2CC
  5
2CC
331
2CD
  5
2CD
331
2CE
  5
2CE
331
2CF
  5
2CF
331
2D0
  5
2D0
331
2D1
  5
2D1
331
2D2
  5
2D2
331
2D3
  5
2D3
331
2D4
  5
2D4
331
2D5
  5
2D5
331
2D6
  5
2D6
331
2D7
  5
2D7
331
2D8
  5
2D8
331
2D9
  5
2D9
331
2DA
  5
2DA
331
2DB
  5
2DB
331
2DC
  5
2DC
331
2DD
  5
2DD
331
2DE
  5
2DE
331
2DF
  5
2DF
331
2E0
  5
2E0
331
2E1
  5
2E1
331
2E2
  5
2E2
331
2E3
  5
2E3
331
2E4
  5
2E4
331
2E5
  5
2E5
331
2E6
  5
2E6
331
2E7
  5
2E7
331
2E8
  5
2E8
331
2E9
  5
2E9
331
2EA
  5
2EA
331
2EB
  5
2EB
331
2EC
  5
2EC
331
2ED
  5
2ED
331
2EE
  5
2FB
331
2F9
  5
2FC
331
2FA
  5
2FD
331
2FB
  5
2FE
331
2FC
  5
2FF
331
2FD
  5
300
331
2FE
  5
301
331
2FF
  5
5CD
331
300
  5
5D0
331
301
  5
5D1
331
5D1
  5
2FA
331
5E2
  5
5E2
331
5E4
  5
5E4
331
5E5
  5
5E5
331
5E6
  5
5E6
331
5E7
  5
5E7
331
5EA
  5
5EA
331
5EB
  5
5EB
331
5ED
  5
5ED
331
5EE
  5
5EE
331
5EF
  5
5EF
  0
LAYOUT
  5
6E
102
{ACAD_REACTORS
330
61
102
}
330
61
100
AcDbPlotSettings
  1

  2
FX DP 205
  4

  6

 40
0.0
 41
0.0
 42
0.0
 43
0.0
 44
0.0
 45
0.0
 46
0.0
 47
0.0
 48
0.0
 49
0.0
140
0.0
141
0.0
142
1.0
143
1.0
 70
  1712
 72
     0
 73
     0
 74
     0
  7

 75
     0
147
1.0
148
0.0
149
0.0
100
AcDbLayout
  1
Model
 70
     1
 71
     0
 10
0.0
 20
0.0
 11
12.0
 21
9.0
 12
0.0
 22
0.0
 32
0.0
 14
-138.5
 24
-90.0
 34
0.0
 15
138.5
 25
98.472617
 35
0.0
146
0.0
 13
0.0
 23
0.0
 33
0.0
 16
1.0
 26
0.0
 36
0.0
 17
0.0
 27
1.0
 37
0.0
 76
     0
330
6B
331
8C
  0
LAYOUT
  5
6A
102
{ACAD_REACTORS
330
61
102
}
330
61
100
AcDbPlotSettings
  1

  2
FX DP 205
  4

  6

 40
0.0
 41
0.0
 42
0.0
 43
0.0
 44
0.0
 45
0.0
 46
0.0
 47
0.0
 48
0.0
 49
0.0
140
0.0
141
0.0
142
1.0
143
1.0
 70
   688
 72
     0
 73
     0
 74
     5
  7

 75
    16
147
1.0
148
0.0
149
0.0
100
AcDbLayout
  1
レイアウト1
 70
     1
 71
     1
 10
0.0
 20
0.0
 11
12.0
 21
9.0
 12
0.0
 22
0.0
 32
0.0
 14
1.000000000000000E+20
 24
1.000000000000000E+20
 34
1.000000000000000E+20
 15
-1.000000000000000E+20
 25
-1.000000000000000E+20
 35
-1.000000000000000E+20
146
0.0
 13
0.0
 23
0.0
 33
0.0
 16
1.0
 26
0.0
 36
0.0
 17
0.0
 27
1.0
 37
0.0
 76
     0
330
67
  0
MATERIAL
  5
19
102
{ACAD_REACTORS
330
10
102
}
102
{ACAD_XDICTIONARY
360
DAC
102
}
330
10
100
AcDbMaterial
  1
ByBlock
 72
     0
 43
0.0208333333333333
 43
0.0
 43
0.0
 43
0.0
 43
0.0
 43
0.0208333333333333
 43
0.0
 43
0.0
 43
0.0
 43
0.0
 43
1.0
 43
0.0
 43
0.0
 43
0.0
 43
0.0
 43
1.0
 77
     0
 47
0.0208333333333333
 47
0.0
 47
0.0
 47
0.0
 47
0.0
 47
0.0208333333333333
 47
0.0
 47
0.0
 47
0.0
 47
0.0
 47
1.0
 47
0.0
 47
0.0
 47
0.0
 47
0.0
 47
1.0
171
     0
 49
0.0208333333333333
 49
0.0
 49
0.0
 49
0.0
 49
0.0
 49
0.0208333333333333
 49
0.0
 49
0.0
 49
0.0
 49
0.0
 49
1.0
 49
0.0
 49
0.0
 49
0.0
 49
0.0
 49
1.0
175
     0
142
0.0208333333333333
142
0.0
142
0.0
142
0.0
142
0.0
142
0.0208333333333333
142
0.0
142
0.0
142
0.0
142
0.0
142
1.0
142
0.0
142
0.0
142
0.0
142
0.0
142
1.0
179
     0
144
0.0208333333333333
144
0.0
144
0.0
144
0.0
144
0.0
144
0.0208333333333333
144
0.0
144
0.0
144
0.0
144
0.0
144
1.0
144
0.0
144
0.0
144
0.0
144
0.0
144
1.0
147
0.0208333333333333
147
0.0
147
0.0
147
0.0
147
0.0
147
0.0208333333333333
147
0.0
147
0.0
147
0.0
147
0.0
147
1.0
147
0.0
147
0.0
147
0.0
147
0.0
147
1.0
  0
MATERIAL
  5
11
102
{ACAD_REACTORS
330
10
102
}
102
{ACAD_XDICTIONARY
360
DAE
102
}
330
10
100
AcDbMaterial
  1
ByLayer
 72
     0
 43
0.0208333333333333
 43
0.0
 43
0.0
 43
0.0
 43
0.0
 43
0.0208333333333333
 43
0.0
 43
0.0
 43
0.0
 43
0.0
 43
1.0
 43
0.0
 43
0.0
 43
0.0
 43
0.0
 43
1.0
 77
     0
 47
0.0208333333333333
 47
0.0
 47
0.0
 47
0.0
 47
0.0
 47
0.0208333333333333
 47
0.0
 47
0.0
 47
0.0
 47
0.0
 47
1.0
 47
0.0
 47
0.0
 47
0.0
 47
0.0
 47
1.0
171
     0
 49
0.0208333333333333
 49
0.0
 49
0.0
 49
0.0
 49
0.0
 49
0.0208333333333333
 49
0.0
 49
0.0
 49
0.0
 49
0.0
 49
1.0
 49
0.0
 49
0.0
 49
0.0
 49
0.0
 49
1.0
175
     0
142
0.0208333333333333
142
0.0
142
0.0
142
0.0
142
0.0
142
0.0208333333333333
142
0.0
142
0.0
142
0.0
142
0.0
142
1.0
142
0.0
142
0.0
142
0.0
142
0.0
142
1.0
179
     0
144
0.0208333333333333
144
0.0
144
0.0
144
0.0
144
0.0
144
0.0208333333333333
144
0.0
144
0.0
144
0.0
144
0.0
144
1.0
144
0.0
144
0.0
144
0.0
144
0.0
144
1.0
147
0.0208333333333333
147
0.0
147
0.0
147
0.0
147
0.0
147
0.0208333333333333
147
0.0
147
0.0
147
0.0
147
0.0
147
1.0
147
0.0
147
0.0
147
0.0
147
0.0
147
1.0
  0
MATERIAL
  5
21
102
{ACAD_REACTORS
330
10
102
}
102
{ACAD_XDICTIONARY
360
DB0
102
}
330
10
100
AcDbMaterial
  1
Global
 72
     0
 43
0.0208333333333333
 43
0.0
 43
0.0
 43
0.0
 43
0.0
 43
0.0208333333333333
 43
0.0
 43
0.0
 43
0.0
 43
0.0
 43
1.0
 43
0.0
 43
0.0
 43
0.0
 43
0.0
 43
1.0
 77
     0
 47
0.0208333333333333
 47
0.0
 47
0.0
 47
0.0
 47
0.0
 47
0.0208333333333333
 47
0.0
 47
0.0
 47
0.0
 47
0.0
 47
1.0
 47
0.0
 47
0.0
 47
0.0
 47
0.0
 47
1.0
171
     0
 49
0.0208333333333333
 49
0.0
 49
0.0
 49
0.0
 49
0.0
 49
0.0208333333333333
 49
0.0
 49
0.0
 49
0.0
 49
0.0
 49
1.0
 49
0.0
 49
0.0
 49
0.0
 49
0.0
 49
1.0
175
     0
142
0.0208333333333333
142
0.0
142
0.0
142
0.0
142
0.0
142
0.0208333333333333
142
0.0
142
0.0
142
0.0
142
0.0
142
1.0
142
0.0
142
0.0
142
0.0
142
0.0
142
1.0
179
     0
144
0.0208333333333333
144
0.0
144
0.0
144
0.0
144
0.0
144
0.0208333333333333
144
0.0
144
0.0
144
0.0
144
0.0
144
1.0
144
0.0
144
0.0
144
0.0
144
0.0
144
1.0
147
0.0208333333333333
147
0.0
147
0.0
147
0.0
147
0.0
147
0.0208333333333333
147
0.0
147
0.0
147
0.0
147
0.0
147
1.0
147
0.0
147
0.0
147
0.0
147
0.0
147
1.0
  0
MLEADERSTYLE
  5
66
102
{ACAD_REACTORS
330
65
102
}
102
{ACAD_XDICTIONARY
360
DB2
102
}
330
65
100
AcDbMLeaderStyle
170
     2
171
     1
172
     0
 90
        2
 40
0.0
 41
0.0
173
     1
 91
-1056964608
340
5A
 92
       -2
290
     1
 42
0.09
291
     1
 43
0.36
  3
Standard
341
0
 44
0.18
300

342
55
174
     1
178
     6
175
     1
176
     0
 93
-1056964608
 45
0.18
292
     0
297
     0
 46
0.18
343
0
 94
-1056964608
 47
1.0
 49
1.0
140
1.0
293
     1
141
0.0
294
     1
177
     0
142
1.0
295
     0
296
     0
143
0.125
1001
ACAD_MLEADERVER
1070
     2
  0
MLINESTYLE
  5
5F
102
{ACAD_REACTORS
330
5E
102
}
330
5E
100
AcDbMlineStyle
  2
STANDARD
 70
     0
  3

 62
   256
 51
90.0
 52
90.0
 71
     2
 49
0.5
 62
   256
  6
BYLAYER
 49
-0.5
 62
   256
  6
BYLAYER
  0
ACDBPLACEHOLDER
  5
F
102
{ACAD_REACTORS
330
E
102
}
330
E
  0
SCALE
  5
43
102
{ACAD_REACTORS
330
42
102
}
330
42
100
AcDbScale
 70
     0
300
1:1
140
1.0
141
1.0
290
     1
  0
SCALE
  5
44
102
{ACAD_REACTORS
330
42
102
}
330
42
100
AcDbScale
 70
     0
300
1/128" = 1'-0"
140
0.0078125
141
12.0
290
     0
  0
SCALE
  5
45
102
{ACAD_REACTORS
330
42
102
}
330
42
100
AcDbScale
 70
     0
300
1/64" = 1'-0"
140
0.015625
141
12.0
290
     0
  0
SCALE
  5
46
102
{ACAD_REACTORS
330
42
102
}
330
42
100
AcDbScale
 70
     0
300
1/32" = 1'-0"
140
0.03125
141
12.0
290
     0
  0
SCALE
  5
47
102
{ACAD_REACTORS
330
42
102
}
330
42
100
AcDbScale
 70
     0
300
1/16" = 1'-0"
140
0.0625
141
12.0
290
     0
  0
SCALE
  5
48
102
{ACAD_REACTORS
330
42
102
}
330
42
100
AcDbScale
 70
     0
300
3/32" = 1'-0"
140
0.09375
141
12.0
290
     0
  0
SCALE
  5
49
102
{ACAD_REACTORS
330
42
102
}
330
42
100
AcDbScale
 70
     0
300
1/8" = 1'-0"
140
0.125
141
12.0
290
     0
  0
SCALE
  5
4A
102
{ACAD_REACTORS
330
42
102
}
330
42
100
AcDbScale
 70
     0
300
3/16" = 1'-0"
140
0.1875
141
12.0
290
     0
  0
SCALE
  5
4B
102
{ACAD_REACTORS
330
42
102
}
330
42
100
AcDbScale
 70
     0
300
1/4" = 1'-0"
140
0.25
141
12.0
290
     0
  0
SCALE
  5
4C
102
{ACAD_REACTORS
330
42
102
}
330
42
100
AcDbScale
 70
     0
300
3/8" = 1'-0"
140
0.375
141
12.0
290
     0
  0
SCALE
  5
4D
102
{ACAD_REACTORS
330
42
102
}
330
42
100
AcDbScale
 70
     0
300
1/2" = 1'-0"
140
0.5
141
12.0
290
     0
  0
SCALE
  5
4E
102
{ACAD_REACTORS
330
42
102
}
330
42
100
AcDbScale
 70
     0
300
3/4" = 1'-0"
140
0.75
141
12.0
290
     0
  0
SCALE
  5
4F
102
{ACAD_REACTORS
330
42
102
}
330
42
100
AcDbScale
 70
     0
300
1" = 1'-0"
140
1.0
141
12.0
290
     0
  0
SCALE
  5
50
102
{ACAD_REACTORS
330
42
102
}
330
42
100
AcDbScale
 70
     0
300
1-1/2" = 1'-0"
140
1.5
141
12.0
290
     0
  0
SCALE
  5
51
102
{ACAD_REACTORS
330
42
102
}
330
42
100
AcDbScale
 70
     0
300
3" = 1'-0"
140
3.0
141
12.0
290
     0
  0
SCALE
  5
52
102
{ACAD_REACTORS
330
42
102
}
330
42
100
AcDbScale
 70
     0
300
6" = 1'-0"
140
6.0
141
12.0
290
     0
  0
SCALE
  5
53
102
{ACAD_REACTORS
330
42
102
}
330
42
100
AcDbScale
 70
     0
300
1'-0" = 1'-0"
140
12.0
141
12.0
290
     0
  0
TABLESTYLE
  5
64
102
{ACAD_REACTORS
330
63
102
}
330
63
100
AcDbTableStyle
  3
Standard
 70
     0
 71
     0
 40
0.06
 41
0.06
280
     0
281
     0
  7
STANDARD
140
0.18
170
     2
 62
     0
 63
   257
283
     0
274
    -2
284
     1
 64
     0
275
    -2
285
     1
 65
     0
276
    -2
286
     1
 66
     0
277
    -2
287
     1
 67
     0
278
    -2
288
     1
 68
     0
279
    -2
289
     1
 69
     0
  7
STANDARD
140
0.25
170
     5
 62
     0
 63
   257
283
     0
274
    -2
284
     1
 64
     0
275
    -2
285
     1
 65
     0
276
    -2
286
     1
 66
     0
277
    -2
287
     1
 67
     0
278
    -2
288
     1
 68
     0
279
    -2
289
     1
 69
     0
  7
STANDARD
140
0.18
170
     5
 62
     0
 63
   257
283
     0
274
    -2
284
     1
 64
     0
275
    -2
285
     1
 65
     0
276
    -2
286
     1
 66
     0
277
    -2
287
     1
 67
     0
278
    -2
288
     1
 68
     0
279
    -2
289
     1
 69
     0
  0
VISUALSTYLE
  5
2F
102
{ACAD_REACTORS
330
29
102
}
102
{ACAD_XDICTIONARY
360
DB4
102
}
330
29
100
AcDbVisualStyle
  2

 70
     4
 71
     0
 72
     2
 73
     0
 90
        0
 40
-0.6
 41
-30.0
 62
     5
 63
     7
 74
     1
 91
        4
 64
     7
 65
   257
 75
     1
175
     1
 42
1.0
 92
        0
 66
   257
 43
1.0
 76
     1
 77
     6
 78
     2
 67
     7
 79
     5
170
     0
171
     0
290
     0
174
     0
 93
        1
 44
0.0
173
     0
291
     0
 45
0.0
1001
ACAD
1000
AcDbSavedByObjectVersion
1070
     0
  0
VISUALSTYLE
  5
595
102
{ACAD_REACTORS
330
29
102
}
102
{ACAD_XDICTIONARY
360
DB6
102
}
330
29
100
AcDbVisualStyle
  2

 70
     6
 71
     1
 72
     2
 73
     2
 90
        0
 40
-0.6
 41
-30.0
 62
     5
 63
     7
 74
     2
 91
        2
 64
     7
 65
   257
 75
     2
175
     1
 42
40.0
 92
        0
 66
   257
 43
1.0
 76
     1
 77
     6
 78
     2
 67
     7
 79
     3
170
     0
171
     0
290
     0
174
     0
 93
        1
 44
0.0
173
     0
291
     0
 45
0.0
1001
ACAD
1000
AcDbSavedByObjectVersion
1070
     0
  0
VISUALSTYLE
  5
3A7
102
{ACAD_REACTORS
330
29
102
}
102
{ACAD_XDICTIONARY
360
DB8
102
}
330
29
100
AcDbVisualStyle
  2

 70
     5
 71
     0
 72
     2
 73
     1
 90
        0
 40
-0.6
 41
-30.0
 62
     5
 63
     7
 74
     1
 91
        4
 64
     7
 65
   257
 75
     1
175
     1
 42
1.0
 92
        0
 66
   257
 43
1.0
 76
     1
 77
     6
 78
     2
 67
     7
 79
     5
170
     0
171
     0
290
     0
174
     0
 93
        1
 44
0.0
173
     0
291
     0
 45
0.0
1001
ACAD
1000
AcDbSavedByObjectVersion
1070
     0
  0
VISUALSTYLE
  5
2E
102
{ACAD_REACTORS
330
29
102
}
102
{ACAD_XDICTIONARY
360
DBA
102
}
330
29
100
AcDbVisualStyle
  2

 70
     7
 71
     1
 72
     0
 73
     1
 90
        0
 40
-0.6
 41
-30.0
 62
     5
 63
     7
 74
     0
 91
        4
 64
     7
 65
   257
 75
     1
175
     1
 42
1.0
 92
        8
 66
     7
 43
1.0
 76
     1
 77
     6
 78
     2
 67
     7
 79
     5
170
     0
171
     0
290
     0
174
     0
 93
        1
 44
0.0
173
     0
291
     1
 45
0.0
1001
ACAD
1000
AcDbSavedByObjectVersion
1070
     0
  0
VISUALSTYLE
  5
35
102
{ACAD_REACTORS
330
29
102
}
102
{ACAD_XDICTIONARY
360
DBC
102
}
330
29
100
AcDbVisualStyle
  2

 70
    12
 71
     2
 72
     2
 73
     0
 90
        0
 40
-0.6
 41
-30.0
 62
     5
 63
     7
 74
     1
 91
        4
 64
     7
 65
   257
 75
     1
175
     1
 42
1.0
 92
        8
 66
     7
 43
1.0
 76
     1
 77
     6
 78
     2
 67
     7
 79
     5
170
     0
171
     0
290
     0
174
     0
 93
        1
 44
50.0
173
     0
291
     1
 45
0.0
1001
ACAD
1000
AcDbSavedByObjectVersion
1070
     0
  0
VISUALSTYLE
  5
39
102
{ACAD_REACTORS
330
29
102
}
102
{ACAD_XDICTIONARY
360
DBE
102
}
330
29
100
AcDbVisualStyle
  2

 70
    16
 71
     2
 72
     2
 73
     3
 90
        0
 40
-0.6
 41
-30.0
 62
     5
 63
     8
 74
     1
 91
        4
 64
     7
 65
   257
 75
     1
175
     1
 42
1.0
 92
        8
 66
     8
 43
1.0
 76
     1
 77
     6
 78
     2
 67
     7
 79
     5
170
     0
171
     0
290
     0
174
     0
 93
        1
 44
0.0
173
     0
291
     1
 45
0.0
1001
ACAD
1000
AcDbSavedByObjectVersion
1070
     0
  0
VISUALSTYLE
  5
32
102
{ACAD_REACTORS
330
29
102
}
102
{ACAD_XDICTIONARY
360
DC0
102
}
330
29
100
AcDbVisualStyle
  2

 70
     9
 71
     3
 72
     2
 73
     0
 90
        0
 40
-0.6
 41
-30.0
 62
     5
 63
     7
 74
     2
 91
        2
 64
     7
 65
   257
 75
     1
175
     1
 42
179.0
 92
        8
 66
     7
 43
1.0
 76
     1
 77
     6
 78
     2
 67
     7
 79
     3
170
     0
171
     0
290
     0
174
     0
 93
        1
 44
0.0
173
     0
291
     0
 45
0.0
1001
ACAD
1000
AcDbSavedByObjectVersion
1070
     0
  0
VISUALSTYLE
  5
34
102
{ACAD_REACTORS
330
29
102
}
102
{ACAD_XDICTIONARY
360
DC2
102
}
330
29
100
AcDbVisualStyle
  2

 70
    11
 71
     2
 72
     2
 73
     0
 90
        0
 40
-0.6
 41
-30.0
 62
     5
 63
     7
 74
     1
 91
        4
 64
     7
 65
   257
 75
     1
175
     1
 42
1.0
 92
        8
 66
     7
 43
1.0
 76
     1
 77
     6
 78
     2
 67
     7
 79
     5
170
     0
171
     0
290
     0
174
     0
 93
        1
 44
-50.0
173
     0
291
     1
 45
0.0
1001
ACAD
1000
AcDbSavedByObjectVersion
1070
     0
  0
VISUALSTYLE
  5
41
102
{ACAD_REACTORS
330
29
102
}
102
{ACAD_XDICTIONARY
360
DC4
102
}
330
29
100
AcDbVisualStyle
  2

 70
    22
 71
     2
 72
     2
 73
     0
 90
        0
 40
-0.6
 41
-30.0
 62
     5
 63
     7
 74
     1
 91
        4
 64
     7
 65
   257
 75
     1
175
     1
 42
1.0
 92
        8
 66
     7
 43
1.0
 76
     1
 77
     6
 78
     2
 67
     7
 79
     5
170
     0
171
     0
290
     0
174
     0
 93
        1
 44
0.0
173
     0
291
     1
 45
0.0
1001
ACAD
1000
AcDbSavedByObjectVersion
1070
     0
  0
VISUALSTYLE
  5
38
102
{ACAD_REACTORS
330
29
102
}
102
{ACAD_XDICTIONARY
360
DC6
102
}
330
29
100
AcDbVisualStyle
  2

 70
    15
 71
     2
 72
     2
 73
     0
 90
        0
 40
-0.6
 41
-30.0
 62
     5
 63
     7
 74
     1
 91
        4
 64
     7
 65
   257
 75
     1
175
     1
 42
1.0
 92
        8
 66
     7
 43
1.0
 76
     1
 77
     6
 78
     2
 67
     7
 79
     5
170
     0
171
     0
290
     0
174
     0
 93
        1
 44
0.0
173
     0
291
     1
 45
0.0
1001
ACAD
1000
AcDbSavedByObjectVersion
1070
     0
  0
VISUALSTYLE
  5
2A
102
{ACAD_REACTORS
330
29
102
}
102
{ACAD_XDICTIONARY
360
DC8
102
}
330
29
100
AcDbVisualStyle
  2

 70
     0
 71
     2
 72
     1
 73
     1
 90
        2
 40
-0.6
 41
30.0
 62
     5
 63
     7
 74
     0
 91
        0
 64
     7
 65
   257
 75
     1
175
     1
 42
1.0
 92
        8
 66
     7
 43
1.0
 76
     1
 77
     6
 78
     2
 67
     7
 79
     5
170
     0
171
     0
290
     0
174
     0
 93
       13
 44
0.0
173
     0
291
     1
 45
0.0
1001
ACAD
1000
AcDbSavedByObjectVersion
1070
     0
  0
VISUALSTYLE
  5
2B
102
{ACAD_REACTORS
330
29
102
}
102
{ACAD_XDICTIONARY
360
DCA
102
}
330
29
100
AcDbVisualStyle
  2

 70
     1
 71
     2
 72
     1
 73
     1
 90
        2
 40
-0.6
 41
30.0
 62
     5
 63
     7
 74
     1
 91
        0
 64
     7
 65
   257
 75
     1
175
     1
 42
1.0
 92
        0
 66
   257
 43
1.0
 76
     1
 77
     6
 78
     2
 67
     7
 79
     5
170
     0
171
     0
290
     0
174
     0
 93
       13
 44
0.0
173
     0
291
     1
 45
0.0
1001
ACAD
1000
AcDbSavedByObjectVersion
1070
     0
  0
VISUALSTYLE
  5
2C
102
{ACAD_REACTORS
330
29
102
}
102
{ACAD_XDICTIONARY
360
DCC
102
}
330
29
100
AcDbVisualStyle
  2

 70
     2
 71
     2
 72
     2
 73
     1
 90
        2
 40
-0.6
 41
30.0
 62
     5
 63
     7
 74
     0
 91
        0
 64
     7
 65
   257
 75
     1
175
     1
 42
1.0
 92
        0
 66
     7
 43
1.0
 76
     1
 77
     6
 78
     2
 67
     7
 79
     5
170
     0
171
     0
290
     0
174
     0
 93
       13
 44
0.0
173
     0
291
     1
 45
0.0
1001
ACAD
1000
AcDbSavedByObjectVersion
1070
     0
  0
VISUALSTYLE
  5
2D
102
{ACAD_REACTORS
330
29
102
}
102
{ACAD_XDICTIONARY
360
DCE
102
}
330
29
100
AcDbVisualStyle
  2

 70
     3
 71
     2
 72
     2
 73
     1
 90
        2
 40
-0.6
 41
30.0
 62
     5
 63
     7
 74
     1
 91
        0
 64
     7
 65
   257
 75
     1
175
     1
 42
1.0
 92
        0
 66
   257
 43
1.0
 76
     1
 77
     6
 78
     2
 67
     7
 79
     5
170
     0
171
     0
290
     0
174
     0
 93
       13
 44
0.0
173
     0
291
     1
 45
0.0
1001
ACAD
1000
AcDbSavedByObjectVersion
1070
     0
  0
VISUALSTYLE
  5
31
102
{ACAD_REACTORS
330
29
102
}
102
{ACAD_XDICTIONARY
360
DD0
102
}
330
29
100
AcDbVisualStyle
  2

 70
     6
 71
     1
 72
     2
 73
     2
 90
        0
 40
-0.6
 41
-30.0
 62
     5
 63
     7
 74
     2
 91
        2
 64
     7
 65
   257
 75
     2
175
     1
 42
40.0
 92
        0
 66
   257
 43
1.0
 76
     1
 77
     6
 78
     2
 67
     7
 79
     3
170
     0
171
     0
290
     0
174
     0
 93
        1
 44
0.0
173
     0
291
     0
 45
0.0
1001
ACAD
1000
AcDbSavedByObjectVersion
1070
     0
  0
VISUALSTYLE
  5
3F
102
{ACAD_REACTORS
330
29
102
}
102
{ACAD_XDICTIONARY
360
DD2
102
}
330
29
100
AcDbVisualStyle
  2

 70
    20
 71
     2
 72
     2
 73
     0
 90
        0
 40
-0.6
 41
-30.0
 62
     5
 63
     7
 74
     1
 91
        4
 64
     7
 65
   257
 75
     1
175
     1
 42
1.0
 92
       10
 66
     7
 43
1.0
 76
     1
 77
     6
 78
     2
 67
     7
 79
     5
170
     0
171
     0
290
     0
174
     0
 93
        1
 44
0.0
173
     0
291
     1
 45
0.0
1001
ACAD
1000
AcDbSavedByObjectVersion
1070
     0
  0
VISUALSTYLE
  5
37
102
{ACAD_REACTORS
330
29
102
}
102
{ACAD_XDICTIONARY
360
DD4
102
}
330
29
100
AcDbVisualStyle
  2

 70
    14
 71
     2
 72
     2
 73
     0
 90
        0
 40
-0.6
 41
-30.0
 62
     5
 63
     7
 74
     1
 91
        4
 64
     7
 65
   257
 75
     7
175
     7
 42
1.0
 92
        8
 66
     7
 43
1.0
 76
     1
 77
     6
 78
     2
 67
     7
 79
     5
170
     0
171
     0
290
     0
174
     0
 93
        1
 44
0.0
173
     0
291
     1
 45
0.0
1001
ACAD
1000
AcDbSavedByObjectVersion
1070
     0
  0
VISUALSTYLE
  5
40
102
{ACAD_REACTORS
330
29
102
}
102
{ACAD_XDICTIONARY
360
DD6
102
}
330
29
100
AcDbVisualStyle
  2

 70
    21
 71
     2
 72
     2
 73
     0
 90
        0
 40
-0.6
 41
-30.0
 62
     5
 63
     7
 74
     1
 91
        4
 64
     7
 65
   257
 75
     1
175
     1
 42
1.0
 92
        9
 66
     7
 43
1.0
 76
     1
 77
     6
 78
     2
 67
     7
 79
     5
170
     0
171
     0
290
     0
174
     0
 93
        1
 44
0.0
173
     0
291
     1
 45
0.0
1001
ACAD
1000
AcDbSavedByObjectVersion
1070
     0
  0
VISUALSTYLE
  5
33
102
{ACAD_REACTORS
330
29
102
}
102
{ACAD_XDICTIONARY
360
DD8
102
}
330
29
100
AcDbVisualStyle
  2

 70
     8
 71
     2
 72
     3
 73
     0
 90
        2
 40
-0.6
 41
30.0
 62
     5
 63
     7
 74
     0
 91
        0
 64
     7
 65
   257
 75
     1
175
     1
 42
1.0
 92
        8
 66
   257
 43
1.0
 76
     1
 77
     6
 78
     2
 67
     7
 79
     3
170
     0
171
     0
290
     0
174
     0
 93
       13
 44
0.0
173
     0
291
     0
 45
0.0
1001
ACAD
1000
AcDbSavedByObjectVersion
1070
     0
  0
VISUALSTYLE
  5
3E
102
{ACAD_REACTORS
330
29
102
}
102
{ACAD_XDICTIONARY
360
DDA
102
}
330
29
100
AcDbVisualStyle
  2

 70
    27
 71
     2
 72
     2
 73
     1
 90
        2
 40
-0.6
 41
30.0
 62
     5
 63
     7
 74
     0
 91
        4
 64
     7
 65
   257
 75
     1
175
     1
 42
1.0
 92
        8
 66
   257
 43
1.0
 76
     1
 77
     6
 78
     2
 67
     8
 79
     3
170
     0
171
     0
290
     0
174
     0
 93
        5
 44
0.0
173
     0
291
     0
 45
0.0
1001
ACAD
1000
AcDbSavedByObjectVersion
1070
     0
  0
VISUALSTYLE
  5
3D
102
{ACAD_REACTORS
330
29
102
}
102
{ACAD_XDICTIONARY
360
DDC
102
}
330
29
100
AcDbVisualStyle
  2

 70
    26
 71
     2
 72
     2
 73
     1
 90
        2
 40
-0.6
 41
30.0
 62
     5
 63
     7
 74
     1
 91
       10
 64
     7
 65
   257
 75
     2
175
     1
 42
1.0
 92
        8
 66
   257
 43
1.0
 76
     1
 77
     6
 78
     2
 67
     7
 79
     3
170
     0
171
     0
290
     0
174
     0
 93
        5
 44
0.0
173
     0
291
     0
 45
0.0
1001
ACAD
1000
AcDbSavedByObjectVersion
1070
     0
  0
VISUALSTYLE
  5
3A
102
{ACAD_REACTORS
330
29
102
}
102
{ACAD_XDICTIONARY
360
DDE
102
}
330
29
100
AcDbVisualStyle
  2

 70
    23
 71
     2
 72
     2
 73
     3
 90
        0
 40
-0.6
 41
-30.0
 62
     5
 63
     7
 74
     2
 91
        2
 64
     7
 65
     7
 75
     1
175
     1
 42
40.0
 92
        8
 66
     7
 43
1.0
 76
     1
 77
     6
 78
     2
 67
     7
 79
     3
170
     0
171
     0
290
     0
174
     0
 93
        1
 44
0.0
173
     0
291
     0
 45
0.0
1001
ACAD
1000
AcDbSavedByObjectVersion
1070
     0
  0
VISUALSTYLE
  5
3B
102
{ACAD_REACTORS
330
29
102
}
102
{ACAD_XDICTIONARY
360
DE0
102
}
330
29
100
AcDbVisualStyle
  2

 70
    24
 71
     1
 72
     2
 73
     2
 90
        0
 40
-0.6
 41
-30.0
 62
     5
 63
     7
 74
     2
 91
        2
 64
     7
 65
     7
 75
     1
175
     1
 42
40.0
 92
       11
 66
     7
 43
1.0
 76
     1
 77
     6
 78
     2
 67
     7
 79
     6
170
     0
171
     0
290
     0
174
     0
 93
        1
 44
0.0
173
     0
291
     0
 45
0.0
1001
ACAD
1000
AcDbSavedByObjectVersion
1070
     0
  0
VISUALSTYLE
  5
36
102
{ACAD_REACTORS
330
29
102
}
102
{ACAD_XDICTIONARY
360
DE2
102
}
330
29
100
AcDbVisualStyle
  2

 70
    13
 71
     2
 72
     2
 73
     0
 90
        0
 40
-0.6
 41
-30.0
 62
     5
 63
     7
 74
     1
 91
        4
 64
     7
 65
   257
 75
     1
175
     1
 42
1.0
 92
       12
 66
     7
 43
1.0
 76
     1
 77
     6
 78
     2
 67
     7
 79
     5
170
     0
171
     0
290
     0
174
     0
 93
        1
 44
0.0
173
     0
291
     1
 45
0.0
1001
ACAD
1000
AcDbSavedByObjectVersion
1070
     0
  0
VISUALSTYLE
  5
30
102
{ACAD_REACTORS
330
29
102
}
102
{ACAD_XDICTIONARY
360
DE4
102
}
330
29
100
AcDbVisualStyle
  2

 70
     5
 71
     0
 72
     2
 73
     0
 90
        0
 40
-0.6
 41
-30.0
 62
     5
 63
     7
 74
     1
 91
        4
 64
     7
 65
   257
 75
     1
175
     1
 42
1.0
 92
        0
 66
   257
 43
1.0
 76
     1
 77
     6
 78
     2
 67
     7
 79
     3
170
     0
171
     0
290
     0
174
     0
 93
        1
 44
0.0
173
     0
291
     0
 45
0.0
1001
ACAD
1000
AcDbSavedByObjectVersion
1070
     0
  0
VISUALSTYLE
  5
3C
102
{ACAD_REACTORS
330
29
102
}
102
{ACAD_XDICTIONARY
360
DE6
102
}
330
29
100
AcDbVisualStyle
  2

 70
    25
 71
     2
 72
     2
 73
     1
 90
        1
 40
0.5
 41
-30.0
 62
     5
 63
     7
 74
     1
 91
        0
 64
     7
 65
   257
 75
     1
175
     1
 42
1.0
 92
        8
 66
     7
 43
1.0
 76
     1
 77
     6
 78
     2
 67
     7
 79
     3
170
     0
171
     0
290
     0
174
     0
 93
       13
 44
0.0
173
     0
291
     0
 45
0.0
1001
ACAD
1000
AcDbSavedByObjectVersion
1070
     0
  0
XRECORD
  5
DA6
102
{ACAD_REACTORS
330
DA5
102
}
330
DA5
100
AcDbXrecord
280
     1
340
62
  0
XRECORD
  5
DA7
102
{ACAD_REACTORS
330
DA5
102
}
330
DA5
100
AcDbXrecord
280
     1
340
10
  0
DICTIONARYVAR
  5
DAB
102
{ACAD_REACTORS
330
544
102
}
330
544
100
DictionaryVariables
280
     0
  1
1:1
  0
DICTIONARYVAR
  5
546
102
{ACAD_REACTORS
330
544
102
}
330
544
100
DictionaryVariables
280
     0
  1
Standard
  0
DICTIONARYVAR
  5
545
102
{ACAD_REACTORS
330
544
102
}
330
544
100
DictionaryVariables
280
     0
  1
Standard
  0
DICTIONARYVAR
  5
54A
102
{ACAD_REACTORS
330
544
102
}
330
544
100
DictionaryVariables
280
     0
  1
1
  0
DICTIONARYVAR
  5
D64
102
{ACAD_REACTORS
330
544
102
}
330
544
100
DictionaryVariables
280
     0
  1
0
  0
DICTIONARYVAR
  5
549
102
{ACAD_REACTORS
330
544
102
}
330
544
100
DictionaryVariables
280
     0
  1
0
  0
DICTIONARYVAR
  5
D63
102
{ACAD_REACTORS
330
544
102
}
330
544
100
DictionaryVariables
280
     0
  1
0
  0
DICTIONARYVAR
  5
548
102
{ACAD_REACTORS
330
544
102
}
330
544
100
DictionaryVariables
280
     0
  1
127
  0
DICTIONARYVAR
  5
95E
102
{ACAD_REACTORS
330
544
102
}
330
544
100
DictionaryVariables
280
     0
  1
0
  0
DICTIONARY
  5
DAC
330
19
100
AcDbDictionary
280
     1
281
     1
  3
ACAD_XREC_ROUNDTRIP
360
DAD
  0
DICTIONARY
  5
DAE
330
11
100
AcDbDictionary
280
     1
281
     1
  3
ACAD_XREC_ROUNDTRIP
360
DAF
  0
DICTIONARY
  5
DB0
330
21
100
AcDbDictionary
280
     1
281
     1
  3
ACAD_XREC_ROUNDTRIP
360
DB1
  0
DICTIONARY
  5
DB2
330
66
100
AcDbDictionary
280
     1
281
     1
  3
ACAD_XREC_ROUNDTRIP
360
DB3
  0
DICTIONARY
  5
DB4
330
2F
100
AcDbDictionary
280
     1
281
     1
  3
ACAD_XREC_ROUNDTRIP
360
DB5
  0
DICTIONARY
  5
DB6
330
595
100
AcDbDictionary
280
     1
281
     1
  3
ACAD_XREC_ROUNDTRIP
360
DB7
  0
DICTIONARY
  5
DB8
330
3A7
100
AcDbDictionary
280
     1
281
     1
  3
ACAD_XREC_ROUNDTRIP
360
DB9
  0
DICTIONARY
  5
DBA
330
2E
100
AcDbDictionary
280
     1
281
     1
  3
ACAD_XREC_ROUNDTRIP
360
DBB
  0
DICTIONARY
  5
DBC
330
35
100
AcDbDictionary
280
     1
281
     1
  3
ACAD_XREC_ROUNDTRIP
360
DBD
  0
DICTIONARY
  5
DBE
330
39
100
AcDbDictionary
280
     1
281
     1
  3
ACAD_XREC_ROUNDTRIP
360
DBF
  0
DICTIONARY
  5
DC0
330
32
100
AcDbDictionary
280
     1
281
     1
  3
ACAD_XREC_ROUNDTRIP
360
DC1
  0
DICTIONARY
  5
DC2
330
34
100
AcDbDictionary
280
     1
281
     1
  3
ACAD_XREC_ROUNDTRIP
360
DC3
  0
DICTIONARY
  5
DC4
330
41
100
AcDbDictionary
280
     1
281
     1
  3
ACAD_XREC_ROUNDTRIP
360
DC5
  0
DICTIONARY
  5
DC6
330
38
100
AcDbDictionary
280
     1
281
     1
  3
ACAD_XREC_ROUNDTRIP
360
DC7
  0
DICTIONARY
  5
DC8
330
2A
100
AcDbDictionary
280
     1
281
     1
  3
ACAD_XREC_ROUNDTRIP
360
DC9
  0
DICTIONARY
  5
DCA
330
2B
100
AcDbDictionary
280
     1
281
     1
  3
ACAD_XREC_ROUNDTRIP
360
DCB
  0
DICTIONARY
  5
DCC
330
2C
100
AcDbDictionary
280
     1
281
     1
  3
ACAD_XREC_ROUNDTRIP
360
DCD
  0
DICTIONARY
  5
DCE
330
2D
100
AcDbDictionary
280
     1
281
     1
  3
ACAD_XREC_ROUNDTRIP
360
DCF
  0
DICTIONARY
  5
DD0
330
31
100
AcDbDictionary
280
     1
281
     1
  3
ACAD_XREC_ROUNDTRIP
360
DD1
  0
DICTIONARY
  5
DD2
330
3F
100
AcDbDictionary
280
     1
281
     1
  3
ACAD_XREC_ROUNDTRIP
360
DD3
  0
DICTIONARY
  5
DD4
330
37
100
AcDbDictionary
280
     1
281
     1
  3
ACAD_XREC_ROUNDTRIP
360
DD5
  0
DICTIONARY
  5
DD6
330
40
100
AcDbDictionary
280
     1
281
     1
  3
ACAD_XREC_ROUNDTRIP
360
DD7
  0
DICTIONARY
  5
DD8
330
33
100
AcDbDictionary
280
     1
281
     1
  3
ACAD_XREC_ROUNDTRIP
360
DD9
  0
DICTIONARY
  5
DDA
330
3E
100
AcDbDictionary
280
     1
281
     1
  3
ACAD_XREC_ROUNDTRIP
360
DDB
  0
DICTIONARY
  5
DDC
330
3D
100
AcDbDictionary
280
     1
281
     1
  3
ACAD_XREC_ROUNDTRIP
360
DDD
  0
DICTIONARY
  5
DDE
330
3A
100
AcDbDictionary
280
     1
281
     1
  3
ACAD_XREC_ROUNDTRIP
360
DDF
  0
DICTIONARY
  5
DE0
330
3B
100
AcDbDictionary
280
     1
281
     1
  3
ACAD_XREC_ROUNDTRIP
360
DE1
  0
DICTIONARY
  5
DE2
330
36
100
AcDbDictionary
280
     1
281
     1
  3
ACAD_XREC_ROUNDTRIP
360
DE3
  0
DICTIONARY
  5
DE4
330
30
100
AcDbDictionary
280
     1
281
     1
  3
ACAD_XREC_ROUNDTRIP
360
DE5
  0
DICTIONARY
  5
DE6
330
3C
100
AcDbDictionary
280
     1
281
     1
  3
ACAD_XREC_ROUNDTRIP
360
DE7
  0
XRECORD
  5
DAD
102
{ACAD_REACTORS
330
DAC
102
}
330
DAC
100
AcDbXrecord
280
     1
102
MATERIAL
148
0.0
149
0.0
149
0.0
 93
        0
 94
      127
282
     0
 72
     0
 77
     0
171
     0
175
     0
179
     0
273
     0
  0
XRECORD
  5
DAF
102
{ACAD_REACTORS
330
DAE
102
}
330
DAE
100
AcDbXrecord
280
     1
102
MATERIAL
148
0.0
149
0.0
149
0.0
 93
        0
 94
      127
282
     0
 72
     0
 77
     0
171
     0
175
     0
179
     0
273
     0
  0
XRECORD
  5
DB1
102
{ACAD_REACTORS
330
DB0
102
}
330
DB0
100
AcDbXrecord
280
     1
102
MATERIAL
148
0.0
149
0.0
149
0.0
 93
        0
 94
      127
282
     0
 72
     0
 77
     0
171
     0
175
     0
179
     0
273
     0
  0
XRECORD
  5
DB3
102
{ACAD_REACTORS
330
DB2
102
}
330
DB2
100
AcDbXrecord
280
     1
102
ACAD_ROUNDTRIP_2010_MLEADER_STYLE
  0
XRECORD
  5
DB5
102
{ACAD_REACTORS
330
DB4
102
}
330
DB4
100
AcDbXrecord
280
     1
102
RTVSPropertyOp0
 70
     1
102
RTVSPropertyOp1
 70
     1
102
RTVSPropertyOp2
 70
     1
102
RTVSPropertyOp3
 70
     1
102
RTVSPropertyOp4
 70
     1
102
RTVSPropertyOp5
 70
     1
102
RTVSPropertyOp6
 70
     1
102
RTVSPropertyOp7
 70
     1
102
RTVSPropertyOp8
 70
     1
102
RTVSPropertyOp9
 70
     1
102
RTVSPropertyOp10
 70
     1
102
RTVSPropertyOp11
 70
     1
102
RTVSPropertyOp12
 70
     1
102
RTVSPropertyOp13
 70
     1
102
RTVSPropertyOp14
 70
     1
102
RTVSPropertyOp15
 70
     1
102
RTVSPropertyOp16
 70
     1
102
RTVSPropertyOp17
 70
     1
102
RTVSPropertyOp18
 70
     1
102
RTVSPropertyOp19
 70
     1
102
RTVSPropertyOp20
 70
     1
102
RTVSPropertyOp21
 70
     1
102
RTVSPropertyOp22
 70
     1
102
RTVSPropertyOp23
 70
     1
102
RTVSPropertyOp24
 70
     1
102
RTVSPropertyOp25
 70
     1
102
RTVSPropertyOp26
 70
     1
102
RTVSPropertyOp27
 70
     1
102
RTVSPropertyOp28
 70
     1
102
RTVSPropertyOp29
 70
     1
102
RTVSPropertyOp30
 70
     1
102
RTVSPropertyOp31
 70
     1
102
RTVSPropertyOp32
 70
     1
102
RTVSPropertyOp33
 70
     1
102
RTVSPropertyOp34
 70
     1
102
RTVSPropertyOp35
 70
     1
102
RTVSPropertyOp36
 70
     1
102
RTVSPropertyOp37
 70
     1
102
RTVSPropertyOp38
 70
     1
102
RTVSPropertyOp39
 70
     1
102
RTVSPropertyOp40
 70
     1
102
RTVSPropertyOp41
 70
     1
102
RTVSPropertyOp42
 70
     1
102
RTVSPropertyOp43
 70
     1
102
RTVSPropertyOp44
 70
     1
102
RTVSPropertyOp45
 70
     1
102
RTVSPropertyOp46
 70
     1
102
RTVSPropertyOp47
 70
     1
102
RTVSPropertyOp48
 70
     1
102
RTVSPropertyOp49
 70
     1
102
RTVSPropertyOp50
 70
     1
102
RTVSPropertyOp51
 70
     0
102
RTVSPropertyOp52
 70
     0
102
RTVSPropertyOp53
 70
     1
102
RTVSPropertyOp54
 70
     1
102
RTVSPropertyOp55
 70
     1
102
RTVSPropertyOp56
 70
     1
102
RTVSPropertyOp57
 70
     1
102
RTVSPost2010Prop28
280
     1
102
RTVSPost2010PropOp28
 70
     1
102
RTVSPost2010Prop29
280
     1
102
RTVSPost2010PropOp29
 70
     1
102
RTVSPost2010Prop30
280
     0
102
RTVSPost2010PropOp30
 70
     1
102
RTVSPost2010Prop31
280
     0
102
RTVSPost2010PropOp31
 70
     1
102
RTVSPost2010Prop32
280
     0
102
RTVSPost2010PropOp32
 70
     1
102
RTVSPost2010Prop33
280
     0
102
RTVSPost2010PropOp33
 70
     1
102
RTVSPost2010Prop34
280
     0
102
RTVSPost2010PropOp34
 70
     1
102
RTVSPost2010Prop35
280
     0
102
RTVSPost2010PropOp35
 70
     1
102
RTVSPost2010Prop36
280
     0
102
RTVSPost2010PropOp36
 70
     1
102
RTVSPost2010Prop37
 90
       50
102
RTVSPost2010PropOp37
 70
     1
102
RTVSPost2010Prop38
140
0.0
102
RTVSPost2010PropOp38
 70
     1
102
RTVSPost2010Prop39
140
1.0
102
RTVSPost2010PropOp39
 70
     1
102
RTVSPost2010Prop40
 90
        0
102
RTVSPost2010PropOp40
 70
     1
102
RTVSPost2010Prop41ColorIndex
 90
       18
102
RTVSPost2010Prop41ColorRGB
 90
        0
102
RTVSPost2010PropOp41
 70
     1
102
RTVSPost2010Prop42
 90
       50
102
RTVSPost2010PropOp42
 70
     1
102
RTVSPost2010Prop43
 90
        3
102
RTVSPost2010PropOp43
 70
     1
102
RTVSPost2010Prop44ColorIndex
 90
        5
102
RTVSPost2010Prop44ColorRGB
 90
      255
102
RTVSPost2010PropOp44
 70
     1
102
RTVSPost2010Prop45
280
     0
102
RTVSPost2010PropOp45
 70
     1
102
RTVSPost2010Prop46
 90
       50
102
RTVSPost2010PropOp46
 70
     1
102
RTVSPost2010Prop47
 90
       50
102
RTVSPost2010PropOp47
 70
     1
102
RTVSPost2010Prop48
 90
       50
102
RTVSPost2010PropOp48
 70
     1
102
RTVSPost2010Prop49
280
     0
102
RTVSPost2010PropOp49
 70
     1
102
RTVSPost2010Prop50
 90
       50
102
RTVSPost2010PropOp50
 70
     1
102
RTVSPost2010Prop51ColorIndex
 90
      256
102
RTVSPost2010Prop51ColorRGB
 90
-16777216
102
RTVSPost2010PropOp51
 70
     0
102
RTVSPost2010Prop52
140
1.0
102
RTVSPost2010PropOp52
 70
     0
102
RTVSPost2010Prop53
 90
        2
102
RTVSPost2010PropOp53
 70
     1
102
RTVSPost2010Prop54
  1
strokes_ogs.tif
102
RTVSPost2010PropOp54
 70
     1
102
RTVSPost2010Prop55
280
     0
102
RTVSPost2010PropOp55
 70
     1
102
RTVSPost2010Prop56
140
1.0
102
RTVSPost2010PropOp56
 70
     1
102
RTVSPost2010Prop57
140
1.0
102
RTVSPost2010PropOp57
 70
     1
  0
XRECORD
  5
DB7
102
{ACAD_REACTORS
330
DB6
102
}
330
DB6
100
AcDbXrecord
280
     1
102
RTVSPropertyOp0
 70
     1
102
RTVSPropertyOp1
 70
     1
102
RTVSPropertyOp2
 70
     1
102
RTVSPropertyOp3
 70
     1
102
RTVSPropertyOp4
 70
     1
102
RTVSPropertyOp5
 70
     1
102
RTVSPropertyOp6
 70
     1
102
RTVSPropertyOp7
 70
     1
102
RTVSPropertyOp8
 70
     1
102
RTVSPropertyOp9
 70
     1
102
RTVSPropertyOp10
 70
     1
102
RTVSPropertyOp11
 70
     1
102
RTVSPropertyOp12
 70
     1
102
RTVSPropertyOp13
 70
     1
102
RTVSPropertyOp14
 70
     1
102
RTVSPropertyOp15
 70
     1
102
RTVSPropertyOp16
 70
     1
102
RTVSPropertyOp17
 70
     1
102
RTVSPropertyOp18
 70
     1
102
RTVSPropertyOp19
 70
     1
102
RTVSPropertyOp20
 70
     1
102
RTVSPropertyOp21
 70
     1
102
RTVSPropertyOp22
 70
     1
102
RTVSPropertyOp23
 70
     1
102
RTVSPropertyOp24
 70
     1
102
RTVSPropertyOp25
 70
     1
102
RTVSPropertyOp26
 70
     1
102
RTVSPropertyOp27
 70
     1
102
RTVSPropertyOp28
 70
     1
102
RTVSPropertyOp29
 70
     1
102
RTVSPropertyOp30
 70
     1
102
RTVSPropertyOp31
 70
     1
102
RTVSPropertyOp32
 70
     1
102
RTVSPropertyOp33
 70
     1
102
RTVSPropertyOp34
 70
     1
102
RTVSPropertyOp35
 70
     1
102
RTVSPropertyOp36
 70
     1
102
RTVSPropertyOp37
 70
     1
102
RTVSPropertyOp38
 70
     1
102
RTVSPropertyOp39
 70
     1
102
RTVSPropertyOp40
 70
     1
102
RTVSPropertyOp41
 70
     1
102
RTVSPropertyOp42
 70
     1
102
RTVSPropertyOp43
 70
     1
102
RTVSPropertyOp44
 70
     1
102
RTVSPropertyOp45
 70
     1
102
RTVSPropertyOp46
 70
     1
102
RTVSPropertyOp47
 70
     1
102
RTVSPropertyOp48
 70
     1
102
RTVSPropertyOp49
 70
     1
102
RTVSPropertyOp50
 70
     1
102
RTVSPropertyOp51
 70
     0
102
RTVSPropertyOp52
 70
     0
102
RTVSPropertyOp53
 70
     1
102
RTVSPropertyOp54
 70
     1
102
RTVSPropertyOp55
 70
     1
102
RTVSPropertyOp56
 70
     1
102
RTVSPropertyOp57
 70
     1
102
RTVSPost2010Prop28
280
     0
102
RTVSPost2010PropOp28
 70
     1
102
RTVSPost2010Prop29
280
     1
102
RTVSPost2010PropOp29
 70
     1
102
RTVSPost2010Prop30
280
     1
102
RTVSPost2010PropOp30
 70
     1
102
RTVSPost2010Prop31
280
     0
102
RTVSPost2010PropOp31
 70
     1
102
RTVSPost2010Prop32
280
     0
102
RTVSPost2010PropOp32
 70
     1
102
RTVSPost2010Prop33
280
     0
102
RTVSPost2010PropOp33
 70
     1
102
RTVSPost2010Prop34
280
     0
102
RTVSPost2010PropOp34
 70
     1
102
RTVSPost2010Prop35
280
     0
102
RTVSPost2010PropOp35
 70
     1
102
RTVSPost2010Prop36
280
     0
102
RTVSPost2010PropOp36
 70
     1
102
RTVSPost2010Prop37
 90
       50
102
RTVSPost2010PropOp37
 70
     1
102
RTVSPost2010Prop38
140
0.0
102
RTVSPost2010PropOp38
 70
     1
102
RTVSPost2010Prop39
140
1.0
102
RTVSPost2010PropOp39
 70
     1
102
RTVSPost2010Prop40
 90
        0
102
RTVSPost2010PropOp40
 70
     1
102
RTVSPost2010Prop41ColorIndex
 90
       18
102
RTVSPost2010Prop41ColorRGB
 90
        0
102
RTVSPost2010PropOp41
 70
     1
102
RTVSPost2010Prop42
 90
       50
102
RTVSPost2010PropOp42
 70
     1
102
RTVSPost2010Prop43
 90
        3
102
RTVSPost2010PropOp43
 70
     1
102
RTVSPost2010Prop44ColorIndex
 90
        5
102
RTVSPost2010Prop44ColorRGB
 90
      255
102
RTVSPost2010PropOp44
 70
     1
102
RTVSPost2010Prop45
280
     0
102
RTVSPost2010PropOp45
 70
     1
102
RTVSPost2010Prop46
 90
       50
102
RTVSPost2010PropOp46
 70
     1
102
RTVSPost2010Prop47
 90
       50
102
RTVSPost2010PropOp47
 70
     1
102
RTVSPost2010Prop48
 90
       50
102
RTVSPost2010PropOp48
 70
     1
102
RTVSPost2010Prop49
280
     0
102
RTVSPost2010PropOp49
 70
     1
102
RTVSPost2010Prop50
 90
       50
102
RTVSPost2010PropOp50
 70
     1
102
RTVSPost2010Prop51ColorIndex
 90
      256
102
RTVSPost2010Prop51ColorRGB
 90
-16777216
102
RTVSPost2010PropOp51
 70
     0
102
RTVSPost2010Prop52
140
1.0
102
RTVSPost2010PropOp52
 70
     0
102
RTVSPost2010Prop53
 90
        2
102
RTVSPost2010PropOp53
 70
     1
102
RTVSPost2010Prop54
  1
strokes_ogs.tif
102
RTVSPost2010PropOp54
 70
     1
102
RTVSPost2010Prop55
280
     0
102
RTVSPost2010PropOp55
 70
     1
102
RTVSPost2010Prop56
140
1.0
102
RTVSPost2010PropOp56
 70
     1
102
RTVSPost2010Prop57
140
1.0
102
RTVSPost2010PropOp57
 70
     1
  0
XRECORD
  5
DB9
102
{ACAD_REACTORS
330
DB8
102
}
330
DB8
100
AcDbXrecord
280
     1
102
RTVSPropertyOp0
 70
     1
102
RTVSPropertyOp1
 70
     1
102
RTVSPropertyOp2
 70
     1
102
RTVSPropertyOp3
 70
     1
102
RTVSPropertyOp4
 70
     1
102
RTVSPropertyOp5
 70
     1
102
RTVSPropertyOp6
 70
     1
102
RTVSPropertyOp7
 70
     1
102
RTVSPropertyOp8
 70
     1
102
RTVSPropertyOp9
 70
     1
102
RTVSPropertyOp10
 70
     1
102
RTVSPropertyOp11
 70
     1
102
RTVSPropertyOp12
 70
     1
102
RTVSPropertyOp13
 70
     1
102
RTVSPropertyOp14
 70
     1
102
RTVSPropertyOp15
 70
     1
102
RTVSPropertyOp16
 70
     1
102
RTVSPropertyOp17
 70
     1
102
RTVSPropertyOp18
 70
     1
102
RTVSPropertyOp19
 70
     1
102
RTVSPropertyOp20
 70
     1
102
RTVSPropertyOp21
 70
     1
102
RTVSPropertyOp22
 70
     1
102
RTVSPropertyOp23
 70
     1
102
RTVSPropertyOp24
 70
     1
102
RTVSPropertyOp25
 70
     1
102
RTVSPropertyOp26
 70
     1
102
RTVSPropertyOp27
 70
     1
102
RTVSPropertyOp28
 70
     1
102
RTVSPropertyOp29
 70
     1
102
RTVSPropertyOp30
 70
     1
102
RTVSPropertyOp31
 70
     1
102
RTVSPropertyOp32
 70
     1
102
RTVSPropertyOp33
 70
     1
102
RTVSPropertyOp34
 70
     1
102
RTVSPropertyOp35
 70
     1
102
RTVSPropertyOp36
 70
     1
102
RTVSPropertyOp37
 70
     1
102
RTVSPropertyOp38
 70
     1
102
RTVSPropertyOp39
 70
     1
102
RTVSPropertyOp40
 70
     1
102
RTVSPropertyOp41
 70
     1
102
RTVSPropertyOp42
 70
     1
102
RTVSPropertyOp43
 70
     1
102
RTVSPropertyOp44
 70
     1
102
RTVSPropertyOp45
 70
     1
102
RTVSPropertyOp46
 70
     1
102
RTVSPropertyOp47
 70
     1
102
RTVSPropertyOp48
 70
     1
102
RTVSPropertyOp49
 70
     1
102
RTVSPropertyOp50
 70
     1
102
RTVSPropertyOp51
 70
     0
102
RTVSPropertyOp52
 70
     0
102
RTVSPropertyOp53
 70
     1
102
RTVSPropertyOp54
 70
     1
102
RTVSPropertyOp55
 70
     1
102
RTVSPropertyOp56
 70
     1
102
RTVSPropertyOp57
 70
     1
102
RTVSPost2010Prop28
280
     0
102
RTVSPost2010PropOp28
 70
     1
102
RTVSPost2010Prop29
280
     1
102
RTVSPost2010PropOp29
 70
     1
102
RTVSPost2010Prop30
280
     1
102
RTVSPost2010PropOp30
 70
     1
102
RTVSPost2010Prop31
280
     0
102
RTVSPost2010PropOp31
 70
     1
102
RTVSPost2010Prop32
280
     0
102
RTVSPost2010PropOp32
 70
     1
102
RTVSPost2010Prop33
280
     0
102
RTVSPost2010PropOp33
 70
     1
102
RTVSPost2010Prop34
280
     0
102
RTVSPost2010PropOp34
 70
     1
102
RTVSPost2010Prop35
280
     0
102
RTVSPost2010PropOp35
 70
     1
102
RTVSPost2010Prop36
280
     0
102
RTVSPost2010PropOp36
 70
     1
102
RTVSPost2010Prop37
 90
       50
102
RTVSPost2010PropOp37
 70
     1
102
RTVSPost2010Prop38
140
0.0
102
RTVSPost2010PropOp38
 70
     1
102
RTVSPost2010Prop39
140
1.0
102
RTVSPost2010PropOp39
 70
     1
102
RTVSPost2010Prop40
 90
        0
102
RTVSPost2010PropOp40
 70
     1
102
RTVSPost2010Prop41ColorIndex
 90
       18
102
RTVSPost2010Prop41ColorRGB
 90
        0
102
RTVSPost2010PropOp41
 70
     1
102
RTVSPost2010Prop42
 90
       50
102
RTVSPost2010PropOp42
 70
     1
102
RTVSPost2010Prop43
 90
        3
102
RTVSPost2010PropOp43
 70
     1
102
RTVSPost2010Prop44ColorIndex
 90
        5
102
RTVSPost2010Prop44ColorRGB
 90
      255
102
RTVSPost2010PropOp44
 70
     1
102
RTVSPost2010Prop45
280
     0
102
RTVSPost2010PropOp45
 70
     1
102
RTVSPost2010Prop46
 90
       50
102
RTVSPost2010PropOp46
 70
     1
102
RTVSPost2010Prop47
 90
       50
102
RTVSPost2010PropOp47
 70
     1
102
RTVSPost2010Prop48
 90
       50
102
RTVSPost2010PropOp48
 70
     1
102
RTVSPost2010Prop49
280
     0
102
RTVSPost2010PropOp49
 70
     1
102
RTVSPost2010Prop50
 90
       50
102
RTVSPost2010PropOp50
 70
     1
102
RTVSPost2010Prop51ColorIndex
 90
      256
102
RTVSPost2010Prop51ColorRGB
 90
-16777216
102
RTVSPost2010PropOp51
 70
     0
102
RTVSPost2010Prop52
140
1.0
102
RTVSPost2010PropOp52
 70
     0
102
RTVSPost2010Prop53
 90
        2
102
RTVSPost2010PropOp53
 70
     1
102
RTVSPost2010Prop54
  1
strokes_ogs.tif
102
RTVSPost2010PropOp54
 70
     1
102
RTVSPost2010Prop55
280
     0
102
RTVSPost2010PropOp55
 70
     1
102
RTVSPost2010Prop56
140
1.0
102
RTVSPost2010PropOp56
 70
     1
102
RTVSPost2010Prop57
140
1.0
102
RTVSPost2010PropOp57
 70
     1
  0
XRECORD
  5
DBB
102
{ACAD_REACTORS
330
DBA
102
}
330
DBA
100
AcDbXrecord
280
     1
102
RTVSPropertyOp0
 70
     1
102
RTVSPropertyOp1
 70
     1
102
RTVSPropertyOp2
 70
     1
102
RTVSPropertyOp3
 70
     1
102
RTVSPropertyOp4
 70
     1
102
RTVSPropertyOp5
 70
     1
102
RTVSPropertyOp6
 70
     1
102
RTVSPropertyOp7
 70
     1
102
RTVSPropertyOp8
 70
     1
102
RTVSPropertyOp9
 70
     1
102
RTVSPropertyOp10
 70
     1
102
RTVSPropertyOp11
 70
     1
102
RTVSPropertyOp12
 70
     1
102
RTVSPropertyOp13
 70
     1
102
RTVSPropertyOp14
 70
     1
102
RTVSPropertyOp15
 70
     1
102
RTVSPropertyOp16
 70
     1
102
RTVSPropertyOp17
 70
     1
102
RTVSPropertyOp18
 70
     1
102
RTVSPropertyOp19
 70
     1
102
RTVSPropertyOp20
 70
     1
102
RTVSPropertyOp21
 70
     1
102
RTVSPropertyOp22
 70
     1
102
RTVSPropertyOp23
 70
     1
102
RTVSPropertyOp24
 70
     1
102
RTVSPropertyOp25
 70
     1
102
RTVSPropertyOp26
 70
     1
102
RTVSPropertyOp27
 70
     1
102
RTVSPropertyOp28
 70
     1
102
RTVSPropertyOp29
 70
     1
102
RTVSPropertyOp30
 70
     1
102
RTVSPropertyOp31
 70
     1
102
RTVSPropertyOp32
 70
     1
102
RTVSPropertyOp33
 70
     1
102
RTVSPropertyOp34
 70
     1
102
RTVSPropertyOp35
 70
     1
102
RTVSPropertyOp36
 70
     1
102
RTVSPropertyOp37
 70
     1
102
RTVSPropertyOp38
 70
     1
102
RTVSPropertyOp39
 70
     1
102
RTVSPropertyOp40
 70
     1
102
RTVSPropertyOp41
 70
     1
102
RTVSPropertyOp42
 70
     1
102
RTVSPropertyOp43
 70
     1
102
RTVSPropertyOp44
 70
     1
102
RTVSPropertyOp45
 70
     1
102
RTVSPropertyOp46
 70
     1
102
RTVSPropertyOp47
 70
     1
102
RTVSPropertyOp48
 70
     1
102
RTVSPropertyOp49
 70
     1
102
RTVSPropertyOp50
 70
     1
102
RTVSPropertyOp51
 70
     0
102
RTVSPropertyOp52
 70
     0
102
RTVSPropertyOp53
 70
     1
102
RTVSPropertyOp54
 70
     1
102
RTVSPropertyOp55
 70
     1
102
RTVSPropertyOp56
 70
     1
102
RTVSPropertyOp57
 70
     1
102
RTVSPost2010Prop28
280
     0
102
RTVSPost2010PropOp28
 70
     1
102
RTVSPost2010Prop29
280
     1
102
RTVSPost2010PropOp29
 70
     1
102
RTVSPost2010Prop30
280
     1
102
RTVSPost2010PropOp30
 70
     1
102
RTVSPost2010Prop31
280
     0
102
RTVSPost2010PropOp31
 70
     1
102
RTVSPost2010Prop32
280
     0
102
RTVSPost2010PropOp32
 70
     1
102
RTVSPost2010Prop33
280
     0
102
RTVSPost2010PropOp33
 70
     1
102
RTVSPost2010Prop34
280
     0
102
RTVSPost2010PropOp34
 70
     1
102
RTVSPost2010Prop35
280
     0
102
RTVSPost2010PropOp35
 70
     1
102
RTVSPost2010Prop36
280
     0
102
RTVSPost2010PropOp36
 70
     1
102
RTVSPost2010Prop37
 90
       50
102
RTVSPost2010PropOp37
 70
     1
102
RTVSPost2010Prop38
140
0.0
102
RTVSPost2010PropOp38
 70
     1
102
RTVSPost2010Prop39
140
1.0
102
RTVSPost2010PropOp39
 70
     1
102
RTVSPost2010Prop40
 90
        0
102
RTVSPost2010PropOp40
 70
     1
102
RTVSPost2010Prop41ColorIndex
 90
       18
102
RTVSPost2010Prop41ColorRGB
 90
        0
102
RTVSPost2010PropOp41
 70
     1
102
RTVSPost2010Prop42
 90
       50
102
RTVSPost2010PropOp42
 70
     1
102
RTVSPost2010Prop43
 90
        3
102
RTVSPost2010PropOp43
 70
     1
102
RTVSPost2010Prop44ColorIndex
 90
        5
102
RTVSPost2010Prop44ColorRGB
 90
      255
102
RTVSPost2010PropOp44
 70
     1
102
RTVSPost2010Prop45
280
     0
102
RTVSPost2010PropOp45
 70
     1
102
RTVSPost2010Prop46
 90
       50
102
RTVSPost2010PropOp46
 70
     1
102
RTVSPost2010Prop47
 90
       50
102
RTVSPost2010PropOp47
 70
     1
102
RTVSPost2010Prop48
 90
       50
102
RTVSPost2010PropOp48
 70
     1
102
RTVSPost2010Prop49
280
     0
102
RTVSPost2010PropOp49
 70
     1
102
RTVSPost2010Prop50
 90
       50
102
RTVSPost2010PropOp50
 70
     1
102
RTVSPost2010Prop51ColorIndex
 90
      256
102
RTVSPost2010Prop51ColorRGB
 90
-16777216
102
RTVSPost2010PropOp51
 70
     0
102
RTVSPost2010Prop52
140
1.0
102
RTVSPost2010PropOp52
 70
     0
102
RTVSPost2010Prop53
 90
        2
102
RTVSPost2010PropOp53
 70
     1
102
RTVSPost2010Prop54
  1
strokes_ogs.tif
102
RTVSPost2010PropOp54
 70
     1
102
RTVSPost2010Prop55
280
     0
102
RTVSPost2010PropOp55
 70
     1
102
RTVSPost2010Prop56
140
1.0
102
RTVSPost2010PropOp56
 70
     1
102
RTVSPost2010Prop57
140
1.0
102
RTVSPost2010PropOp57
 70
     1
  0
XRECORD
  5
DBD
102
{ACAD_REACTORS
330
DBC
102
}
330
DBC
100
AcDbXrecord
280
     1
102
RTVSPropertyOp0
 70
     1
102
RTVSPropertyOp1
 70
     1
102
RTVSPropertyOp2
 70
     1
102
RTVSPropertyOp3
 70
     1
102
RTVSPropertyOp4
 70
     1
102
RTVSPropertyOp5
 70
     1
102
RTVSPropertyOp6
 70
     1
102
RTVSPropertyOp7
 70
     1
102
RTVSPropertyOp8
 70
     1
102
RTVSPropertyOp9
 70
     1
102
RTVSPropertyOp10
 70
     1
102
RTVSPropertyOp11
 70
     1
102
RTVSPropertyOp12
 70
     1
102
RTVSPropertyOp13
 70
     1
102
RTVSPropertyOp14
 70
     1
102
RTVSPropertyOp15
 70
     1
102
RTVSPropertyOp16
 70
     1
102
RTVSPropertyOp17
 70
     1
102
RTVSPropertyOp18
 70
     1
102
RTVSPropertyOp19
 70
     1
102
RTVSPropertyOp20
 70
     1
102
RTVSPropertyOp21
 70
     1
102
RTVSPropertyOp22
 70
     1
102
RTVSPropertyOp23
 70
     1
102
RTVSPropertyOp24
 70
     1
102
RTVSPropertyOp25
 70
     1
102
RTVSPropertyOp26
 70
     1
102
RTVSPropertyOp27
 70
     1
102
RTVSPropertyOp28
 70
     1
102
RTVSPropertyOp29
 70
     1
102
RTVSPropertyOp30
 70
     1
102
RTVSPropertyOp31
 70
     1
102
RTVSPropertyOp32
 70
     1
102
RTVSPropertyOp33
 70
     1
102
RTVSPropertyOp34
 70
     1
102
RTVSPropertyOp35
 70
     1
102
RTVSPropertyOp36
 70
     1
102
RTVSPropertyOp37
 70
     1
102
RTVSPropertyOp38
 70
     1
102
RTVSPropertyOp39
 70
     1
102
RTVSPropertyOp40
 70
     1
102
RTVSPropertyOp41
 70
     1
102
RTVSPropertyOp42
 70
     1
102
RTVSPropertyOp43
 70
     1
102
RTVSPropertyOp44
 70
     1
102
RTVSPropertyOp45
 70
     1
102
RTVSPropertyOp46
 70
     1
102
RTVSPropertyOp47
 70
     1
102
RTVSPropertyOp48
 70
     1
102
RTVSPropertyOp49
 70
     1
102
RTVSPropertyOp50
 70
     1
102
RTVSPropertyOp51
 70
     0
102
RTVSPropertyOp52
 70
     0
102
RTVSPropertyOp53
 70
     1
102
RTVSPropertyOp54
 70
     1
102
RTVSPropertyOp55
 70
     1
102
RTVSPropertyOp56
 70
     1
102
RTVSPropertyOp57
 70
     1
102
RTVSPost2010Prop28
280
     0
102
RTVSPost2010PropOp28
 70
     1
102
RTVSPost2010Prop29
280
     1
102
RTVSPost2010PropOp29
 70
     1
102
RTVSPost2010Prop30
280
     1
102
RTVSPost2010PropOp30
 70
     1
102
RTVSPost2010Prop31
280
     0
102
RTVSPost2010PropOp31
 70
     1
102
RTVSPost2010Prop32
280
     0
102
RTVSPost2010PropOp32
 70
     1
102
RTVSPost2010Prop33
280
     0
102
RTVSPost2010PropOp33
 70
     1
102
RTVSPost2010Prop34
280
     0
102
RTVSPost2010PropOp34
 70
     1
102
RTVSPost2010Prop35
280
     0
102
RTVSPost2010PropOp35
 70
     1
102
RTVSPost2010Prop36
280
     0
102
RTVSPost2010PropOp36
 70
     1
102
RTVSPost2010Prop37
 90
       50
102
RTVSPost2010PropOp37
 70
     1
102
RTVSPost2010Prop38
140
0.0
102
RTVSPost2010PropOp38
 70
     1
102
RTVSPost2010Prop39
140
1.0
102
RTVSPost2010PropOp39
 70
     1
102
RTVSPost2010Prop40
 90
        0
102
RTVSPost2010PropOp40
 70
     1
102
RTVSPost2010Prop41ColorIndex
 90
       18
102
RTVSPost2010Prop41ColorRGB
 90
        0
102
RTVSPost2010PropOp41
 70
     1
102
RTVSPost2010Prop42
 90
       50
102
RTVSPost2010PropOp42
 70
     1
102
RTVSPost2010Prop43
 90
        3
102
RTVSPost2010PropOp43
 70
     1
102
RTVSPost2010Prop44ColorIndex
 90
        5
102
RTVSPost2010Prop44ColorRGB
 90
      255
102
RTVSPost2010PropOp44
 70
     1
102
RTVSPost2010Prop45
280
     0
102
RTVSPost2010PropOp45
 70
     1
102
RTVSPost2010Prop46
 90
       50
102
RTVSPost2010PropOp46
 70
     1
102
RTVSPost2010Prop47
 90
       50
102
RTVSPost2010PropOp47
 70
     1
102
RTVSPost2010Prop48
 90
       50
102
RTVSPost2010PropOp48
 70
     1
102
RTVSPost2010Prop49
280
     0
102
RTVSPost2010PropOp49
 70
     1
102
RTVSPost2010Prop50
 90
       50
102
RTVSPost2010PropOp50
 70
     1
102
RTVSPost2010Prop51ColorIndex
 90
      256
102
RTVSPost2010Prop51ColorRGB
 90
-16777216
102
RTVSPost2010PropOp51
 70
     0
102
RTVSPost2010Prop52
140
1.0
102
RTVSPost2010PropOp52
 70
     0
102
RTVSPost2010Prop53
 90
        2
102
RTVSPost2010PropOp53
 70
     1
102
RTVSPost2010Prop54
  1
strokes_ogs.tif
102
RTVSPost2010PropOp54
 70
     1
102
RTVSPost2010Prop55
280
     0
102
RTVSPost2010PropOp55
 70
     1
102
RTVSPost2010Prop56
140
1.0
102
RTVSPost2010PropOp56
 70
     1
102
RTVSPost2010Prop57
140
1.0
102
RTVSPost2010PropOp57
 70
     1
  0
XRECORD
  5
DBF
102
{ACAD_REACTORS
330
DBE
102
}
330
DBE
100
AcDbXrecord
280
     1
102
RTVSPropertyOp0
 70
     1
102
RTVSPropertyOp1
 70
     1
102
RTVSPropertyOp2
 70
     1
102
RTVSPropertyOp3
 70
     1
102
RTVSPropertyOp4
 70
     1
102
RTVSPropertyOp5
 70
     1
102
RTVSPropertyOp6
 70
     1
102
RTVSPropertyOp7
 70
     1
102
RTVSPropertyOp8
 70
     1
102
RTVSPropertyOp9
 70
     1
102
RTVSPropertyOp10
 70
     1
102
RTVSPropertyOp11
 70
     1
102
RTVSPropertyOp12
 70
     1
102
RTVSPropertyOp13
 70
     1
102
RTVSPropertyOp14
 70
     1
102
RTVSPropertyOp15
 70
     1
102
RTVSPropertyOp16
 70
     1
102
RTVSPropertyOp17
 70
     1
102
RTVSPropertyOp18
 70
     1
102
RTVSPropertyOp19
 70
     1
102
RTVSPropertyOp20
 70
     1
102
RTVSPropertyOp21
 70
     1
102
RTVSPropertyOp22
 70
     1
102
RTVSPropertyOp23
 70
     1
102
RTVSPropertyOp24
 70
     1
102
RTVSPropertyOp25
 70
     1
102
RTVSPropertyOp26
 70
     1
102
RTVSPropertyOp27
 70
     1
102
RTVSPropertyOp28
 70
     1
102
RTVSPropertyOp29
 70
     1
102
RTVSPropertyOp30
 70
     1
102
RTVSPropertyOp31
 70
     1
102
RTVSPropertyOp32
 70
     1
102
RTVSPropertyOp33
 70
     1
102
RTVSPropertyOp34
 70
     1
102
RTVSPropertyOp35
 70
     1
102
RTVSPropertyOp36
 70
     1
102
RTVSPropertyOp37
 70
     1
102
RTVSPropertyOp38
 70
     1
102
RTVSPropertyOp39
 70
     1
102
RTVSPropertyOp40
 70
     1
102
RTVSPropertyOp41
 70
     1
102
RTVSPropertyOp42
 70
     1
102
RTVSPropertyOp43
 70
     1
102
RTVSPropertyOp44
 70
     1
102
RTVSPropertyOp45
 70
     1
102
RTVSPropertyOp46
 70
     1
102
RTVSPropertyOp47
 70
     1
102
RTVSPropertyOp48
 70
     1
102
RTVSPropertyOp49
 70
     1
102
RTVSPropertyOp50
 70
     1
102
RTVSPropertyOp51
 70
     0
102
RTVSPropertyOp52
 70
     0
102
RTVSPropertyOp53
 70
     1
102
RTVSPropertyOp54
 70
     1
102
RTVSPropertyOp55
 70
     1
102
RTVSPropertyOp56
 70
     1
102
RTVSPropertyOp57
 70
     1
102
RTVSPost2010Prop28
280
     0
102
RTVSPost2010PropOp28
 70
     1
102
RTVSPost2010Prop29
280
     1
102
RTVSPost2010PropOp29
 70
     1
102
RTVSPost2010Prop30
280
     1
102
RTVSPost2010PropOp30
 70
     1
102
RTVSPost2010Prop31
280
     0
102
RTVSPost2010PropOp31
 70
     1
102
RTVSPost2010Prop32
280
     0
102
RTVSPost2010PropOp32
 70
     1
102
RTVSPost2010Prop33
280
     0
102
RTVSPost2010PropOp33
 70
     1
102
RTVSPost2010Prop34
280
     0
102
RTVSPost2010PropOp34
 70
     1
102
RTVSPost2010Prop35
280
     0
102
RTVSPost2010PropOp35
 70
     1
102
RTVSPost2010Prop36
280
     0
102
RTVSPost2010PropOp36
 70
     1
102
RTVSPost2010Prop37
 90
       50
102
RTVSPost2010PropOp37
 70
     1
102
RTVSPost2010Prop38
140
0.0
102
RTVSPost2010PropOp38
 70
     1
102
RTVSPost2010Prop39
140
1.0
102
RTVSPost2010PropOp39
 70
     1
102
RTVSPost2010Prop40
 90
        0
102
RTVSPost2010PropOp40
 70
     1
102
RTVSPost2010Prop41ColorIndex
 90
       18
102
RTVSPost2010Prop41ColorRGB
 90
        0
102
RTVSPost2010PropOp41
 70
     1
102
RTVSPost2010Prop42
 90
       50
102
RTVSPost2010PropOp42
 70
     1
102
RTVSPost2010Prop43
 90
        3
102
RTVSPost2010PropOp43
 70
     1
102
RTVSPost2010Prop44ColorIndex
 90
        5
102
RTVSPost2010Prop44ColorRGB
 90
      255
102
RTVSPost2010PropOp44
 70
     1
102
RTVSPost2010Prop45
280
     0
102
RTVSPost2010PropOp45
 70
     1
102
RTVSPost2010Prop46
 90
       50
102
RTVSPost2010PropOp46
 70
     1
102
RTVSPost2010Prop47
 90
       50
102
RTVSPost2010PropOp47
 70
     1
102
RTVSPost2010Prop48
 90
       50
102
RTVSPost2010PropOp48
 70
     1
102
RTVSPost2010Prop49
280
     0
102
RTVSPost2010PropOp49
 70
     1
102
RTVSPost2010Prop50
 90
       50
102
RTVSPost2010PropOp50
 70
     1
102
RTVSPost2010Prop51ColorIndex
 90
      256
102
RTVSPost2010Prop51ColorRGB
 90
-16777216
102
RTVSPost2010PropOp51
 70
     0
102
RTVSPost2010Prop52
140
1.0
102
RTVSPost2010PropOp52
 70
     0
102
RTVSPost2010Prop53
 90
        2
102
RTVSPost2010PropOp53
 70
     1
102
RTVSPost2010Prop54
  1
strokes_ogs.tif
102
RTVSPost2010PropOp54
 70
     1
102
RTVSPost2010Prop55
280
     0
102
RTVSPost2010PropOp55
 70
     1
102
RTVSPost2010Prop56
140
1.0
102
RTVSPost2010PropOp56
 70
     1
102
RTVSPost2010Prop57
140
1.0
102
RTVSPost2010PropOp57
 70
     1
  0
XRECORD
  5
DC1
102
{ACAD_REACTORS
330
DC0
102
}
330
DC0
100
AcDbXrecord
280
     1
102
RTVSPropertyOp0
 70
     1
102
RTVSPropertyOp1
 70
     1
102
RTVSPropertyOp2
 70
     1
102
RTVSPropertyOp3
 70
     1
102
RTVSPropertyOp4
 70
     1
102
RTVSPropertyOp5
 70
     1
102
RTVSPropertyOp6
 70
     1
102
RTVSPropertyOp7
 70
     1
102
RTVSPropertyOp8
 70
     1
102
RTVSPropertyOp9
 70
     1
102
RTVSPropertyOp10
 70
     1
102
RTVSPropertyOp11
 70
     1
102
RTVSPropertyOp12
 70
     1
102
RTVSPropertyOp13
 70
     1
102
RTVSPropertyOp14
 70
     1
102
RTVSPropertyOp15
 70
     1
102
RTVSPropertyOp16
 70
     1
102
RTVSPropertyOp17
 70
     1
102
RTVSPropertyOp18
 70
     1
102
RTVSPropertyOp19
 70
     1
102
RTVSPropertyOp20
 70
     1
102
RTVSPropertyOp21
 70
     1
102
RTVSPropertyOp22
 70
     1
102
RTVSPropertyOp23
 70
     1
102
RTVSPropertyOp24
 70
     1
102
RTVSPropertyOp25
 70
     1
102
RTVSPropertyOp26
 70
     1
102
RTVSPropertyOp27
 70
     1
102
RTVSPropertyOp28
 70
     1
102
RTVSPropertyOp29
 70
     1
102
RTVSPropertyOp30
 70
     1
102
RTVSPropertyOp31
 70
     1
102
RTVSPropertyOp32
 70
     1
102
RTVSPropertyOp33
 70
     1
102
RTVSPropertyOp34
 70
     1
102
RTVSPropertyOp35
 70
     1
102
RTVSPropertyOp36
 70
     1
102
RTVSPropertyOp37
 70
     1
102
RTVSPropertyOp38
 70
     1
102
RTVSPropertyOp39
 70
     1
102
RTVSPropertyOp40
 70
     1
102
RTVSPropertyOp41
 70
     1
102
RTVSPropertyOp42
 70
     1
102
RTVSPropertyOp43
 70
     1
102
RTVSPropertyOp44
 70
     1
102
RTVSPropertyOp45
 70
     1
102
RTVSPropertyOp46
 70
     1
102
RTVSPropertyOp47
 70
     1
102
RTVSPropertyOp48
 70
     1
102
RTVSPropertyOp49
 70
     1
102
RTVSPropertyOp50
 70
     1
102
RTVSPropertyOp51
 70
     0
102
RTVSPropertyOp52
 70
     0
102
RTVSPropertyOp53
 70
     1
102
RTVSPropertyOp54
 70
     1
102
RTVSPropertyOp55
 70
     1
102
RTVSPropertyOp56
 70
     1
102
RTVSPropertyOp57
 70
     1
102
RTVSPost2010Prop28
280
     0
102
RTVSPost2010PropOp28
 70
     1
102
RTVSPost2010Prop29
280
     1
102
RTVSPost2010PropOp29
 70
     1
102
RTVSPost2010Prop30
280
     1
102
RTVSPost2010PropOp30
 70
     1
102
RTVSPost2010Prop31
280
     0
102
RTVSPost2010PropOp31
 70
     1
102
RTVSPost2010Prop32
280
     0
102
RTVSPost2010PropOp32
 70
     1
102
RTVSPost2010Prop33
280
     0
102
RTVSPost2010PropOp33
 70
     1
102
RTVSPost2010Prop34
280
     0
102
RTVSPost2010PropOp34
 70
     1
102
RTVSPost2010Prop35
280
     0
102
RTVSPost2010PropOp35
 70
     1
102
RTVSPost2010Prop36
280
     0
102
RTVSPost2010PropOp36
 70
     1
102
RTVSPost2010Prop37
 90
       50
102
RTVSPost2010PropOp37
 70
     1
102
RTVSPost2010Prop38
140
0.0
102
RTVSPost2010PropOp38
 70
     1
102
RTVSPost2010Prop39
140
1.0
102
RTVSPost2010PropOp39
 70
     1
102
RTVSPost2010Prop40
 90
        0
102
RTVSPost2010PropOp40
 70
     1
102
RTVSPost2010Prop41ColorIndex
 90
       18
102
RTVSPost2010Prop41ColorRGB
 90
        0
102
RTVSPost2010PropOp41
 70
     1
102
RTVSPost2010Prop42
 90
       50
102
RTVSPost2010PropOp42
 70
     1
102
RTVSPost2010Prop43
 90
        3
102
RTVSPost2010PropOp43
 70
     1
102
RTVSPost2010Prop44ColorIndex
 90
        5
102
RTVSPost2010Prop44ColorRGB
 90
      255
102
RTVSPost2010PropOp44
 70
     1
102
RTVSPost2010Prop45
280
     0
102
RTVSPost2010PropOp45
 70
     1
102
RTVSPost2010Prop46
 90
       50
102
RTVSPost2010PropOp46
 70
     1
102
RTVSPost2010Prop47
 90
       50
102
RTVSPost2010PropOp47
 70
     1
102
RTVSPost2010Prop48
 90
       50
102
RTVSPost2010PropOp48
 70
     1
102
RTVSPost2010Prop49
280
     0
102
RTVSPost2010PropOp49
 70
     1
102
RTVSPost2010Prop50
 90
       50
102
RTVSPost2010PropOp50
 70
     1
102
RTVSPost2010Prop51ColorIndex
 90
      256
102
RTVSPost2010Prop51ColorRGB
 90
-16777216
102
RTVSPost2010PropOp51
 70
     0
102
RTVSPost2010Prop52
140
1.0
102
RTVSPost2010PropOp52
 70
     0
102
RTVSPost2010Prop53
 90
        2
102
RTVSPost2010PropOp53
 70
     1
102
RTVSPost2010Prop54
  1
strokes_ogs.tif
102
RTVSPost2010PropOp54
 70
     1
102
RTVSPost2010Prop55
280
     0
102
RTVSPost2010PropOp55
 70
     1
102
RTVSPost2010Prop56
140
1.0
102
RTVSPost2010PropOp56
 70
     1
102
RTVSPost2010Prop57
140
1.0
102
RTVSPost2010PropOp57
 70
     1
  0
XRECORD
  5
DC3
102
{ACAD_REACTORS
330
DC2
102
}
330
DC2
100
AcDbXrecord
280
     1
102
RTVSPropertyOp0
 70
     1
102
RTVSPropertyOp1
 70
     1
102
RTVSPropertyOp2
 70
     1
102
RTVSPropertyOp3
 70
     1
102
RTVSPropertyOp4
 70
     1
102
RTVSPropertyOp5
 70
     1
102
RTVSPropertyOp6
 70
     1
102
RTVSPropertyOp7
 70
     1
102
RTVSPropertyOp8
 70
     1
102
RTVSPropertyOp9
 70
     1
102
RTVSPropertyOp10
 70
     1
102
RTVSPropertyOp11
 70
     1
102
RTVSPropertyOp12
 70
     1
102
RTVSPropertyOp13
 70
     1
102
RTVSPropertyOp14
 70
     1
102
RTVSPropertyOp15
 70
     1
102
RTVSPropertyOp16
 70
     1
102
RTVSPropertyOp17
 70
     1
102
RTVSPropertyOp18
 70
     1
102
RTVSPropertyOp19
 70
     1
102
RTVSPropertyOp20
 70
     1
102
RTVSPropertyOp21
 70
     1
102
RTVSPropertyOp22
 70
     1
102
RTVSPropertyOp23
 70
     1
102
RTVSPropertyOp24
 70
     1
102
RTVSPropertyOp25
 70
     1
102
RTVSPropertyOp26
 70
     1
102
RTVSPropertyOp27
 70
     1
102
RTVSPropertyOp28
 70
     1
102
RTVSPropertyOp29
 70
     1
102
RTVSPropertyOp30
 70
     1
102
RTVSPropertyOp31
 70
     1
102
RTVSPropertyOp32
 70
     1
102
RTVSPropertyOp33
 70
     1
102
RTVSPropertyOp34
 70
     1
102
RTVSPropertyOp35
 70
     1
102
RTVSPropertyOp36
 70
     1
102
RTVSPropertyOp37
 70
     1
102
RTVSPropertyOp38
 70
     1
102
RTVSPropertyOp39
 70
     1
102
RTVSPropertyOp40
 70
     1
102
RTVSPropertyOp41
 70
     1
102
RTVSPropertyOp42
 70
     1
102
RTVSPropertyOp43
 70
     1
102
RTVSPropertyOp44
 70
     1
102
RTVSPropertyOp45
 70
     1
102
RTVSPropertyOp46
 70
     1
102
RTVSPropertyOp47
 70
     1
102
RTVSPropertyOp48
 70
     1
102
RTVSPropertyOp49
 70
     1
102
RTVSPropertyOp50
 70
     1
102
RTVSPropertyOp51
 70
     0
102
RTVSPropertyOp52
 70
     0
102
RTVSPropertyOp53
 70
     1
102
RTVSPropertyOp54
 70
     1
102
RTVSPropertyOp55
 70
     1
102
RTVSPropertyOp56
 70
     1
102
RTVSPropertyOp57
 70
     1
102
RTVSPost2010Prop28
280
     0
102
RTVSPost2010PropOp28
 70
     1
102
RTVSPost2010Prop29
280
     1
102
RTVSPost2010PropOp29
 70
     1
102
RTVSPost2010Prop30
280
     1
102
RTVSPost2010PropOp30
 70
     1
102
RTVSPost2010Prop31
280
     0
102
RTVSPost2010PropOp31
 70
     1
102
RTVSPost2010Prop32
280
     0
102
RTVSPost2010PropOp32
 70
     1
102
RTVSPost2010Prop33
280
     0
102
RTVSPost2010PropOp33
 70
     1
102
RTVSPost2010Prop34
280
     0
102
RTVSPost2010PropOp34
 70
     1
102
RTVSPost2010Prop35
280
     0
102
RTVSPost2010PropOp35
 70
     1
102
RTVSPost2010Prop36
280
     0
102
RTVSPost2010PropOp36
 70
     1
102
RTVSPost2010Prop37
 90
       50
102
RTVSPost2010PropOp37
 70
     1
102
RTVSPost2010Prop38
140
0.0
102
RTVSPost2010PropOp38
 70
     1
102
RTVSPost2010Prop39
140
1.0
102
RTVSPost2010PropOp39
 70
     1
102
RTVSPost2010Prop40
 90
        0
102
RTVSPost2010PropOp40
 70
     1
102
RTVSPost2010Prop41ColorIndex
 90
       18
102
RTVSPost2010Prop41ColorRGB
 90
        0
102
RTVSPost2010PropOp41
 70
     1
102
RTVSPost2010Prop42
 90
       50
102
RTVSPost2010PropOp42
 70
     1
102
RTVSPost2010Prop43
 90
        3
102
RTVSPost2010PropOp43
 70
     1
102
RTVSPost2010Prop44ColorIndex
 90
        5
102
RTVSPost2010Prop44ColorRGB
 90
      255
102
RTVSPost2010PropOp44
 70
     1
102
RTVSPost2010Prop45
280
     0
102
RTVSPost2010PropOp45
 70
     1
102
RTVSPost2010Prop46
 90
       50
102
RTVSPost2010PropOp46
 70
     1
102
RTVSPost2010Prop47
 90
       50
102
RTVSPost2010PropOp47
 70
     1
102
RTVSPost2010Prop48
 90
       50
102
RTVSPost2010PropOp48
 70
     1
102
RTVSPost2010Prop49
280
     0
102
RTVSPost2010PropOp49
 70
     1
102
RTVSPost2010Prop50
 90
       50
102
RTVSPost2010PropOp50
 70
     1
102
RTVSPost2010Prop51ColorIndex
 90
      256
102
RTVSPost2010Prop51ColorRGB
 90
-16777216
102
RTVSPost2010PropOp51
 70
     0
102
RTVSPost2010Prop52
140
1.0
102
RTVSPost2010PropOp52
 70
     0
102
RTVSPost2010Prop53
 90
        2
102
RTVSPost2010PropOp53
 70
     1
102
RTVSPost2010Prop54
  1
strokes_ogs.tif
102
RTVSPost2010PropOp54
 70
     1
102
RTVSPost2010Prop55
280
     0
102
RTVSPost2010PropOp55
 70
     1
102
RTVSPost2010Prop56
140
1.0
102
RTVSPost2010PropOp56
 70
     1
102
RTVSPost2010Prop57
140
1.0
102
RTVSPost2010PropOp57
 70
     1
  0
XRECORD
  5
DC5
102
{ACAD_REACTORS
330
DC4
102
}
330
DC4
100
AcDbXrecord
280
     1
102
RTVSPropertyOp0
 70
     0
102
RTVSPropertyOp1
 70
     0
102
RTVSPropertyOp2
 70
     0
102
RTVSPropertyOp3
 70
     0
102
RTVSPropertyOp4
 70
     0
102
RTVSPropertyOp5
 70
     0
102
RTVSPropertyOp6
 70
     0
102
RTVSPropertyOp7
 70
     0
102
RTVSPropertyOp8
 70
     0
102
RTVSPropertyOp9
 70
     0
102
RTVSPropertyOp10
 70
     0
102
RTVSPropertyOp11
 70
     0
102
RTVSPropertyOp12
 70
     0
102
RTVSPropertyOp13
 70
     0
102
RTVSPropertyOp14
 70
     2
102
RTVSPropertyOp15
 70
     0
102
RTVSPropertyOp16
 70
     0
102
RTVSPropertyOp17
 70
     0
102
RTVSPropertyOp18
 70
     0
102
RTVSPropertyOp19
 70
     0
102
RTVSPropertyOp20
 70
     0
102
RTVSPropertyOp21
 70
     0
102
RTVSPropertyOp22
 70
     0
102
RTVSPropertyOp23
 70
     0
102
RTVSPropertyOp24
 70
     0
102
RTVSPropertyOp25
 70
     0
102
RTVSPropertyOp26
 70
     0
102
RTVSPropertyOp27
 70
     0
102
RTVSPropertyOp28
 70
     0
102
RTVSPropertyOp29
 70
     0
102
RTVSPropertyOp30
 70
     0
102
RTVSPropertyOp31
 70
     0
102
RTVSPropertyOp32
 70
     0
102
RTVSPropertyOp33
 70
     1
102
RTVSPropertyOp34
 70
     1
102
RTVSPropertyOp35
 70
     1
102
RTVSPropertyOp36
 70
     1
102
RTVSPropertyOp37
 70
     1
102
RTVSPropertyOp38
 70
     1
102
RTVSPropertyOp39
 70
     1
102
RTVSPropertyOp40
 70
     1
102
RTVSPropertyOp41
 70
     1
102
RTVSPropertyOp42
 70
     1
102
RTVSPropertyOp43
 70
     1
102
RTVSPropertyOp44
 70
     1
102
RTVSPropertyOp45
 70
     1
102
RTVSPropertyOp46
 70
     1
102
RTVSPropertyOp47
 70
     1
102
RTVSPropertyOp48
 70
     1
102
RTVSPropertyOp49
 70
     1
102
RTVSPropertyOp50
 70
     1
102
RTVSPropertyOp51
 70
     0
102
RTVSPropertyOp52
 70
     0
102
RTVSPropertyOp53
 70
     1
102
RTVSPropertyOp54
 70
     1
102
RTVSPropertyOp55
 70
     1
102
RTVSPropertyOp56
 70
     1
102
RTVSPropertyOp57
 70
     1
102
RTVSPost2010Prop28
280
     0
102
RTVSPost2010PropOp28
 70
     0
102
RTVSPost2010Prop29
280
     1
102
RTVSPost2010PropOp29
 70
     0
102
RTVSPost2010Prop30
280
     1
102
RTVSPost2010PropOp30
 70
     0
102
RTVSPost2010Prop31
280
     0
102
RTVSPost2010PropOp31
 70
     0
102
RTVSPost2010Prop32
280
     0
102
RTVSPost2010PropOp32
 70
     0
102
RTVSPost2010Prop33
280
     0
102
RTVSPost2010PropOp33
 70
     1
102
RTVSPost2010Prop34
280
     0
102
RTVSPost2010PropOp34
 70
     1
102
RTVSPost2010Prop35
280
     0
102
RTVSPost2010PropOp35
 70
     1
102
RTVSPost2010Prop36
280
     0
102
RTVSPost2010PropOp36
 70
     1
102
RTVSPost2010Prop37
 90
       50
102
RTVSPost2010PropOp37
 70
     1
102
RTVSPost2010Prop38
140
0.0
102
RTVSPost2010PropOp38
 70
     1
102
RTVSPost2010Prop39
140
1.0
102
RTVSPost2010PropOp39
 70
     1
102
RTVSPost2010Prop40
 90
        0
102
RTVSPost2010PropOp40
 70
     1
102
RTVSPost2010Prop41ColorIndex
 90
       18
102
RTVSPost2010Prop41ColorRGB
 90
        0
102
RTVSPost2010PropOp41
 70
     1
102
RTVSPost2010Prop42
 90
       50
102
RTVSPost2010PropOp42
 70
     1
102
RTVSPost2010Prop43
 90
        3
102
RTVSPost2010PropOp43
 70
     1
102
RTVSPost2010Prop44ColorIndex
 90
        5
102
RTVSPost2010Prop44ColorRGB
 90
      255
102
RTVSPost2010PropOp44
 70
     1
102
RTVSPost2010Prop45
280
     0
102
RTVSPost2010PropOp45
 70
     1
102
RTVSPost2010Prop46
 90
       50
102
RTVSPost2010PropOp46
 70
     1
102
RTVSPost2010Prop47
 90
       50
102
RTVSPost2010PropOp47
 70
     1
102
RTVSPost2010Prop48
 90
       50
102
RTVSPost2010PropOp48
 70
     1
102
RTVSPost2010Prop49
280
     0
102
RTVSPost2010PropOp49
 70
     1
102
RTVSPost2010Prop50
 90
       50
102
RTVSPost2010PropOp50
 70
     1
102
RTVSPost2010Prop51ColorIndex
 90
      256
102
RTVSPost2010Prop51ColorRGB
 90
-16777216
102
RTVSPost2010PropOp51
 70
     0
102
RTVSPost2010Prop52
140
1.0
102
RTVSPost2010PropOp52
 70
     0
102
RTVSPost2010Prop53
 90
        2
102
RTVSPost2010PropOp53
 70
     1
102
RTVSPost2010Prop54
  1
strokes_ogs.tif
102
RTVSPost2010PropOp54
 70
     1
102
RTVSPost2010Prop55
280
     0
102
RTVSPost2010PropOp55
 70
     1
102
RTVSPost2010Prop56
140
1.0
102
RTVSPost2010PropOp56
 70
     1
102
RTVSPost2010Prop57
140
1.0
102
RTVSPost2010PropOp57
 70
     1
  0
XRECORD
  5
DC7
102
{ACAD_REACTORS
330
DC6
102
}
330
DC6
100
AcDbXrecord
280
     1
102
RTVSPropertyOp0
 70
     1
102
RTVSPropertyOp1
 70
     1
102
RTVSPropertyOp2
 70
     1
102
RTVSPropertyOp3
 70
     1
102
RTVSPropertyOp4
 70
     1
102
RTVSPropertyOp5
 70
     1
102
RTVSPropertyOp6
 70
     1
102
RTVSPropertyOp7
 70
     1
102
RTVSPropertyOp8
 70
     1
102
RTVSPropertyOp9
 70
     1
102
RTVSPropertyOp10
 70
     1
102
RTVSPropertyOp11
 70
     1
102
RTVSPropertyOp12
 70
     1
102
RTVSPropertyOp13
 70
     1
102
RTVSPropertyOp14
 70
     1
102
RTVSPropertyOp15
 70
     1
102
RTVSPropertyOp16
 70
     1
102
RTVSPropertyOp17
 70
     1
102
RTVSPropertyOp18
 70
     1
102
RTVSPropertyOp19
 70
     1
102
RTVSPropertyOp20
 70
     1
102
RTVSPropertyOp21
 70
     1
102
RTVSPropertyOp22
 70
     1
102
RTVSPropertyOp23
 70
     1
102
RTVSPropertyOp24
 70
     1
102
RTVSPropertyOp25
 70
     1
102
RTVSPropertyOp26
 70
     1
102
RTVSPropertyOp27
 70
     1
102
RTVSPropertyOp28
 70
     1
102
RTVSPropertyOp29
 70
     1
102
RTVSPropertyOp30
 70
     1
102
RTVSPropertyOp31
 70
     1
102
RTVSPropertyOp32
 70
     1
102
RTVSPropertyOp33
 70
     1
102
RTVSPropertyOp34
 70
     1
102
RTVSPropertyOp35
 70
     1
102
RTVSPropertyOp36
 70
     1
102
RTVSPropertyOp37
 70
     1
102
RTVSPropertyOp38
 70
     1
102
RTVSPropertyOp39
 70
     1
102
RTVSPropertyOp40
 70
     1
102
RTVSPropertyOp41
 70
     1
102
RTVSPropertyOp42
 70
     1
102
RTVSPropertyOp43
 70
     1
102
RTVSPropertyOp44
 70
     1
102
RTVSPropertyOp45
 70
     1
102
RTVSPropertyOp46
 70
     1
102
RTVSPropertyOp47
 70
     1
102
RTVSPropertyOp48
 70
     1
102
RTVSPropertyOp49
 70
     1
102
RTVSPropertyOp50
 70
     1
102
RTVSPropertyOp51
 70
     0
102
RTVSPropertyOp52
 70
     0
102
RTVSPropertyOp53
 70
     1
102
RTVSPropertyOp54
 70
     1
102
RTVSPropertyOp55
 70
     1
102
RTVSPropertyOp56
 70
     1
102
RTVSPropertyOp57
 70
     1
102
RTVSPost2010Prop28
280
     0
102
RTVSPost2010PropOp28
 70
     1
102
RTVSPost2010Prop29
280
     1
102
RTVSPost2010PropOp29
 70
     1
102
RTVSPost2010Prop30
280
     1
102
RTVSPost2010PropOp30
 70
     1
102
RTVSPost2010Prop31
280
     0
102
RTVSPost2010PropOp31
 70
     1
102
RTVSPost2010Prop32
280
     0
102
RTVSPost2010PropOp32
 70
     1
102
RTVSPost2010Prop33
280
     0
102
RTVSPost2010PropOp33
 70
     1
102
RTVSPost2010Prop34
280
     0
102
RTVSPost2010PropOp34
 70
     1
102
RTVSPost2010Prop35
280
     0
102
RTVSPost2010PropOp35
 70
     1
102
RTVSPost2010Prop36
280
     0
102
RTVSPost2010PropOp36
 70
     1
102
RTVSPost2010Prop37
 90
       50
102
RTVSPost2010PropOp37
 70
     1
102
RTVSPost2010Prop38
140
0.0
102
RTVSPost2010PropOp38
 70
     1
102
RTVSPost2010Prop39
140
1.0
102
RTVSPost2010PropOp39
 70
     1
102
RTVSPost2010Prop40
 90
        0
102
RTVSPost2010PropOp40
 70
     1
102
RTVSPost2010Prop41ColorIndex
 90
       18
102
RTVSPost2010Prop41ColorRGB
 90
        0
102
RTVSPost2010PropOp41
 70
     1
102
RTVSPost2010Prop42
 90
       50
102
RTVSPost2010PropOp42
 70
     1
102
RTVSPost2010Prop43
 90
        3
102
RTVSPost2010PropOp43
 70
     1
102
RTVSPost2010Prop44ColorIndex
 90
        5
102
RTVSPost2010Prop44ColorRGB
 90
      255
102
RTVSPost2010PropOp44
 70
     1
102
RTVSPost2010Prop45
280
     0
102
RTVSPost2010PropOp45
 70
     1
102
RTVSPost2010Prop46
 90
       50
102
RTVSPost2010PropOp46
 70
     1
102
RTVSPost2010Prop47
 90
       50
102
RTVSPost2010PropOp47
 70
     1
102
RTVSPost2010Prop48
 90
       50
102
RTVSPost2010PropOp48
 70
     1
102
RTVSPost2010Prop49
280
     0
102
RTVSPost2010PropOp49
 70
     1
102
RTVSPost2010Prop50
 90
       50
102
RTVSPost2010PropOp50
 70
     1
102
RTVSPost2010Prop51ColorIndex
 90
      256
102
RTVSPost2010Prop51ColorRGB
 90
-16777216
102
RTVSPost2010PropOp51
 70
     0
102
RTVSPost2010Prop52
140
1.0
102
RTVSPost2010PropOp52
 70
     0
102
RTVSPost2010Prop53
 90
        2
102
RTVSPost2010PropOp53
 70
     1
102
RTVSPost2010Prop54
  1
strokes_ogs.tif
102
RTVSPost2010PropOp54
 70
     1
102
RTVSPost2010Prop55
280
     0
102
RTVSPost2010PropOp55
 70
     1
102
RTVSPost2010Prop56
140
1.0
102
RTVSPost2010PropOp56
 70
     1
102
RTVSPost2010Prop57
140
1.0
102
RTVSPost2010PropOp57
 70
     1
  0
XRECORD
  5
DC9
102
{ACAD_REACTORS
330
DC8
102
}
330
DC8
100
AcDbXrecord
280
     1
102
RTVSPropertyOp0
 70
     1
102
RTVSPropertyOp1
 70
     1
102
RTVSPropertyOp2
 70
     1
102
RTVSPropertyOp3
 70
     1
102
RTVSPropertyOp4
 70
     1
102
RTVSPropertyOp5
 70
     1
102
RTVSPropertyOp6
 70
     1
102
RTVSPropertyOp7
 70
     1
102
RTVSPropertyOp8
 70
     1
102
RTVSPropertyOp9
 70
     1
102
RTVSPropertyOp10
 70
     1
102
RTVSPropertyOp11
 70
     1
102
RTVSPropertyOp12
 70
     1
102
RTVSPropertyOp13
 70
     1
102
RTVSPropertyOp14
 70
     1
102
RTVSPropertyOp15
 70
     1
102
RTVSPropertyOp16
 70
     1
102
RTVSPropertyOp17
 70
     1
102
RTVSPropertyOp18
 70
     1
102
RTVSPropertyOp19
 70
     1
102
RTVSPropertyOp20
 70
     1
102
RTVSPropertyOp21
 70
     1
102
RTVSPropertyOp22
 70
     1
102
RTVSPropertyOp23
 70
     1
102
RTVSPropertyOp24
 70
     1
102
RTVSPropertyOp25
 70
     1
102
RTVSPropertyOp26
 70
     1
102
RTVSPropertyOp27
 70
     1
102
RTVSPropertyOp28
 70
     1
102
RTVSPropertyOp29
 70
     1
102
RTVSPropertyOp30
 70
     1
102
RTVSPropertyOp31
 70
     1
102
RTVSPropertyOp32
 70
     1
102
RTVSPropertyOp33
 70
     1
102
RTVSPropertyOp34
 70
     1
102
RTVSPropertyOp35
 70
     1
102
RTVSPropertyOp36
 70
     1
102
RTVSPropertyOp37
 70
     1
102
RTVSPropertyOp38
 70
     1
102
RTVSPropertyOp39
 70
     1
102
RTVSPropertyOp40
 70
     1
102
RTVSPropertyOp41
 70
     1
102
RTVSPropertyOp42
 70
     1
102
RTVSPropertyOp43
 70
     1
102
RTVSPropertyOp44
 70
     1
102
RTVSPropertyOp45
 70
     1
102
RTVSPropertyOp46
 70
     1
102
RTVSPropertyOp47
 70
     1
102
RTVSPropertyOp48
 70
     1
102
RTVSPropertyOp49
 70
     1
102
RTVSPropertyOp50
 70
     1
102
RTVSPropertyOp51
 70
     0
102
RTVSPropertyOp52
 70
     0
102
RTVSPropertyOp53
 70
     1
102
RTVSPropertyOp54
 70
     1
102
RTVSPropertyOp55
 70
     1
102
RTVSPropertyOp56
 70
     1
102
RTVSPropertyOp57
 70
     1
102
RTVSPost2010Prop28
280
     0
102
RTVSPost2010PropOp28
 70
     1
102
RTVSPost2010Prop29
280
     1
102
RTVSPost2010PropOp29
 70
     1
102
RTVSPost2010Prop30
280
     1
102
RTVSPost2010PropOp30
 70
     1
102
RTVSPost2010Prop31
280
     0
102
RTVSPost2010PropOp31
 70
     1
102
RTVSPost2010Prop32
280
     0
102
RTVSPost2010PropOp32
 70
     1
102
RTVSPost2010Prop33
280
     0
102
RTVSPost2010PropOp33
 70
     1
102
RTVSPost2010Prop34
280
     0
102
RTVSPost2010PropOp34
 70
     1
102
RTVSPost2010Prop35
280
     0
102
RTVSPost2010PropOp35
 70
     1
102
RTVSPost2010Prop36
280
     0
102
RTVSPost2010PropOp36
 70
     1
102
RTVSPost2010Prop37
 90
       50
102
RTVSPost2010PropOp37
 70
     1
102
RTVSPost2010Prop38
140
0.0
102
RTVSPost2010PropOp38
 70
     1
102
RTVSPost2010Prop39
140
1.0
102
RTVSPost2010PropOp39
 70
     1
102
RTVSPost2010Prop40
 90
        0
102
RTVSPost2010PropOp40
 70
     1
102
RTVSPost2010Prop41ColorIndex
 90
       18
102
RTVSPost2010Prop41ColorRGB
 90
        0
102
RTVSPost2010PropOp41
 70
     1
102
RTVSPost2010Prop42
 90
       50
102
RTVSPost2010PropOp42
 70
     1
102
RTVSPost2010Prop43
 90
        3
102
RTVSPost2010PropOp43
 70
     1
102
RTVSPost2010Prop44ColorIndex
 90
        5
102
RTVSPost2010Prop44ColorRGB
 90
      255
102
RTVSPost2010PropOp44
 70
     1
102
RTVSPost2010Prop45
280
     0
102
RTVSPost2010PropOp45
 70
     1
102
RTVSPost2010Prop46
 90
       50
102
RTVSPost2010PropOp46
 70
     1
102
RTVSPost2010Prop47
 90
       50
102
RTVSPost2010PropOp47
 70
     1
102
RTVSPost2010Prop48
 90
       50
102
RTVSPost2010PropOp48
 70
     1
102
RTVSPost2010Prop49
280
     0
102
RTVSPost2010PropOp49
 70
     1
102
RTVSPost2010Prop50
 90
       50
102
RTVSPost2010PropOp50
 70
     1
102
RTVSPost2010Prop51ColorIndex
 90
      256
102
RTVSPost2010Prop51ColorRGB
 90
-16777216
102
RTVSPost2010PropOp51
 70
     0
102
RTVSPost2010Prop52
140
1.0
102
RTVSPost2010PropOp52
 70
     0
102
RTVSPost2010Prop53
 90
        2
102
RTVSPost2010PropOp53
 70
     1
102
RTVSPost2010Prop54
  1
strokes_ogs.tif
102
RTVSPost2010PropOp54
 70
     1
102
RTVSPost2010Prop55
280
     0
102
RTVSPost2010PropOp55
 70
     1
102
RTVSPost2010Prop56
140
1.0
102
RTVSPost2010PropOp56
 70
     1
102
RTVSPost2010Prop57
140
1.0
102
RTVSPost2010PropOp57
 70
     1
  0
XRECORD
  5
DCB
102
{ACAD_REACTORS
330
DCA
102
}
330
DCA
100
AcDbXrecord
280
     1
102
RTVSPropertyOp0
 70
     1
102
RTVSPropertyOp1
 70
     1
102
RTVSPropertyOp2
 70
     1
102
RTVSPropertyOp3
 70
     1
102
RTVSPropertyOp4
 70
     1
102
RTVSPropertyOp5
 70
     1
102
RTVSPropertyOp6
 70
     1
102
RTVSPropertyOp7
 70
     1
102
RTVSPropertyOp8
 70
     1
102
RTVSPropertyOp9
 70
     1
102
RTVSPropertyOp10
 70
     1
102
RTVSPropertyOp11
 70
     1
102
RTVSPropertyOp12
 70
     1
102
RTVSPropertyOp13
 70
     1
102
RTVSPropertyOp14
 70
     1
102
RTVSPropertyOp15
 70
     1
102
RTVSPropertyOp16
 70
     1
102
RTVSPropertyOp17
 70
     1
102
RTVSPropertyOp18
 70
     1
102
RTVSPropertyOp19
 70
     1
102
RTVSPropertyOp20
 70
     1
102
RTVSPropertyOp21
 70
     1
102
RTVSPropertyOp22
 70
     1
102
RTVSPropertyOp23
 70
     1
102
RTVSPropertyOp24
 70
     1
102
RTVSPropertyOp25
 70
     1
102
RTVSPropertyOp26
 70
     1
102
RTVSPropertyOp27
 70
     1
102
RTVSPropertyOp28
 70
     1
102
RTVSPropertyOp29
 70
     1
102
RTVSPropertyOp30
 70
     1
102
RTVSPropertyOp31
 70
     1
102
RTVSPropertyOp32
 70
     1
102
RTVSPropertyOp33
 70
     1
102
RTVSPropertyOp34
 70
     1
102
RTVSPropertyOp35
 70
     1
102
RTVSPropertyOp36
 70
     1
102
RTVSPropertyOp37
 70
     1
102
RTVSPropertyOp38
 70
     1
102
RTVSPropertyOp39
 70
     1
102
RTVSPropertyOp40
 70
     1
102
RTVSPropertyOp41
 70
     1
102
RTVSPropertyOp42
 70
     1
102
RTVSPropertyOp43
 70
     1
102
RTVSPropertyOp44
 70
     1
102
RTVSPropertyOp45
 70
     1
102
RTVSPropertyOp46
 70
     1
102
RTVSPropertyOp47
 70
     1
102
RTVSPropertyOp48
 70
     1
102
RTVSPropertyOp49
 70
     1
102
RTVSPropertyOp50
 70
     1
102
RTVSPropertyOp51
 70
     0
102
RTVSPropertyOp52
 70
     0
102
RTVSPropertyOp53
 70
     1
102
RTVSPropertyOp54
 70
     1
102
RTVSPropertyOp55
 70
     1
102
RTVSPropertyOp56
 70
     1
102
RTVSPropertyOp57
 70
     1
102
RTVSPost2010Prop28
280
     0
102
RTVSPost2010PropOp28
 70
     1
102
RTVSPost2010Prop29
280
     1
102
RTVSPost2010PropOp29
 70
     1
102
RTVSPost2010Prop30
280
     1
102
RTVSPost2010PropOp30
 70
     1
102
RTVSPost2010Prop31
280
     0
102
RTVSPost2010PropOp31
 70
     1
102
RTVSPost2010Prop32
280
     0
102
RTVSPost2010PropOp32
 70
     1
102
RTVSPost2010Prop33
280
     0
102
RTVSPost2010PropOp33
 70
     1
102
RTVSPost2010Prop34
280
     0
102
RTVSPost2010PropOp34
 70
     1
102
RTVSPost2010Prop35
280
     0
102
RTVSPost2010PropOp35
 70
     1
102
RTVSPost2010Prop36
280
     0
102
RTVSPost2010PropOp36
 70
     1
102
RTVSPost2010Prop37
 90
       50
102
RTVSPost2010PropOp37
 70
     1
102
RTVSPost2010Prop38
140
0.0
102
RTVSPost2010PropOp38
 70
     1
102
RTVSPost2010Prop39
140
1.0
102
RTVSPost2010PropOp39
 70
     1
102
RTVSPost2010Prop40
 90
        0
102
RTVSPost2010PropOp40
 70
     1
102
RTVSPost2010Prop41ColorIndex
 90
       18
102
RTVSPost2010Prop41ColorRGB
 90
        0
102
RTVSPost2010PropOp41
 70
     1
102
RTVSPost2010Prop42
 90
       50
102
RTVSPost2010PropOp42
 70
     1
102
RTVSPost2010Prop43
 90
        3
102
RTVSPost2010PropOp43
 70
     1
102
RTVSPost2010Prop44ColorIndex
 90
        5
102
RTVSPost2010Prop44ColorRGB
 90
      255
102
RTVSPost2010PropOp44
 70
     1
102
RTVSPost2010Prop45
280
     0
102
RTVSPost2010PropOp45
 70
     1
102
RTVSPost2010Prop46
 90
       50
102
RTVSPost2010PropOp46
 70
     1
102
RTVSPost2010Prop47
 90
       50
102
RTVSPost2010PropOp47
 70
     1
102
RTVSPost2010Prop48
 90
       50
102
RTVSPost2010PropOp48
 70
     1
102
RTVSPost2010Prop49
280
     0
102
RTVSPost2010PropOp49
 70
     1
102
RTVSPost2010Prop50
 90
       50
102
RTVSPost2010PropOp50
 70
     1
102
RTVSPost2010Prop51ColorIndex
 90
      256
102
RTVSPost2010Prop51ColorRGB
 90
-16777216
102
RTVSPost2010PropOp51
 70
     0
102
RTVSPost2010Prop52
140
1.0
102
RTVSPost2010PropOp52
 70
     0
102
RTVSPost2010Prop53
 90
        2
102
RTVSPost2010PropOp53
 70
     1
102
RTVSPost2010Prop54
  1
strokes_ogs.tif
102
RTVSPost2010PropOp54
 70
     1
102
RTVSPost2010Prop55
280
     0
102
RTVSPost2010PropOp55
 70
     1
102
RTVSPost2010Prop56
140
1.0
102
RTVSPost2010PropOp56
 70
     1
102
RTVSPost2010Prop57
140
1.0
102
RTVSPost2010PropOp57
 70
     1
  0
XRECORD
  5
DCD
102
{ACAD_REACTORS
330
DCC
102
}
330
DCC
100
AcDbXrecord
280
     1
102
RTVSPropertyOp0
 70
     1
102
RTVSPropertyOp1
 70
     1
102
RTVSPropertyOp2
 70
     1
102
RTVSPropertyOp3
 70
     1
102
RTVSPropertyOp4
 70
     1
102
RTVSPropertyOp5
 70
     1
102
RTVSPropertyOp6
 70
     1
102
RTVSPropertyOp7
 70
     1
102
RTVSPropertyOp8
 70
     1
102
RTVSPropertyOp9
 70
     1
102
RTVSPropertyOp10
 70
     1
102
RTVSPropertyOp11
 70
     1
102
RTVSPropertyOp12
 70
     1
102
RTVSPropertyOp13
 70
     1
102
RTVSPropertyOp14
 70
     1
102
RTVSPropertyOp15
 70
     1
102
RTVSPropertyOp16
 70
     1
102
RTVSPropertyOp17
 70
     1
102
RTVSPropertyOp18
 70
     1
102
RTVSPropertyOp19
 70
     1
102
RTVSPropertyOp20
 70
     1
102
RTVSPropertyOp21
 70
     1
102
RTVSPropertyOp22
 70
     1
102
RTVSPropertyOp23
 70
     1
102
RTVSPropertyOp24
 70
     1
102
RTVSPropertyOp25
 70
     1
102
RTVSPropertyOp26
 70
     1
102
RTVSPropertyOp27
 70
     1
102
RTVSPropertyOp28
 70
     1
102
RTVSPropertyOp29
 70
     1
102
RTVSPropertyOp30
 70
     1
102
RTVSPropertyOp31
 70
     1
102
RTVSPropertyOp32
 70
     1
102
RTVSPropertyOp33
 70
     1
102
RTVSPropertyOp34
 70
     1
102
RTVSPropertyOp35
 70
     1
102
RTVSPropertyOp36
 70
     1
102
RTVSPropertyOp37
 70
     1
102
RTVSPropertyOp38
 70
     1
102
RTVSPropertyOp39
 70
     1
102
RTVSPropertyOp40
 70
     1
102
RTVSPropertyOp41
 70
     1
102
RTVSPropertyOp42
 70
     1
102
RTVSPropertyOp43
 70
     1
102
RTVSPropertyOp44
 70
     1
102
RTVSPropertyOp45
 70
     1
102
RTVSPropertyOp46
 70
     1
102
RTVSPropertyOp47
 70
     1
102
RTVSPropertyOp48
 70
     1
102
RTVSPropertyOp49
 70
     1
102
RTVSPropertyOp50
 70
     1
102
RTVSPropertyOp51
 70
     0
102
RTVSPropertyOp52
 70
     0
102
RTVSPropertyOp53
 70
     1
102
RTVSPropertyOp54
 70
     1
102
RTVSPropertyOp55
 70
     1
102
RTVSPropertyOp56
 70
     1
102
RTVSPropertyOp57
 70
     1
102
RTVSPost2010Prop28
280
     0
102
RTVSPost2010PropOp28
 70
     1
102
RTVSPost2010Prop29
280
     1
102
RTVSPost2010PropOp29
 70
     1
102
RTVSPost2010Prop30
280
     1
102
RTVSPost2010PropOp30
 70
     1
102
RTVSPost2010Prop31
280
     0
102
RTVSPost2010PropOp31
 70
     1
102
RTVSPost2010Prop32
280
     0
102
RTVSPost2010PropOp32
 70
     1
102
RTVSPost2010Prop33
280
     0
102
RTVSPost2010PropOp33
 70
     1
102
RTVSPost2010Prop34
280
     0
102
RTVSPost2010PropOp34
 70
     1
102
RTVSPost2010Prop35
280
     0
102
RTVSPost2010PropOp35
 70
     1
102
RTVSPost2010Prop36
280
     0
102
RTVSPost2010PropOp36
 70
     1
102
RTVSPost2010Prop37
 90
       50
102
RTVSPost2010PropOp37
 70
     1
102
RTVSPost2010Prop38
140
0.0
102
RTVSPost2010PropOp38
 70
     1
102
RTVSPost2010Prop39
140
1.0
102
RTVSPost2010PropOp39
 70
     1
102
RTVSPost2010Prop40
 90
        0
102
RTVSPost2010PropOp40
 70
     1
102
RTVSPost2010Prop41ColorIndex
 90
       18
102
RTVSPost2010Prop41ColorRGB
 90
        0
102
RTVSPost2010PropOp41
 70
     1
102
RTVSPost2010Prop42
 90
       50
102
RTVSPost2010PropOp42
 70
     1
102
RTVSPost2010Prop43
 90
        3
102
RTVSPost2010PropOp43
 70
     1
102
RTVSPost2010Prop44ColorIndex
 90
        5
102
RTVSPost2010Prop44ColorRGB
 90
      255
102
RTVSPost2010PropOp44
 70
     1
102
RTVSPost2010Prop45
280
     0
102
RTVSPost2010PropOp45
 70
     1
102
RTVSPost2010Prop46
 90
       50
102
RTVSPost2010PropOp46
 70
     1
102
RTVSPost2010Prop47
 90
       50
102
RTVSPost2010PropOp47
 70
     1
102
RTVSPost2010Prop48
 90
       50
102
RTVSPost2010PropOp48
 70
     1
102
RTVSPost2010Prop49
280
     0
102
RTVSPost2010PropOp49
 70
     1
102
RTVSPost2010Prop50
 90
       50
102
RTVSPost2010PropOp50
 70
     1
102
RTVSPost2010Prop51ColorIndex
 90
      256
102
RTVSPost2010Prop51ColorRGB
 90
-16777216
102
RTVSPost2010PropOp51
 70
     0
102
RTVSPost2010Prop52
140
1.0
102
RTVSPost2010PropOp52
 70
     0
102
RTVSPost2010Prop53
 90
        2
102
RTVSPost2010PropOp53
 70
     1
102
RTVSPost2010Prop54
  1
strokes_ogs.tif
102
RTVSPost2010PropOp54
 70
     1
102
RTVSPost2010Prop55
280
     0
102
RTVSPost2010PropOp55
 70
     1
102
RTVSPost2010Prop56
140
1.0
102
RTVSPost2010PropOp56
 70
     1
102
RTVSPost2010Prop57
140
1.0
102
RTVSPost2010PropOp57
 70
     1
  0
XRECORD
  5
DCF
102
{ACAD_REACTORS
330
DCE
102
}
330
DCE
100
AcDbXrecord
280
     1
102
RTVSPropertyOp0
 70
     1
102
RTVSPropertyOp1
 70
     1
102
RTVSPropertyOp2
 70
     1
102
RTVSPropertyOp3
 70
     1
102
RTVSPropertyOp4
 70
     1
102
RTVSPropertyOp5
 70
     1
102
RTVSPropertyOp6
 70
     1
102
RTVSPropertyOp7
 70
     1
102
RTVSPropertyOp8
 70
     1
102
RTVSPropertyOp9
 70
     1
102
RTVSPropertyOp10
 70
     1
102
RTVSPropertyOp11
 70
     1
102
RTVSPropertyOp12
 70
     1
102
RTVSPropertyOp13
 70
     1
102
RTVSPropertyOp14
 70
     1
102
RTVSPropertyOp15
 70
     1
102
RTVSPropertyOp16
 70
     1
102
RTVSPropertyOp17
 70
     1
102
RTVSPropertyOp18
 70
     1
102
RTVSPropertyOp19
 70
     1
102
RTVSPropertyOp20
 70
     1
102
RTVSPropertyOp21
 70
     1
102
RTVSPropertyOp22
 70
     1
102
RTVSPropertyOp23
 70
     1
102
RTVSPropertyOp24
 70
     1
102
RTVSPropertyOp25
 70
     1
102
RTVSPropertyOp26
 70
     1
102
RTVSPropertyOp27
 70
     1
102
RTVSPropertyOp28
 70
     1
102
RTVSPropertyOp29
 70
     1
102
RTVSPropertyOp30
 70
     1
102
RTVSPropertyOp31
 70
     1
102
RTVSPropertyOp32
 70
     1
102
RTVSPropertyOp33
 70
     1
102
RTVSPropertyOp34
 70
     1
102
RTVSPropertyOp35
 70
     1
102
RTVSPropertyOp36
 70
     1
102
RTVSPropertyOp37
 70
     1
102
RTVSPropertyOp38
 70
     1
102
RTVSPropertyOp39
 70
     1
102
RTVSPropertyOp40
 70
     1
102
RTVSPropertyOp41
 70
     1
102
RTVSPropertyOp42
 70
     1
102
RTVSPropertyOp43
 70
     1
102
RTVSPropertyOp44
 70
     1
102
RTVSPropertyOp45
 70
     1
102
RTVSPropertyOp46
 70
     1
102
RTVSPropertyOp47
 70
     1
102
RTVSPropertyOp48
 70
     1
102
RTVSPropertyOp49
 70
     1
102
RTVSPropertyOp50
 70
     1
102
RTVSPropertyOp51
 70
     0
102
RTVSPropertyOp52
 70
     0
102
RTVSPropertyOp53
 70
     1
102
RTVSPropertyOp54
 70
     1
102
RTVSPropertyOp55
 70
     1
102
RTVSPropertyOp56
 70
     1
102
RTVSPropertyOp57
 70
     1
102
RTVSPost2010Prop28
280
     0
102
RTVSPost2010PropOp28
 70
     1
102
RTVSPost2010Prop29
280
     1
102
RTVSPost2010PropOp29
 70
     1
102
RTVSPost2010Prop30
280
     1
102
RTVSPost2010PropOp30
 70
     1
102
RTVSPost2010Prop31
280
     0
102
RTVSPost2010PropOp31
 70
     1
102
RTVSPost2010Prop32
280
     0
102
RTVSPost2010PropOp32
 70
     1
102
RTVSPost2010Prop33
280
     0
102
RTVSPost2010PropOp33
 70
     1
102
RTVSPost2010Prop34
280
     0
102
RTVSPost2010PropOp34
 70
     1
102
RTVSPost2010Prop35
280
     0
102
RTVSPost2010PropOp35
 70
     1
102
RTVSPost2010Prop36
280
     0
102
RTVSPost2010PropOp36
 70
     1
102
RTVSPost2010Prop37
 90
       50
102
RTVSPost2010PropOp37
 70
     1
102
RTVSPost2010Prop38
140
0.0
102
RTVSPost2010PropOp38
 70
     1
102
RTVSPost2010Prop39
140
1.0
102
RTVSPost2010PropOp39
 70
     1
102
RTVSPost2010Prop40
 90
        0
102
RTVSPost2010PropOp40
 70
     1
102
RTVSPost2010Prop41ColorIndex
 90
       18
102
RTVSPost2010Prop41ColorRGB
 90
        0
102
RTVSPost2010PropOp41
 70
     1
102
RTVSPost2010Prop42
 90
       50
102
RTVSPost2010PropOp42
 70
     1
102
RTVSPost2010Prop43
 90
        3
102
RTVSPost2010PropOp43
 70
     1
102
RTVSPost2010Prop44ColorIndex
 90
        5
102
RTVSPost2010Prop44ColorRGB
 90
      255
102
RTVSPost2010PropOp44
 70
     1
102
RTVSPost2010Prop45
280
     0
102
RTVSPost2010PropOp45
 70
     1
102
RTVSPost2010Prop46
 90
       50
102
RTVSPost2010PropOp46
 70
     1
102
RTVSPost2010Prop47
 90
       50
102
RTVSPost2010PropOp47
 70
     1
102
RTVSPost2010Prop48
 90
       50
102
RTVSPost2010PropOp48
 70
     1
102
RTVSPost2010Prop49
280
     0
102
RTVSPost2010PropOp49
 70
     1
102
RTVSPost2010Prop50
 90
       50
102
RTVSPost2010PropOp50
 70
     1
102
RTVSPost2010Prop51ColorIndex
 90
      256
102
RTVSPost2010Prop51ColorRGB
 90
-16777216
102
RTVSPost2010PropOp51
 70
     0
102
RTVSPost2010Prop52
140
1.0
102
RTVSPost2010PropOp52
 70
     0
102
RTVSPost2010Prop53
 90
        2
102
RTVSPost2010PropOp53
 70
     1
102
RTVSPost2010Prop54
  1
strokes_ogs.tif
102
RTVSPost2010PropOp54
 70
     1
102
RTVSPost2010Prop55
280
     0
102
RTVSPost2010PropOp55
 70
     1
102
RTVSPost2010Prop56
140
1.0
102
RTVSPost2010PropOp56
 70
     1
102
RTVSPost2010Prop57
140
1.0
102
RTVSPost2010PropOp57
 70
     1
  0
XRECORD
  5
DD1
102
{ACAD_REACTORS
330
DD0
102
}
330
DD0
100
AcDbXrecord
280
     1
102
RTVSPropertyOp0
 70
     1
102
RTVSPropertyOp1
 70
     1
102
RTVSPropertyOp2
 70
     1
102
RTVSPropertyOp3
 70
     1
102
RTVSPropertyOp4
 70
     1
102
RTVSPropertyOp5
 70
     1
102
RTVSPropertyOp6
 70
     1
102
RTVSPropertyOp7
 70
     1
102
RTVSPropertyOp8
 70
     1
102
RTVSPropertyOp9
 70
     1
102
RTVSPropertyOp10
 70
     1
102
RTVSPropertyOp11
 70
     1
102
RTVSPropertyOp12
 70
     1
102
RTVSPropertyOp13
 70
     1
102
RTVSPropertyOp14
 70
     1
102
RTVSPropertyOp15
 70
     1
102
RTVSPropertyOp16
 70
     1
102
RTVSPropertyOp17
 70
     1
102
RTVSPropertyOp18
 70
     1
102
RTVSPropertyOp19
 70
     1
102
RTVSPropertyOp20
 70
     1
102
RTVSPropertyOp21
 70
     1
102
RTVSPropertyOp22
 70
     1
102
RTVSPropertyOp23
 70
     1
102
RTVSPropertyOp24
 70
     1
102
RTVSPropertyOp25
 70
     1
102
RTVSPropertyOp26
 70
     1
102
RTVSPropertyOp27
 70
     1
102
RTVSPropertyOp28
 70
     1
102
RTVSPropertyOp29
 70
     1
102
RTVSPropertyOp30
 70
     1
102
RTVSPropertyOp31
 70
     1
102
RTVSPropertyOp32
 70
     1
102
RTVSPropertyOp33
 70
     1
102
RTVSPropertyOp34
 70
     1
102
RTVSPropertyOp35
 70
     1
102
RTVSPropertyOp36
 70
     1
102
RTVSPropertyOp37
 70
     1
102
RTVSPropertyOp38
 70
     1
102
RTVSPropertyOp39
 70
     1
102
RTVSPropertyOp40
 70
     1
102
RTVSPropertyOp41
 70
     1
102
RTVSPropertyOp42
 70
     1
102
RTVSPropertyOp43
 70
     1
102
RTVSPropertyOp44
 70
     1
102
RTVSPropertyOp45
 70
     1
102
RTVSPropertyOp46
 70
     1
102
RTVSPropertyOp47
 70
     1
102
RTVSPropertyOp48
 70
     1
102
RTVSPropertyOp49
 70
     1
102
RTVSPropertyOp50
 70
     1
102
RTVSPropertyOp51
 70
     0
102
RTVSPropertyOp52
 70
     0
102
RTVSPropertyOp53
 70
     1
102
RTVSPropertyOp54
 70
     1
102
RTVSPropertyOp55
 70
     1
102
RTVSPropertyOp56
 70
     1
102
RTVSPropertyOp57
 70
     1
102
RTVSPost2010Prop28
280
     0
102
RTVSPost2010PropOp28
 70
     1
102
RTVSPost2010Prop29
280
     1
102
RTVSPost2010PropOp29
 70
     1
102
RTVSPost2010Prop30
280
     1
102
RTVSPost2010PropOp30
 70
     1
102
RTVSPost2010Prop31
280
     0
102
RTVSPost2010PropOp31
 70
     1
102
RTVSPost2010Prop32
280
     0
102
RTVSPost2010PropOp32
 70
     1
102
RTVSPost2010Prop33
280
     0
102
RTVSPost2010PropOp33
 70
     1
102
RTVSPost2010Prop34
280
     0
102
RTVSPost2010PropOp34
 70
     1
102
RTVSPost2010Prop35
280
     0
102
RTVSPost2010PropOp35
 70
     1
102
RTVSPost2010Prop36
280
     0
102
RTVSPost2010PropOp36
 70
     1
102
RTVSPost2010Prop37
 90
       50
102
RTVSPost2010PropOp37
 70
     1
102
RTVSPost2010Prop38
140
0.0
102
RTVSPost2010PropOp38
 70
     1
102
RTVSPost2010Prop39
140
1.0
102
RTVSPost2010PropOp39
 70
     1
102
RTVSPost2010Prop40
 90
        0
102
RTVSPost2010PropOp40
 70
     1
102
RTVSPost2010Prop41ColorIndex
 90
       18
102
RTVSPost2010Prop41ColorRGB
 90
        0
102
RTVSPost2010PropOp41
 70
     1
102
RTVSPost2010Prop42
 90
       50
102
RTVSPost2010PropOp42
 70
     1
102
RTVSPost2010Prop43
 90
        3
102
RTVSPost2010PropOp43
 70
     1
102
RTVSPost2010Prop44ColorIndex
 90
        5
102
RTVSPost2010Prop44ColorRGB
 90
      255
102
RTVSPost2010PropOp44
 70
     1
102
RTVSPost2010Prop45
280
     0
102
RTVSPost2010PropOp45
 70
     1
102
RTVSPost2010Prop46
 90
       50
102
RTVSPost2010PropOp46
 70
     1
102
RTVSPost2010Prop47
 90
       50
102
RTVSPost2010PropOp47
 70
     1
102
RTVSPost2010Prop48
 90
       50
102
RTVSPost2010PropOp48
 70
     1
102
RTVSPost2010Prop49
280
     0
102
RTVSPost2010PropOp49
 70
     1
102
RTVSPost2010Prop50
 90
       50
102
RTVSPost2010PropOp50
 70
     1
102
RTVSPost2010Prop51ColorIndex
 90
      256
102
RTVSPost2010Prop51ColorRGB
 90
-16777216
102
RTVSPost2010PropOp51
 70
     0
102
RTVSPost2010Prop52
140
1.0
102
RTVSPost2010PropOp52
 70
     0
102
RTVSPost2010Prop53
 90
        2
102
RTVSPost2010PropOp53
 70
     1
102
RTVSPost2010Prop54
  1
strokes_ogs.tif
102
RTVSPost2010PropOp54
 70
     1
102
RTVSPost2010Prop55
280
     0
102
RTVSPost2010PropOp55
 70
     1
102
RTVSPost2010Prop56
140
1.0
102
RTVSPost2010PropOp56
 70
     1
102
RTVSPost2010Prop57
140
1.0
102
RTVSPost2010PropOp57
 70
     1
  0
XRECORD
  5
DD3
102
{ACAD_REACTORS
330
DD2
102
}
330
DD2
100
AcDbXrecord
280
     1
102
RTVSPropertyOp0
 70
     0
102
RTVSPropertyOp1
 70
     0
102
RTVSPropertyOp2
 70
     0
102
RTVSPropertyOp3
 70
     0
102
RTVSPropertyOp4
 70
     0
102
RTVSPropertyOp5
 70
     0
102
RTVSPropertyOp6
 70
     0
102
RTVSPropertyOp7
 70
     0
102
RTVSPropertyOp8
 70
     0
102
RTVSPropertyOp9
 70
     0
102
RTVSPropertyOp10
 70
     0
102
RTVSPropertyOp11
 70
     0
102
RTVSPropertyOp12
 70
     0
102
RTVSPropertyOp13
 70
     0
102
RTVSPropertyOp14
 70
     2
102
RTVSPropertyOp15
 70
     0
102
RTVSPropertyOp16
 70
     0
102
RTVSPropertyOp17
 70
     0
102
RTVSPropertyOp18
 70
     0
102
RTVSPropertyOp19
 70
     0
102
RTVSPropertyOp20
 70
     0
102
RTVSPropertyOp21
 70
     0
102
RTVSPropertyOp22
 70
     0
102
RTVSPropertyOp23
 70
     0
102
RTVSPropertyOp24
 70
     0
102
RTVSPropertyOp25
 70
     0
102
RTVSPropertyOp26
 70
     0
102
RTVSPropertyOp27
 70
     0
102
RTVSPropertyOp28
 70
     0
102
RTVSPropertyOp29
 70
     0
102
RTVSPropertyOp30
 70
     0
102
RTVSPropertyOp31
 70
     0
102
RTVSPropertyOp32
 70
     0
102
RTVSPropertyOp33
 70
     1
102
RTVSPropertyOp34
 70
     1
102
RTVSPropertyOp35
 70
     1
102
RTVSPropertyOp36
 70
     1
102
RTVSPropertyOp37
 70
     1
102
RTVSPropertyOp38
 70
     1
102
RTVSPropertyOp39
 70
     1
102
RTVSPropertyOp40
 70
     1
102
RTVSPropertyOp41
 70
     1
102
RTVSPropertyOp42
 70
     1
102
RTVSPropertyOp43
 70
     1
102
RTVSPropertyOp44
 70
     1
102
RTVSPropertyOp45
 70
     1
102
RTVSPropertyOp46
 70
     1
102
RTVSPropertyOp47
 70
     1
102
RTVSPropertyOp48
 70
     1
102
RTVSPropertyOp49
 70
     1
102
RTVSPropertyOp50
 70
     1
102
RTVSPropertyOp51
 70
     0
102
RTVSPropertyOp52
 70
     0
102
RTVSPropertyOp53
 70
     1
102
RTVSPropertyOp54
 70
     1
102
RTVSPropertyOp55
 70
     1
102
RTVSPropertyOp56
 70
     1
102
RTVSPropertyOp57
 70
     1
102
RTVSPost2010Prop28
280
     0
102
RTVSPost2010PropOp28
 70
     0
102
RTVSPost2010Prop29
280
     1
102
RTVSPost2010PropOp29
 70
     0
102
RTVSPost2010Prop30
280
     1
102
RTVSPost2010PropOp30
 70
     0
102
RTVSPost2010Prop31
280
     0
102
RTVSPost2010PropOp31
 70
     0
102
RTVSPost2010Prop32
280
     0
102
RTVSPost2010PropOp32
 70
     0
102
RTVSPost2010Prop33
280
     0
102
RTVSPost2010PropOp33
 70
     1
102
RTVSPost2010Prop34
280
     0
102
RTVSPost2010PropOp34
 70
     1
102
RTVSPost2010Prop35
280
     0
102
RTVSPost2010PropOp35
 70
     1
102
RTVSPost2010Prop36
280
     0
102
RTVSPost2010PropOp36
 70
     1
102
RTVSPost2010Prop37
 90
       50
102
RTVSPost2010PropOp37
 70
     1
102
RTVSPost2010Prop38
140
0.0
102
RTVSPost2010PropOp38
 70
     1
102
RTVSPost2010Prop39
140
1.0
102
RTVSPost2010PropOp39
 70
     1
102
RTVSPost2010Prop40
 90
        0
102
RTVSPost2010PropOp40
 70
     1
102
RTVSPost2010Prop41ColorIndex
 90
       18
102
RTVSPost2010Prop41ColorRGB
 90
        0
102
RTVSPost2010PropOp41
 70
     1
102
RTVSPost2010Prop42
 90
       50
102
RTVSPost2010PropOp42
 70
     1
102
RTVSPost2010Prop43
 90
        3
102
RTVSPost2010PropOp43
 70
     1
102
RTVSPost2010Prop44ColorIndex
 90
        5
102
RTVSPost2010Prop44ColorRGB
 90
      255
102
RTVSPost2010PropOp44
 70
     1
102
RTVSPost2010Prop45
280
     0
102
RTVSPost2010PropOp45
 70
     1
102
RTVSPost2010Prop46
 90
       50
102
RTVSPost2010PropOp46
 70
     1
102
RTVSPost2010Prop47
 90
       50
102
RTVSPost2010PropOp47
 70
     1
102
RTVSPost2010Prop48
 90
       50
102
RTVSPost2010PropOp48
 70
     1
102
RTVSPost2010Prop49
280
     0
102
RTVSPost2010PropOp49
 70
     1
102
RTVSPost2010Prop50
 90
       50
102
RTVSPost2010PropOp50
 70
     1
102
RTVSPost2010Prop51ColorIndex
 90
      256
102
RTVSPost2010Prop51ColorRGB
 90
-16777216
102
RTVSPost2010PropOp51
 70
     0
102
RTVSPost2010Prop52
140
1.0
102
RTVSPost2010PropOp52
 70
     0
102
RTVSPost2010Prop53
 90
        2
102
RTVSPost2010PropOp53
 70
     1
102
RTVSPost2010Prop54
  1
strokes_ogs.tif
102
RTVSPost2010PropOp54
 70
     1
102
RTVSPost2010Prop55
280
     0
102
RTVSPost2010PropOp55
 70
     1
102
RTVSPost2010Prop56
140
1.0
102
RTVSPost2010PropOp56
 70
     1
102
RTVSPost2010Prop57
140
1.0
102
RTVSPost2010PropOp57
 70
     1
  0
XRECORD
  5
DD5
102
{ACAD_REACTORS
330
DD4
102
}
330
DD4
100
AcDbXrecord
280
     1
102
RTVSPropertyOp0
 70
     1
102
RTVSPropertyOp1
 70
     1
102
RTVSPropertyOp2
 70
     1
102
RTVSPropertyOp3
 70
     1
102
RTVSPropertyOp4
 70
     1
102
RTVSPropertyOp5
 70
     1
102
RTVSPropertyOp6
 70
     1
102
RTVSPropertyOp7
 70
     1
102
RTVSPropertyOp8
 70
     1
102
RTVSPropertyOp9
 70
     1
102
RTVSPropertyOp10
 70
     1
102
RTVSPropertyOp11
 70
     1
102
RTVSPropertyOp12
 70
     1
102
RTVSPropertyOp13
 70
     1
102
RTVSPropertyOp14
 70
     1
102
RTVSPropertyOp15
 70
     1
102
RTVSPropertyOp16
 70
     1
102
RTVSPropertyOp17
 70
     1
102
RTVSPropertyOp18
 70
     1
102
RTVSPropertyOp19
 70
     1
102
RTVSPropertyOp20
 70
     1
102
RTVSPropertyOp21
 70
     1
102
RTVSPropertyOp22
 70
     1
102
RTVSPropertyOp23
 70
     1
102
RTVSPropertyOp24
 70
     1
102
RTVSPropertyOp25
 70
     1
102
RTVSPropertyOp26
 70
     1
102
RTVSPropertyOp27
 70
     1
102
RTVSPropertyOp28
 70
     1
102
RTVSPropertyOp29
 70
     1
102
RTVSPropertyOp30
 70
     1
102
RTVSPropertyOp31
 70
     1
102
RTVSPropertyOp32
 70
     1
102
RTVSPropertyOp33
 70
     1
102
RTVSPropertyOp34
 70
     1
102
RTVSPropertyOp35
 70
     1
102
RTVSPropertyOp36
 70
     1
102
RTVSPropertyOp37
 70
     1
102
RTVSPropertyOp38
 70
     1
102
RTVSPropertyOp39
 70
     1
102
RTVSPropertyOp40
 70
     1
102
RTVSPropertyOp41
 70
     1
102
RTVSPropertyOp42
 70
     1
102
RTVSPropertyOp43
 70
     1
102
RTVSPropertyOp44
 70
     1
102
RTVSPropertyOp45
 70
     1
102
RTVSPropertyOp46
 70
     1
102
RTVSPropertyOp47
 70
     1
102
RTVSPropertyOp48
 70
     1
102
RTVSPropertyOp49
 70
     1
102
RTVSPropertyOp50
 70
     1
102
RTVSPropertyOp51
 70
     0
102
RTVSPropertyOp52
 70
     0
102
RTVSPropertyOp53
 70
     1
102
RTVSPropertyOp54
 70
     1
102
RTVSPropertyOp55
 70
     1
102
RTVSPropertyOp56
 70
     1
102
RTVSPropertyOp57
 70
     1
102
RTVSPost2010Prop28
280
     0
102
RTVSPost2010PropOp28
 70
     1
102
RTVSPost2010Prop29
280
     1
102
RTVSPost2010PropOp29
 70
     1
102
RTVSPost2010Prop30
280
     1
102
RTVSPost2010PropOp30
 70
     1
102
RTVSPost2010Prop31
280
     0
102
RTVSPost2010PropOp31
 70
     1
102
RTVSPost2010Prop32
280
     0
102
RTVSPost2010PropOp32
 70
     1
102
RTVSPost2010Prop33
280
     0
102
RTVSPost2010PropOp33
 70
     1
102
RTVSPost2010Prop34
280
     0
102
RTVSPost2010PropOp34
 70
     1
102
RTVSPost2010Prop35
280
     0
102
RTVSPost2010PropOp35
 70
     1
102
RTVSPost2010Prop36
280
     0
102
RTVSPost2010PropOp36
 70
     1
102
RTVSPost2010Prop37
 90
       50
102
RTVSPost2010PropOp37
 70
     1
102
RTVSPost2010Prop38
140
0.0
102
RTVSPost2010PropOp38
 70
     1
102
RTVSPost2010Prop39
140
1.0
102
RTVSPost2010PropOp39
 70
     1
102
RTVSPost2010Prop40
 90
        0
102
RTVSPost2010PropOp40
 70
     1
102
RTVSPost2010Prop41ColorIndex
 90
       18
102
RTVSPost2010Prop41ColorRGB
 90
        0
102
RTVSPost2010PropOp41
 70
     1
102
RTVSPost2010Prop42
 90
       50
102
RTVSPost2010PropOp42
 70
     1
102
RTVSPost2010Prop43
 90
        3
102
RTVSPost2010PropOp43
 70
     1
102
RTVSPost2010Prop44ColorIndex
 90
        5
102
RTVSPost2010Prop44ColorRGB
 90
      255
102
RTVSPost2010PropOp44
 70
     1
102
RTVSPost2010Prop45
280
     0
102
RTVSPost2010PropOp45
 70
     1
102
RTVSPost2010Prop46
 90
       50
102
RTVSPost2010PropOp46
 70
     1
102
RTVSPost2010Prop47
 90
       50
102
RTVSPost2010PropOp47
 70
     1
102
RTVSPost2010Prop48
 90
       50
102
RTVSPost2010PropOp48
 70
     1
102
RTVSPost2010Prop49
280
     0
102
RTVSPost2010PropOp49
 70
     1
102
RTVSPost2010Prop50
 90
       50
102
RTVSPost2010PropOp50
 70
     1
102
RTVSPost2010Prop51ColorIndex
 90
      256
102
RTVSPost2010Prop51ColorRGB
 90
-16777216
102
RTVSPost2010PropOp51
 70
     0
102
RTVSPost2010Prop52
140
1.0
102
RTVSPost2010PropOp52
 70
     0
102
RTVSPost2010Prop53
 90
        2
102
RTVSPost2010PropOp53
 70
     1
102
RTVSPost2010Prop54
  1
strokes_ogs.tif
102
RTVSPost2010PropOp54
 70
     1
102
RTVSPost2010Prop55
280
     0
102
RTVSPost2010PropOp55
 70
     1
102
RTVSPost2010Prop56
140
1.0
102
RTVSPost2010PropOp56
 70
     1
102
RTVSPost2010Prop57
140
1.0
102
RTVSPost2010PropOp57
 70
     1
  0
XRECORD
  5
DD7
102
{ACAD_REACTORS
330
DD6
102
}
330
DD6
100
AcDbXrecord
280
     1
102
RTVSPropertyOp0
 70
     0
102
RTVSPropertyOp1
 70
     0
102
RTVSPropertyOp2
 70
     0
102
RTVSPropertyOp3
 70
     0
102
RTVSPropertyOp4
 70
     0
102
RTVSPropertyOp5
 70
     0
102
RTVSPropertyOp6
 70
     0
102
RTVSPropertyOp7
 70
     0
102
RTVSPropertyOp8
 70
     0
102
RTVSPropertyOp9
 70
     0
102
RTVSPropertyOp10
 70
     0
102
RTVSPropertyOp11
 70
     0
102
RTVSPropertyOp12
 70
     0
102
RTVSPropertyOp13
 70
     0
102
RTVSPropertyOp14
 70
     2
102
RTVSPropertyOp15
 70
     0
102
RTVSPropertyOp16
 70
     0
102
RTVSPropertyOp17
 70
     0
102
RTVSPropertyOp18
 70
     0
102
RTVSPropertyOp19
 70
     0
102
RTVSPropertyOp20
 70
     0
102
RTVSPropertyOp21
 70
     0
102
RTVSPropertyOp22
 70
     0
102
RTVSPropertyOp23
 70
     0
102
RTVSPropertyOp24
 70
     0
102
RTVSPropertyOp25
 70
     0
102
RTVSPropertyOp26
 70
     0
102
RTVSPropertyOp27
 70
     0
102
RTVSPropertyOp28
 70
     0
102
RTVSPropertyOp29
 70
     0
102
RTVSPropertyOp30
 70
     0
102
RTVSPropertyOp31
 70
     0
102
RTVSPropertyOp32
 70
     0
102
RTVSPropertyOp33
 70
     1
102
RTVSPropertyOp34
 70
     1
102
RTVSPropertyOp35
 70
     1
102
RTVSPropertyOp36
 70
     1
102
RTVSPropertyOp37
 70
     1
102
RTVSPropertyOp38
 70
     1
102
RTVSPropertyOp39
 70
     1
102
RTVSPropertyOp40
 70
     1
102
RTVSPropertyOp41
 70
     1
102
RTVSPropertyOp42
 70
     1
102
RTVSPropertyOp43
 70
     1
102
RTVSPropertyOp44
 70
     1
102
RTVSPropertyOp45
 70
     1
102
RTVSPropertyOp46
 70
     1
102
RTVSPropertyOp47
 70
     1
102
RTVSPropertyOp48
 70
     1
102
RTVSPropertyOp49
 70
     1
102
RTVSPropertyOp50
 70
     1
102
RTVSPropertyOp51
 70
     0
102
RTVSPropertyOp52
 70
     0
102
RTVSPropertyOp53
 70
     1
102
RTVSPropertyOp54
 70
     1
102
RTVSPropertyOp55
 70
     1
102
RTVSPropertyOp56
 70
     1
102
RTVSPropertyOp57
 70
     1
102
RTVSPost2010Prop28
280
     0
102
RTVSPost2010PropOp28
 70
     0
102
RTVSPost2010Prop29
280
     1
102
RTVSPost2010PropOp29
 70
     0
102
RTVSPost2010Prop30
280
     1
102
RTVSPost2010PropOp30
 70
     0
102
RTVSPost2010Prop31
280
     0
102
RTVSPost2010PropOp31
 70
     0
102
RTVSPost2010Prop32
280
     0
102
RTVSPost2010PropOp32
 70
     0
102
RTVSPost2010Prop33
280
     0
102
RTVSPost2010PropOp33
 70
     1
102
RTVSPost2010Prop34
280
     0
102
RTVSPost2010PropOp34
 70
     1
102
RTVSPost2010Prop35
280
     0
102
RTVSPost2010PropOp35
 70
     1
102
RTVSPost2010Prop36
280
     0
102
RTVSPost2010PropOp36
 70
     1
102
RTVSPost2010Prop37
 90
       50
102
RTVSPost2010PropOp37
 70
     1
102
RTVSPost2010Prop38
140
0.0
102
RTVSPost2010PropOp38
 70
     1
102
RTVSPost2010Prop39
140
1.0
102
RTVSPost2010PropOp39
 70
     1
102
RTVSPost2010Prop40
 90
        0
102
RTVSPost2010PropOp40
 70
     1
102
RTVSPost2010Prop41ColorIndex
 90
       18
102
RTVSPost2010Prop41ColorRGB
 90
        0
102
RTVSPost2010PropOp41
 70
     1
102
RTVSPost2010Prop42
 90
       50
102
RTVSPost2010PropOp42
 70
     1
102
RTVSPost2010Prop43
 90
        3
102
RTVSPost2010PropOp43
 70
     1
102
RTVSPost2010Prop44ColorIndex
 90
        5
102
RTVSPost2010Prop44ColorRGB
 90
      255
102
RTVSPost2010PropOp44
 70
     1
102
RTVSPost2010Prop45
280
     0
102
RTVSPost2010PropOp45
 70
     1
102
RTVSPost2010Prop46
 90
       50
102
RTVSPost2010PropOp46
 70
     1
102
RTVSPost2010Prop47
 90
       50
102
RTVSPost2010PropOp47
 70
     1
102
RTVSPost2010Prop48
 90
       50
102
RTVSPost2010PropOp48
 70
     1
102
RTVSPost2010Prop49
280
     0
102
RTVSPost2010PropOp49
 70
     1
102
RTVSPost2010Prop50
 90
       50
102
RTVSPost2010PropOp50
 70
     1
102
RTVSPost2010Prop51ColorIndex
 90
      256
102
RTVSPost2010Prop51ColorRGB
 90
-16777216
102
RTVSPost2010PropOp51
 70
     0
102
RTVSPost2010Prop52
140
1.0
102
RTVSPost2010PropOp52
 70
     0
102
RTVSPost2010Prop53
 90
        2
102
RTVSPost2010PropOp53
 70
     1
102
RTVSPost2010Prop54
  1
strokes_ogs.tif
102
RTVSPost2010PropOp54
 70
     1
102
RTVSPost2010Prop55
280
     0
102
RTVSPost2010PropOp55
 70
     1
102
RTVSPost2010Prop56
140
1.0
102
RTVSPost2010PropOp56
 70
     1
102
RTVSPost2010Prop57
140
1.0
102
RTVSPost2010PropOp57
 70
     1
  0
XRECORD
  5
DD9
102
{ACAD_REACTORS
330
DD8
102
}
330
DD8
100
AcDbXrecord
280
     1
102
RTVSPropertyOp0
 70
     1
102
RTVSPropertyOp1
 70
     1
102
RTVSPropertyOp2
 70
     1
102
RTVSPropertyOp3
 70
     1
102
RTVSPropertyOp4
 70
     1
102
RTVSPropertyOp5
 70
     1
102
RTVSPropertyOp6
 70
     1
102
RTVSPropertyOp7
 70
     1
102
RTVSPropertyOp8
 70
     1
102
RTVSPropertyOp9
 70
     1
102
RTVSPropertyOp10
 70
     1
102
RTVSPropertyOp11
 70
     1
102
RTVSPropertyOp12
 70
     1
102
RTVSPropertyOp13
 70
     1
102
RTVSPropertyOp14
 70
     1
102
RTVSPropertyOp15
 70
     1
102
RTVSPropertyOp16
 70
     1
102
RTVSPropertyOp17
 70
     1
102
RTVSPropertyOp18
 70
     1
102
RTVSPropertyOp19
 70
     1
102
RTVSPropertyOp20
 70
     1
102
RTVSPropertyOp21
 70
     1
102
RTVSPropertyOp22
 70
     1
102
RTVSPropertyOp23
 70
     1
102
RTVSPropertyOp24
 70
     1
102
RTVSPropertyOp25
 70
     1
102
RTVSPropertyOp26
 70
     1
102
RTVSPropertyOp27
 70
     1
102
RTVSPropertyOp28
 70
     1
102
RTVSPropertyOp29
 70
     1
102
RTVSPropertyOp30
 70
     1
102
RTVSPropertyOp31
 70
     1
102
RTVSPropertyOp32
 70
     1
102
RTVSPropertyOp33
 70
     1
102
RTVSPropertyOp34
 70
     1
102
RTVSPropertyOp35
 70
     1
102
RTVSPropertyOp36
 70
     1
102
RTVSPropertyOp37
 70
     1
102
RTVSPropertyOp38
 70
     1
102
RTVSPropertyOp39
 70
     1
102
RTVSPropertyOp40
 70
     1
102
RTVSPropertyOp41
 70
     1
102
RTVSPropertyOp42
 70
     1
102
RTVSPropertyOp43
 70
     1
102
RTVSPropertyOp44
 70
     1
102
RTVSPropertyOp45
 70
     1
102
RTVSPropertyOp46
 70
     1
102
RTVSPropertyOp47
 70
     1
102
RTVSPropertyOp48
 70
     1
102
RTVSPropertyOp49
 70
     1
102
RTVSPropertyOp50
 70
     1
102
RTVSPropertyOp51
 70
     0
102
RTVSPropertyOp52
 70
     0
102
RTVSPropertyOp53
 70
     1
102
RTVSPropertyOp54
 70
     1
102
RTVSPropertyOp55
 70
     1
102
RTVSPropertyOp56
 70
     1
102
RTVSPropertyOp57
 70
     1
102
RTVSPost2010Prop28
280
     0
102
RTVSPost2010PropOp28
 70
     1
102
RTVSPost2010Prop29
280
     1
102
RTVSPost2010PropOp29
 70
     1
102
RTVSPost2010Prop30
280
     1
102
RTVSPost2010PropOp30
 70
     1
102
RTVSPost2010Prop31
280
     0
102
RTVSPost2010PropOp31
 70
     1
102
RTVSPost2010Prop32
280
     0
102
RTVSPost2010PropOp32
 70
     1
102
RTVSPost2010Prop33
280
     0
102
RTVSPost2010PropOp33
 70
     1
102
RTVSPost2010Prop34
280
     0
102
RTVSPost2010PropOp34
 70
     1
102
RTVSPost2010Prop35
280
     0
102
RTVSPost2010PropOp35
 70
     1
102
RTVSPost2010Prop36
280
     0
102
RTVSPost2010PropOp36
 70
     1
102
RTVSPost2010Prop37
 90
       50
102
RTVSPost2010PropOp37
 70
     1
102
RTVSPost2010Prop38
140
0.0
102
RTVSPost2010PropOp38
 70
     1
102
RTVSPost2010Prop39
140
1.0
102
RTVSPost2010PropOp39
 70
     1
102
RTVSPost2010Prop40
 90
        0
102
RTVSPost2010PropOp40
 70
     1
102
RTVSPost2010Prop41ColorIndex
 90
       18
102
RTVSPost2010Prop41ColorRGB
 90
        0
102
RTVSPost2010PropOp41
 70
     1
102
RTVSPost2010Prop42
 90
       50
102
RTVSPost2010PropOp42
 70
     1
102
RTVSPost2010Prop43
 90
        3
102
RTVSPost2010PropOp43
 70
     1
102
RTVSPost2010Prop44ColorIndex
 90
        5
102
RTVSPost2010Prop44ColorRGB
 90
      255
102
RTVSPost2010PropOp44
 70
     1
102
RTVSPost2010Prop45
280
     0
102
RTVSPost2010PropOp45
 70
     1
102
RTVSPost2010Prop46
 90
       50
102
RTVSPost2010PropOp46
 70
     1
102
RTVSPost2010Prop47
 90
       50
102
RTVSPost2010PropOp47
 70
     1
102
RTVSPost2010Prop48
 90
       50
102
RTVSPost2010PropOp48
 70
     1
102
RTVSPost2010Prop49
280
     0
102
RTVSPost2010PropOp49
 70
     1
102
RTVSPost2010Prop50
 90
       50
102
RTVSPost2010PropOp50
 70
     1
102
RTVSPost2010Prop51ColorIndex
 90
      256
102
RTVSPost2010Prop51ColorRGB
 90
-16777216
102
RTVSPost2010PropOp51
 70
     0
102
RTVSPost2010Prop52
140
1.0
102
RTVSPost2010PropOp52
 70
     0
102
RTVSPost2010Prop53
 90
        2
102
RTVSPost2010PropOp53
 70
     1
102
RTVSPost2010Prop54
  1
strokes_ogs.tif
102
RTVSPost2010PropOp54
 70
     1
102
RTVSPost2010Prop55
280
     0
102
RTVSPost2010PropOp55
 70
     1
102
RTVSPost2010Prop56
140
1.0
102
RTVSPost2010PropOp56
 70
     1
102
RTVSPost2010Prop57
140
1.0
102
RTVSPost2010PropOp57
 70
     1
  0
XRECORD
  5
DDB
102
{ACAD_REACTORS
330
DDA
102
}
330
DDA
100
AcDbXrecord
280
     1
102
RTVSPropertyOp0
 70
     1
102
RTVSPropertyOp1
 70
     1
102
RTVSPropertyOp2
 70
     1
102
RTVSPropertyOp3
 70
     1
102
RTVSPropertyOp4
 70
     1
102
RTVSPropertyOp5
 70
     1
102
RTVSPropertyOp6
 70
     1
102
RTVSPropertyOp7
 70
     1
102
RTVSPropertyOp8
 70
     1
102
RTVSPropertyOp9
 70
     1
102
RTVSPropertyOp10
 70
     1
102
RTVSPropertyOp11
 70
     1
102
RTVSPropertyOp12
 70
     1
102
RTVSPropertyOp13
 70
     1
102
RTVSPropertyOp14
 70
     1
102
RTVSPropertyOp15
 70
     1
102
RTVSPropertyOp16
 70
     1
102
RTVSPropertyOp17
 70
     1
102
RTVSPropertyOp18
 70
     1
102
RTVSPropertyOp19
 70
     1
102
RTVSPropertyOp20
 70
     1
102
RTVSPropertyOp21
 70
     1
102
RTVSPropertyOp22
 70
     1
102
RTVSPropertyOp23
 70
     1
102
RTVSPropertyOp24
 70
     1
102
RTVSPropertyOp25
 70
     1
102
RTVSPropertyOp26
 70
     1
102
RTVSPropertyOp27
 70
     1
102
RTVSPropertyOp28
 70
     1
102
RTVSPropertyOp29
 70
     1
102
RTVSPropertyOp30
 70
     1
102
RTVSPropertyOp31
 70
     1
102
RTVSPropertyOp32
 70
     1
102
RTVSPropertyOp33
 70
     1
102
RTVSPropertyOp34
 70
     1
102
RTVSPropertyOp35
 70
     1
102
RTVSPropertyOp36
 70
     1
102
RTVSPropertyOp37
 70
     1
102
RTVSPropertyOp38
 70
     1
102
RTVSPropertyOp39
 70
     1
102
RTVSPropertyOp40
 70
     1
102
RTVSPropertyOp41
 70
     1
102
RTVSPropertyOp42
 70
     1
102
RTVSPropertyOp43
 70
     1
102
RTVSPropertyOp44
 70
     1
102
RTVSPropertyOp45
 70
     1
102
RTVSPropertyOp46
 70
     1
102
RTVSPropertyOp47
 70
     1
102
RTVSPropertyOp48
 70
     1
102
RTVSPropertyOp49
 70
     1
102
RTVSPropertyOp50
 70
     1
102
RTVSPropertyOp51
 70
     0
102
RTVSPropertyOp52
 70
     0
102
RTVSPropertyOp53
 70
     1
102
RTVSPropertyOp54
 70
     1
102
RTVSPropertyOp55
 70
     1
102
RTVSPropertyOp56
 70
     1
102
RTVSPropertyOp57
 70
     1
102
RTVSPost2010Prop28
280
     0
102
RTVSPost2010PropOp28
 70
     1
102
RTVSPost2010Prop29
280
     1
102
RTVSPost2010PropOp29
 70
     1
102
RTVSPost2010Prop30
280
     1
102
RTVSPost2010PropOp30
 70
     1
102
RTVSPost2010Prop31
280
     0
102
RTVSPost2010PropOp31
 70
     1
102
RTVSPost2010Prop32
280
     0
102
RTVSPost2010PropOp32
 70
     1
102
RTVSPost2010Prop33
280
     0
102
RTVSPost2010PropOp33
 70
     1
102
RTVSPost2010Prop34
280
     0
102
RTVSPost2010PropOp34
 70
     1
102
RTVSPost2010Prop35
280
     0
102
RTVSPost2010PropOp35
 70
     1
102
RTVSPost2010Prop36
280
     0
102
RTVSPost2010PropOp36
 70
     1
102
RTVSPost2010Prop37
 90
       50
102
RTVSPost2010PropOp37
 70
     1
102
RTVSPost2010Prop38
140
0.0
102
RTVSPost2010PropOp38
 70
     1
102
RTVSPost2010Prop39
140
1.0
102
RTVSPost2010PropOp39
 70
     1
102
RTVSPost2010Prop40
 90
        0
102
RTVSPost2010PropOp40
 70
     1
102
RTVSPost2010Prop41ColorIndex
 90
       18
102
RTVSPost2010Prop41ColorRGB
 90
        0
102
RTVSPost2010PropOp41
 70
     1
102
RTVSPost2010Prop42
 90
       50
102
RTVSPost2010PropOp42
 70
     1
102
RTVSPost2010Prop43
 90
        3
102
RTVSPost2010PropOp43
 70
     1
102
RTVSPost2010Prop44ColorIndex
 90
        5
102
RTVSPost2010Prop44ColorRGB
 90
      255
102
RTVSPost2010PropOp44
 70
     1
102
RTVSPost2010Prop45
280
     0
102
RTVSPost2010PropOp45
 70
     1
102
RTVSPost2010Prop46
 90
       50
102
RTVSPost2010PropOp46
 70
     1
102
RTVSPost2010Prop47
 90
       50
102
RTVSPost2010PropOp47
 70
     1
102
RTVSPost2010Prop48
 90
       50
102
RTVSPost2010PropOp48
 70
     1
102
RTVSPost2010Prop49
280
     0
102
RTVSPost2010PropOp49
 70
     1
102
RTVSPost2010Prop50
 90
       50
102
RTVSPost2010PropOp50
 70
     1
102
RTVSPost2010Prop51ColorIndex
 90
      256
102
RTVSPost2010Prop51ColorRGB
 90
-16777216
102
RTVSPost2010PropOp51
 70
     0
102
RTVSPost2010Prop52
140
1.0
102
RTVSPost2010PropOp52
 70
     0
102
RTVSPost2010Prop53
 90
        2
102
RTVSPost2010PropOp53
 70
     1
102
RTVSPost2010Prop54
  1
strokes_ogs.tif
102
RTVSPost2010PropOp54
 70
     1
102
RTVSPost2010Prop55
280
     0
102
RTVSPost2010PropOp55
 70
     1
102
RTVSPost2010Prop56
140
1.0
102
RTVSPost2010PropOp56
 70
     1
102
RTVSPost2010Prop57
140
1.0
102
RTVSPost2010PropOp57
 70
     1
  0
XRECORD
  5
DDD
102
{ACAD_REACTORS
330
DDC
102
}
330
DDC
100
AcDbXrecord
280
     1
102
RTVSPropertyOp0
 70
     1
102
RTVSPropertyOp1
 70
     1
102
RTVSPropertyOp2
 70
     1
102
RTVSPropertyOp3
 70
     1
102
RTVSPropertyOp4
 70
     1
102
RTVSPropertyOp5
 70
     1
102
RTVSPropertyOp6
 70
     1
102
RTVSPropertyOp7
 70
     1
102
RTVSPropertyOp8
 70
     1
102
RTVSPropertyOp9
 70
     1
102
RTVSPropertyOp10
 70
     1
102
RTVSPropertyOp11
 70
     1
102
RTVSPropertyOp12
 70
     1
102
RTVSPropertyOp13
 70
     1
102
RTVSPropertyOp14
 70
     1
102
RTVSPropertyOp15
 70
     1
102
RTVSPropertyOp16
 70
     1
102
RTVSPropertyOp17
 70
     1
102
RTVSPropertyOp18
 70
     1
102
RTVSPropertyOp19
 70
     1
102
RTVSPropertyOp20
 70
     1
102
RTVSPropertyOp21
 70
     1
102
RTVSPropertyOp22
 70
     1
102
RTVSPropertyOp23
 70
     1
102
RTVSPropertyOp24
 70
     1
102
RTVSPropertyOp25
 70
     1
102
RTVSPropertyOp26
 70
     1
102
RTVSPropertyOp27
 70
     1
102
RTVSPropertyOp28
 70
     1
102
RTVSPropertyOp29
 70
     1
102
RTVSPropertyOp30
 70
     1
102
RTVSPropertyOp31
 70
     1
102
RTVSPropertyOp32
 70
     1
102
RTVSPropertyOp33
 70
     1
102
RTVSPropertyOp34
 70
     1
102
RTVSPropertyOp35
 70
     1
102
RTVSPropertyOp36
 70
     1
102
RTVSPropertyOp37
 70
     1
102
RTVSPropertyOp38
 70
     1
102
RTVSPropertyOp39
 70
     1
102
RTVSPropertyOp40
 70
     1
102
RTVSPropertyOp41
 70
     1
102
RTVSPropertyOp42
 70
     1
102
RTVSPropertyOp43
 70
     1
102
RTVSPropertyOp44
 70
     1
102
RTVSPropertyOp45
 70
     1
102
RTVSPropertyOp46
 70
     1
102
RTVSPropertyOp47
 70
     1
102
RTVSPropertyOp48
 70
     1
102
RTVSPropertyOp49
 70
     1
102
RTVSPropertyOp50
 70
     1
102
RTVSPropertyOp51
 70
     0
102
RTVSPropertyOp52
 70
     0
102
RTVSPropertyOp53
 70
     1
102
RTVSPropertyOp54
 70
     1
102
RTVSPropertyOp55
 70
     1
102
RTVSPropertyOp56
 70
     1
102
RTVSPropertyOp57
 70
     1
102
RTVSPost2010Prop28
280
     0
102
RTVSPost2010PropOp28
 70
     1
102
RTVSPost2010Prop29
280
     1
102
RTVSPost2010PropOp29
 70
     1
102
RTVSPost2010Prop30
280
     1
102
RTVSPost2010PropOp30
 70
     1
102
RTVSPost2010Prop31
280
     0
102
RTVSPost2010PropOp31
 70
     1
102
RTVSPost2010Prop32
280
     0
102
RTVSPost2010PropOp32
 70
     1
102
RTVSPost2010Prop33
280
     0
102
RTVSPost2010PropOp33
 70
     1
102
RTVSPost2010Prop34
280
     0
102
RTVSPost2010PropOp34
 70
     1
102
RTVSPost2010Prop35
280
     0
102
RTVSPost2010PropOp35
 70
     1
102
RTVSPost2010Prop36
280
     0
102
RTVSPost2010PropOp36
 70
     1
102
RTVSPost2010Prop37
 90
       50
102
RTVSPost2010PropOp37
 70
     1
102
RTVSPost2010Prop38
140
0.0
102
RTVSPost2010PropOp38
 70
     1
102
RTVSPost2010Prop39
140
1.0
102
RTVSPost2010PropOp39
 70
     1
102
RTVSPost2010Prop40
 90
        0
102
RTVSPost2010PropOp40
 70
     1
102
RTVSPost2010Prop41ColorIndex
 90
       18
102
RTVSPost2010Prop41ColorRGB
 90
        0
102
RTVSPost2010PropOp41
 70
     1
102
RTVSPost2010Prop42
 90
       50
102
RTVSPost2010PropOp42
 70
     1
102
RTVSPost2010Prop43
 90
        3
102
RTVSPost2010PropOp43
 70
     1
102
RTVSPost2010Prop44ColorIndex
 90
        5
102
RTVSPost2010Prop44ColorRGB
 90
      255
102
RTVSPost2010PropOp44
 70
     1
102
RTVSPost2010Prop45
280
     0
102
RTVSPost2010PropOp45
 70
     1
102
RTVSPost2010Prop46
 90
       50
102
RTVSPost2010PropOp46
 70
     1
102
RTVSPost2010Prop47
 90
       50
102
RTVSPost2010PropOp47
 70
     1
102
RTVSPost2010Prop48
 90
       50
102
RTVSPost2010PropOp48
 70
     1
102
RTVSPost2010Prop49
280
     0
102
RTVSPost2010PropOp49
 70
     1
102
RTVSPost2010Prop50
 90
       50
102
RTVSPost2010PropOp50
 70
     1
102
RTVSPost2010Prop51ColorIndex
 90
      256
102
RTVSPost2010Prop51ColorRGB
 90
-16777216
102
RTVSPost2010PropOp51
 70
     0
102
RTVSPost2010Prop52
140
1.0
102
RTVSPost2010PropOp52
 70
     0
102
RTVSPost2010Prop53
 90
        2
102
RTVSPost2010PropOp53
 70
     1
102
RTVSPost2010Prop54
  1
strokes_ogs.tif
102
RTVSPost2010PropOp54
 70
     1
102
RTVSPost2010Prop55
280
     0
102
RTVSPost2010PropOp55
 70
     1
102
RTVSPost2010Prop56
140
1.0
102
RTVSPost2010PropOp56
 70
     1
102
RTVSPost2010Prop57
140
1.0
102
RTVSPost2010PropOp57
 70
     1
  0
XRECORD
  5
DDF
102
{ACAD_REACTORS
330
DDE
102
}
330
DDE
100
AcDbXrecord
280
     1
102
RTVSPropertyOp0
 70
     1
102
RTVSPropertyOp1
 70
     1
102
RTVSPropertyOp2
 70
     1
102
RTVSPropertyOp3
 70
     1
102
RTVSPropertyOp4
 70
     1
102
RTVSPropertyOp5
 70
     1
102
RTVSPropertyOp6
 70
     1
102
RTVSPropertyOp7
 70
     1
102
RTVSPropertyOp8
 70
     1
102
RTVSPropertyOp9
 70
     1
102
RTVSPropertyOp10
 70
     1
102
RTVSPropertyOp11
 70
     1
102
RTVSPropertyOp12
 70
     1
102
RTVSPropertyOp13
 70
     1
102
RTVSPropertyOp14
 70
     1
102
RTVSPropertyOp15
 70
     1
102
RTVSPropertyOp16
 70
     1
102
RTVSPropertyOp17
 70
     1
102
RTVSPropertyOp18
 70
     1
102
RTVSPropertyOp19
 70
     1
102
RTVSPropertyOp20
 70
     1
102
RTVSPropertyOp21
 70
     1
102
RTVSPropertyOp22
 70
     1
102
RTVSPropertyOp23
 70
     1
102
RTVSPropertyOp24
 70
     1
102
RTVSPropertyOp25
 70
     1
102
RTVSPropertyOp26
 70
     1
102
RTVSPropertyOp27
 70
     1
102
RTVSPropertyOp28
 70
     1
102
RTVSPropertyOp29
 70
     1
102
RTVSPropertyOp30
 70
     1
102
RTVSPropertyOp31
 70
     1
102
RTVSPropertyOp32
 70
     1
102
RTVSPropertyOp33
 70
     1
102
RTVSPropertyOp34
 70
     1
102
RTVSPropertyOp35
 70
     1
102
RTVSPropertyOp36
 70
     1
102
RTVSPropertyOp37
 70
     1
102
RTVSPropertyOp38
 70
     1
102
RTVSPropertyOp39
 70
     1
102
RTVSPropertyOp40
 70
     1
102
RTVSPropertyOp41
 70
     1
102
RTVSPropertyOp42
 70
     1
102
RTVSPropertyOp43
 70
     1
102
RTVSPropertyOp44
 70
     1
102
RTVSPropertyOp45
 70
     1
102
RTVSPropertyOp46
 70
     1
102
RTVSPropertyOp47
 70
     1
102
RTVSPropertyOp48
 70
     1
102
RTVSPropertyOp49
 70
     1
102
RTVSPropertyOp50
 70
     1
102
RTVSPropertyOp51
 70
     0
102
RTVSPropertyOp52
 70
     0
102
RTVSPropertyOp53
 70
     1
102
RTVSPropertyOp54
 70
     1
102
RTVSPropertyOp55
 70
     1
102
RTVSPropertyOp56
 70
     1
102
RTVSPropertyOp57
 70
     1
102
RTVSPost2010Prop28
280
     0
102
RTVSPost2010PropOp28
 70
     1
102
RTVSPost2010Prop29
280
     1
102
RTVSPost2010PropOp29
 70
     1
102
RTVSPost2010Prop30
280
     1
102
RTVSPost2010PropOp30
 70
     1
102
RTVSPost2010Prop31
280
     0
102
RTVSPost2010PropOp31
 70
     1
102
RTVSPost2010Prop32
280
     0
102
RTVSPost2010PropOp32
 70
     1
102
RTVSPost2010Prop33
280
     0
102
RTVSPost2010PropOp33
 70
     1
102
RTVSPost2010Prop34
280
     0
102
RTVSPost2010PropOp34
 70
     1
102
RTVSPost2010Prop35
280
     0
102
RTVSPost2010PropOp35
 70
     1
102
RTVSPost2010Prop36
280
     0
102
RTVSPost2010PropOp36
 70
     1
102
RTVSPost2010Prop37
 90
       50
102
RTVSPost2010PropOp37
 70
     1
102
RTVSPost2010Prop38
140
0.0
102
RTVSPost2010PropOp38
 70
     1
102
RTVSPost2010Prop39
140
1.0
102
RTVSPost2010PropOp39
 70
     1
102
RTVSPost2010Prop40
 90
        0
102
RTVSPost2010PropOp40
 70
     1
102
RTVSPost2010Prop41ColorIndex
 90
       18
102
RTVSPost2010Prop41ColorRGB
 90
        0
102
RTVSPost2010PropOp41
 70
     1
102
RTVSPost2010Prop42
 90
       50
102
RTVSPost2010PropOp42
 70
     1
102
RTVSPost2010Prop43
 90
        3
102
RTVSPost2010PropOp43
 70
     1
102
RTVSPost2010Prop44ColorIndex
 90
        5
102
RTVSPost2010Prop44ColorRGB
 90
      255
102
RTVSPost2010PropOp44
 70
     1
102
RTVSPost2010Prop45
280
     0
102
RTVSPost2010PropOp45
 70
     1
102
RTVSPost2010Prop46
 90
       50
102
RTVSPost2010PropOp46
 70
     1
102
RTVSPost2010Prop47
 90
       50
102
RTVSPost2010PropOp47
 70
     1
102
RTVSPost2010Prop48
 90
       50
102
RTVSPost2010PropOp48
 70
     1
102
RTVSPost2010Prop49
280
     0
102
RTVSPost2010PropOp49
 70
     1
102
RTVSPost2010Prop50
 90
       50
102
RTVSPost2010PropOp50
 70
     1
102
RTVSPost2010Prop51ColorIndex
 90
      256
102
RTVSPost2010Prop51ColorRGB
 90
-16777216
102
RTVSPost2010PropOp51
 70
     0
102
RTVSPost2010Prop52
140
1.0
102
RTVSPost2010PropOp52
 70
     0
102
RTVSPost2010Prop53
 90
        2
102
RTVSPost2010PropOp53
 70
     1
102
RTVSPost2010Prop54
  1
strokes_ogs.tif
102
RTVSPost2010PropOp54
 70
     1
102
RTVSPost2010Prop55
280
     0
102
RTVSPost2010PropOp55
 70
     1
102
RTVSPost2010Prop56
140
1.0
102
RTVSPost2010PropOp56
 70
     1
102
RTVSPost2010Prop57
140
1.0
102
RTVSPost2010PropOp57
 70
     1
  0
XRECORD
  5
DE1
102
{ACAD_REACTORS
330
DE0
102
}
330
DE0
100
AcDbXrecord
280
     1
102
RTVSPropertyOp0
 70
     1
102
RTVSPropertyOp1
 70
     1
102
RTVSPropertyOp2
 70
     1
102
RTVSPropertyOp3
 70
     1
102
RTVSPropertyOp4
 70
     1
102
RTVSPropertyOp5
 70
     1
102
RTVSPropertyOp6
 70
     1
102
RTVSPropertyOp7
 70
     1
102
RTVSPropertyOp8
 70
     1
102
RTVSPropertyOp9
 70
     1
102
RTVSPropertyOp10
 70
     1
102
RTVSPropertyOp11
 70
     1
102
RTVSPropertyOp12
 70
     1
102
RTVSPropertyOp13
 70
     1
102
RTVSPropertyOp14
 70
     1
102
RTVSPropertyOp15
 70
     1
102
RTVSPropertyOp16
 70
     1
102
RTVSPropertyOp17
 70
     1
102
RTVSPropertyOp18
 70
     1
102
RTVSPropertyOp19
 70
     1
102
RTVSPropertyOp20
 70
     1
102
RTVSPropertyOp21
 70
     1
102
RTVSPropertyOp22
 70
     1
102
RTVSPropertyOp23
 70
     1
102
RTVSPropertyOp24
 70
     1
102
RTVSPropertyOp25
 70
     1
102
RTVSPropertyOp26
 70
     1
102
RTVSPropertyOp27
 70
     1
102
RTVSPropertyOp28
 70
     1
102
RTVSPropertyOp29
 70
     1
102
RTVSPropertyOp30
 70
     1
102
RTVSPropertyOp31
 70
     1
102
RTVSPropertyOp32
 70
     1
102
RTVSPropertyOp33
 70
     1
102
RTVSPropertyOp34
 70
     1
102
RTVSPropertyOp35
 70
     1
102
RTVSPropertyOp36
 70
     1
102
RTVSPropertyOp37
 70
     1
102
RTVSPropertyOp38
 70
     1
102
RTVSPropertyOp39
 70
     1
102
RTVSPropertyOp40
 70
     1
102
RTVSPropertyOp41
 70
     1
102
RTVSPropertyOp42
 70
     1
102
RTVSPropertyOp43
 70
     1
102
RTVSPropertyOp44
 70
     1
102
RTVSPropertyOp45
 70
     1
102
RTVSPropertyOp46
 70
     1
102
RTVSPropertyOp47
 70
     1
102
RTVSPropertyOp48
 70
     1
102
RTVSPropertyOp49
 70
     1
102
RTVSPropertyOp50
 70
     1
102
RTVSPropertyOp51
 70
     0
102
RTVSPropertyOp52
 70
     0
102
RTVSPropertyOp53
 70
     1
102
RTVSPropertyOp54
 70
     1
102
RTVSPropertyOp55
 70
     1
102
RTVSPropertyOp56
 70
     1
102
RTVSPropertyOp57
 70
     1
102
RTVSPost2010Prop28
280
     0
102
RTVSPost2010PropOp28
 70
     1
102
RTVSPost2010Prop29
280
     1
102
RTVSPost2010PropOp29
 70
     1
102
RTVSPost2010Prop30
280
     1
102
RTVSPost2010PropOp30
 70
     1
102
RTVSPost2010Prop31
280
     0
102
RTVSPost2010PropOp31
 70
     1
102
RTVSPost2010Prop32
280
     0
102
RTVSPost2010PropOp32
 70
     1
102
RTVSPost2010Prop33
280
     0
102
RTVSPost2010PropOp33
 70
     1
102
RTVSPost2010Prop34
280
     0
102
RTVSPost2010PropOp34
 70
     1
102
RTVSPost2010Prop35
280
     0
102
RTVSPost2010PropOp35
 70
     1
102
RTVSPost2010Prop36
280
     0
102
RTVSPost2010PropOp36
 70
     1
102
RTVSPost2010Prop37
 90
       50
102
RTVSPost2010PropOp37
 70
     1
102
RTVSPost2010Prop38
140
0.0
102
RTVSPost2010PropOp38
 70
     1
102
RTVSPost2010Prop39
140
1.0
102
RTVSPost2010PropOp39
 70
     1
102
RTVSPost2010Prop40
 90
        0
102
RTVSPost2010PropOp40
 70
     1
102
RTVSPost2010Prop41ColorIndex
 90
       18
102
RTVSPost2010Prop41ColorRGB
 90
        0
102
RTVSPost2010PropOp41
 70
     1
102
RTVSPost2010Prop42
 90
       50
102
RTVSPost2010PropOp42
 70
     1
102
RTVSPost2010Prop43
 90
        3
102
RTVSPost2010PropOp43
 70
     1
102
RTVSPost2010Prop44ColorIndex
 90
        5
102
RTVSPost2010Prop44ColorRGB
 90
      255
102
RTVSPost2010PropOp44
 70
     1
102
RTVSPost2010Prop45
280
     0
102
RTVSPost2010PropOp45
 70
     1
102
RTVSPost2010Prop46
 90
       50
102
RTVSPost2010PropOp46
 70
     1
102
RTVSPost2010Prop47
 90
       50
102
RTVSPost2010PropOp47
 70
     1
102
RTVSPost2010Prop48
 90
       50
102
RTVSPost2010PropOp48
 70
     1
102
RTVSPost2010Prop49
280
     0
102
RTVSPost2010PropOp49
 70
     1
102
RTVSPost2010Prop50
 90
       50
102
RTVSPost2010PropOp50
 70
     1
102
RTVSPost2010Prop51ColorIndex
 90
      256
102
RTVSPost2010Prop51ColorRGB
 90
-16777216
102
RTVSPost2010PropOp51
 70
     0
102
RTVSPost2010Prop52
140
1.0
102
RTVSPost2010PropOp52
 70
     0
102
RTVSPost2010Prop53
 90
        2
102
RTVSPost2010PropOp53
 70
     1
102
RTVSPost2010Prop54
  1
strokes_ogs.tif
102
RTVSPost2010PropOp54
 70
     1
102
RTVSPost2010Prop55
280
     0
102
RTVSPost2010PropOp55
 70
     1
102
RTVSPost2010Prop56
140
1.0
102
RTVSPost2010PropOp56
 70
     1
102
RTVSPost2010Prop57
140
1.0
102
RTVSPost2010PropOp57
 70
     1
  0
XRECORD
  5
DE3
102
{ACAD_REACTORS
330
DE2
102
}
330
DE2
100
AcDbXrecord
280
     1
102
RTVSPropertyOp0
 70
     1
102
RTVSPropertyOp1
 70
     1
102
RTVSPropertyOp2
 70
     1
102
RTVSPropertyOp3
 70
     1
102
RTVSPropertyOp4
 70
     1
102
RTVSPropertyOp5
 70
     1
102
RTVSPropertyOp6
 70
     1
102
RTVSPropertyOp7
 70
     1
102
RTVSPropertyOp8
 70
     1
102
RTVSPropertyOp9
 70
     1
102
RTVSPropertyOp10
 70
     1
102
RTVSPropertyOp11
 70
     1
102
RTVSPropertyOp12
 70
     1
102
RTVSPropertyOp13
 70
     1
102
RTVSPropertyOp14
 70
     1
102
RTVSPropertyOp15
 70
     1
102
RTVSPropertyOp16
 70
     1
102
RTVSPropertyOp17
 70
     1
102
RTVSPropertyOp18
 70
     1
102
RTVSPropertyOp19
 70
     1
102
RTVSPropertyOp20
 70
     1
102
RTVSPropertyOp21
 70
     1
102
RTVSPropertyOp22
 70
     1
102
RTVSPropertyOp23
 70
     1
102
RTVSPropertyOp24
 70
     1
102
RTVSPropertyOp25
 70
     1
102
RTVSPropertyOp26
 70
     1
102
RTVSPropertyOp27
 70
     1
102
RTVSPropertyOp28
 70
     1
102
RTVSPropertyOp29
 70
     1
102
RTVSPropertyOp30
 70
     1
102
RTVSPropertyOp31
 70
     1
102
RTVSPropertyOp32
 70
     1
102
RTVSPropertyOp33
 70
     1
102
RTVSPropertyOp34
 70
     1
102
RTVSPropertyOp35
 70
     1
102
RTVSPropertyOp36
 70
     1
102
RTVSPropertyOp37
 70
     1
102
RTVSPropertyOp38
 70
     1
102
RTVSPropertyOp39
 70
     1
102
RTVSPropertyOp40
 70
     1
102
RTVSPropertyOp41
 70
     1
102
RTVSPropertyOp42
 70
     1
102
RTVSPropertyOp43
 70
     1
102
RTVSPropertyOp44
 70
     1
102
RTVSPropertyOp45
 70
     1
102
RTVSPropertyOp46
 70
     1
102
RTVSPropertyOp47
 70
     1
102
RTVSPropertyOp48
 70
     1
102
RTVSPropertyOp49
 70
     1
102
RTVSPropertyOp50
 70
     1
102
RTVSPropertyOp51
 70
     0
102
RTVSPropertyOp52
 70
     0
102
RTVSPropertyOp53
 70
     1
102
RTVSPropertyOp54
 70
     1
102
RTVSPropertyOp55
 70
     1
102
RTVSPropertyOp56
 70
     1
102
RTVSPropertyOp57
 70
     1
102
RTVSPost2010Prop28
280
     0
102
RTVSPost2010PropOp28
 70
     1
102
RTVSPost2010Prop29
280
     1
102
RTVSPost2010PropOp29
 70
     1
102
RTVSPost2010Prop30
280
     1
102
RTVSPost2010PropOp30
 70
     1
102
RTVSPost2010Prop31
280
     0
102
RTVSPost2010PropOp31
 70
     1
102
RTVSPost2010Prop32
280
     0
102
RTVSPost2010PropOp32
 70
     1
102
RTVSPost2010Prop33
280
     0
102
RTVSPost2010PropOp33
 70
     1
102
RTVSPost2010Prop34
280
     0
102
RTVSPost2010PropOp34
 70
     1
102
RTVSPost2010Prop35
280
     0
102
RTVSPost2010PropOp35
 70
     1
102
RTVSPost2010Prop36
280
     0
102
RTVSPost2010PropOp36
 70
     1
102
RTVSPost2010Prop37
 90
       50
102
RTVSPost2010PropOp37
 70
     1
102
RTVSPost2010Prop38
140
0.0
102
RTVSPost2010PropOp38
 70
     1
102
RTVSPost2010Prop39
140
1.0
102
RTVSPost2010PropOp39
 70
     1
102
RTVSPost2010Prop40
 90
        0
102
RTVSPost2010PropOp40
 70
     1
102
RTVSPost2010Prop41ColorIndex
 90
       18
102
RTVSPost2010Prop41ColorRGB
 90
        0
102
RTVSPost2010PropOp41
 70
     1
102
RTVSPost2010Prop42
 90
       50
102
RTVSPost2010PropOp42
 70
     1
102
RTVSPost2010Prop43
 90
        3
102
RTVSPost2010PropOp43
 70
     1
102
RTVSPost2010Prop44ColorIndex
 90
        5
102
RTVSPost2010Prop44ColorRGB
 90
      255
102
RTVSPost2010PropOp44
 70
     1
102
RTVSPost2010Prop45
280
     0
102
RTVSPost2010PropOp45
 70
     1
102
RTVSPost2010Prop46
 90
       50
102
RTVSPost2010PropOp46
 70
     1
102
RTVSPost2010Prop47
 90
       50
102
RTVSPost2010PropOp47
 70
     1
102
RTVSPost2010Prop48
 90
       50
102
RTVSPost2010PropOp48
 70
     1
102
RTVSPost2010Prop49
280
     0
102
RTVSPost2010PropOp49
 70
     1
102
RTVSPost2010Prop50
 90
       50
102
RTVSPost2010PropOp50
 70
     1
102
RTVSPost2010Prop51ColorIndex
 90
      256
102
RTVSPost2010Prop51ColorRGB
 90
-16777216
102
RTVSPost2010PropOp51
 70
     0
102
RTVSPost2010Prop52
140
1.0
102
RTVSPost2010PropOp52
 70
     0
102
RTVSPost2010Prop53
 90
        2
102
RTVSPost2010PropOp53
 70
     1
102
RTVSPost2010Prop54
  1
strokes_ogs.tif
102
RTVSPost2010PropOp54
 70
     1
102
RTVSPost2010Prop55
280
     0
102
RTVSPost2010PropOp55
 70
     1
102
RTVSPost2010Prop56
140
1.0
102
RTVSPost2010PropOp56
 70
     1
102
RTVSPost2010Prop57
140
1.0
102
RTVSPost2010PropOp57
 70
     1
  0
XRECORD
  5
DE5
102
{ACAD_REACTORS
330
DE4
102
}
330
DE4
100
AcDbXrecord
280
     1
102
RTVSPropertyOp0
 70
     1
102
RTVSPropertyOp1
 70
     1
102
RTVSPropertyOp2
 70
     1
102
RTVSPropertyOp3
 70
     1
102
RTVSPropertyOp4
 70
     1
102
RTVSPropertyOp5
 70
     1
102
RTVSPropertyOp6
 70
     1
102
RTVSPropertyOp7
 70
     1
102
RTVSPropertyOp8
 70
     1
102
RTVSPropertyOp9
 70
     1
102
RTVSPropertyOp10
 70
     1
102
RTVSPropertyOp11
 70
     1
102
RTVSPropertyOp12
 70
     1
102
RTVSPropertyOp13
 70
     1
102
RTVSPropertyOp14
 70
     1
102
RTVSPropertyOp15
 70
     1
102
RTVSPropertyOp16
 70
     1
102
RTVSPropertyOp17
 70
     1
102
RTVSPropertyOp18
 70
     1
102
RTVSPropertyOp19
 70
     1
102
RTVSPropertyOp20
 70
     1
102
RTVSPropertyOp21
 70
     1
102
RTVSPropertyOp22
 70
     1
102
RTVSPropertyOp23
 70
     1
102
RTVSPropertyOp24
 70
     1
102
RTVSPropertyOp25
 70
     1
102
RTVSPropertyOp26
 70
     1
102
RTVSPropertyOp27
 70
     1
102
RTVSPropertyOp28
 70
     1
102
RTVSPropertyOp29
 70
     1
102
RTVSPropertyOp30
 70
     1
102
RTVSPropertyOp31
 70
     1
102
RTVSPropertyOp32
 70
     1
102
RTVSPropertyOp33
 70
     1
102
RTVSPropertyOp34
 70
     1
102
RTVSPropertyOp35
 70
     1
102
RTVSPropertyOp36
 70
     1
102
RTVSPropertyOp37
 70
     1
102
RTVSPropertyOp38
 70
     1
102
RTVSPropertyOp39
 70
     1
102
RTVSPropertyOp40
 70
     1
102
RTVSPropertyOp41
 70
     1
102
RTVSPropertyOp42
 70
     1
102
RTVSPropertyOp43
 70
     1
102
RTVSPropertyOp44
 70
     1
102
RTVSPropertyOp45
 70
     1
102
RTVSPropertyOp46
 70
     1
102
RTVSPropertyOp47
 70
     1
102
RTVSPropertyOp48
 70
     1
102
RTVSPropertyOp49
 70
     1
102
RTVSPropertyOp50
 70
     1
102
RTVSPropertyOp51
 70
     0
102
RTVSPropertyOp52
 70
     0
102
RTVSPropertyOp53
 70
     1
102
RTVSPropertyOp54
 70
     1
102
RTVSPropertyOp55
 70
     1
102
RTVSPropertyOp56
 70
     1
102
RTVSPropertyOp57
 70
     1
102
RTVSPost2010Prop28
280
     0
102
RTVSPost2010PropOp28
 70
     1
102
RTVSPost2010Prop29
280
     1
102
RTVSPost2010PropOp29
 70
     1
102
RTVSPost2010Prop30
280
     1
102
RTVSPost2010PropOp30
 70
     1
102
RTVSPost2010Prop31
280
     0
102
RTVSPost2010PropOp31
 70
     1
102
RTVSPost2010Prop32
280
     0
102
RTVSPost2010PropOp32
 70
     1
102
RTVSPost2010Prop33
280
     0
102
RTVSPost2010PropOp33
 70
     1
102
RTVSPost2010Prop34
280
     0
102
RTVSPost2010PropOp34
 70
     1
102
RTVSPost2010Prop35
280
     0
102
RTVSPost2010PropOp35
 70
     1
102
RTVSPost2010Prop36
280
     0
102
RTVSPost2010PropOp36
 70
     1
102
RTVSPost2010Prop37
 90
       50
102
RTVSPost2010PropOp37
 70
     1
102
RTVSPost2010Prop38
140
0.0
102
RTVSPost2010PropOp38
 70
     1
102
RTVSPost2010Prop39
140
1.0
102
RTVSPost2010PropOp39
 70
     1
102
RTVSPost2010Prop40
 90
        0
102
RTVSPost2010PropOp40
 70
     1
102
RTVSPost2010Prop41ColorIndex
 90
       18
102
RTVSPost2010Prop41ColorRGB
 90
        0
102
RTVSPost2010PropOp41
 70
     1
102
RTVSPost2010Prop42
 90
       50
102
RTVSPost2010PropOp42
 70
     1
102
RTVSPost2010Prop43
 90
        3
102
RTVSPost2010PropOp43
 70
     1
102
RTVSPost2010Prop44ColorIndex
 90
        5
102
RTVSPost2010Prop44ColorRGB
 90
      255
102
RTVSPost2010PropOp44
 70
     1
102
RTVSPost2010Prop45
280
     0
102
RTVSPost2010PropOp45
 70
     1
102
RTVSPost2010Prop46
 90
       50
102
RTVSPost2010PropOp46
 70
     1
102
RTVSPost2010Prop47
 90
       50
102
RTVSPost2010PropOp47
 70
     1
102
RTVSPost2010Prop48
 90
       50
102
RTVSPost2010PropOp48
 70
     1
102
RTVSPost2010Prop49
280
     0
102
RTVSPost2010PropOp49
 70
     1
102
RTVSPost2010Prop50
 90
       50
102
RTVSPost2010PropOp50
 70
     1
102
RTVSPost2010Prop51ColorIndex
 90
      256
102
RTVSPost2010Prop51ColorRGB
 90
-16777216
102
RTVSPost2010PropOp51
 70
     0
102
RTVSPost2010Prop52
140
1.0
102
RTVSPost2010PropOp52
 70
     0
102
RTVSPost2010Prop53
 90
        2
102
RTVSPost2010PropOp53
 70
     1
102
RTVSPost2010Prop54
  1
strokes_ogs.tif
102
RTVSPost2010PropOp54
 70
     1
102
RTVSPost2010Prop55
280
     0
102
RTVSPost2010PropOp55
 70
     1
102
RTVSPost2010Prop56
140
1.0
102
RTVSPost2010PropOp56
 70
     1
102
RTVSPost2010Prop57
140
1.0
102
RTVSPost2010PropOp57
 70
     1
  0
XRECORD
  5
DE7
102
{ACAD_REACTORS
330
DE6
102
}
330
DE6
100
AcDbXrecord
280
     1
102
RTVSPropertyOp0
 70
     1
102
RTVSPropertyOp1
 70
     1
102
RTVSPropertyOp2
 70
     1
102
RTVSPropertyOp3
 70
     1
102
RTVSPropertyOp4
 70
     1
102
RTVSPropertyOp5
 70
     1
102
RTVSPropertyOp6
 70
     1
102
RTVSPropertyOp7
 70
     1
102
RTVSPropertyOp8
 70
     1
102
RTVSPropertyOp9
 70
     1
102
RTVSPropertyOp10
 70
     1
102
RTVSPropertyOp11
 70
     1
102
RTVSPropertyOp12
 70
     1
102
RTVSPropertyOp13
 70
     1
102
RTVSPropertyOp14
 70
     1
102
RTVSPropertyOp15
 70
     1
102
RTVSPropertyOp16
 70
     1
102
RTVSPropertyOp17
 70
     1
102
RTVSPropertyOp18
 70
     1
102
RTVSPropertyOp19
 70
     1
102
RTVSPropertyOp20
 70
     1
102
RTVSPropertyOp21
 70
     1
102
RTVSPropertyOp22
 70
     1
102
RTVSPropertyOp23
 70
     1
102
RTVSPropertyOp24
 70
     1
102
RTVSPropertyOp25
 70
     1
102
RTVSPropertyOp26
 70
     1
102
RTVSPropertyOp27
 70
     1
102
RTVSPropertyOp28
 70
     1
102
RTVSPropertyOp29
 70
     1
102
RTVSPropertyOp30
 70
     1
102
RTVSPropertyOp31
 70
     1
102
RTVSPropertyOp32
 70
     1
102
RTVSPropertyOp33
 70
     1
102
RTVSPropertyOp34
 70
     1
102
RTVSPropertyOp35
 70
     1
102
RTVSPropertyOp36
 70
     1
102
RTVSPropertyOp37
 70
     1
102
RTVSPropertyOp38
 70
     1
102
RTVSPropertyOp39
 70
     1
102
RTVSPropertyOp40
 70
     1
102
RTVSPropertyOp41
 70
     1
102
RTVSPropertyOp42
 70
     1
102
RTVSPropertyOp43
 70
     1
102
RTVSPropertyOp44
 70
     1
102
RTVSPropertyOp45
 70
     1
102
RTVSPropertyOp46
 70
     1
102
RTVSPropertyOp47
 70
     1
102
RTVSPropertyOp48
 70
     1
102
RTVSPropertyOp49
 70
     1
102
RTVSPropertyOp50
 70
     1
102
RTVSPropertyOp51
 70
     0
102
RTVSPropertyOp52
 70
     0
102
RTVSPropertyOp53
 70
     1
102
RTVSPropertyOp54
 70
     1
102
RTVSPropertyOp55
 70
     1
102
RTVSPropertyOp56
 70
     1
102
RTVSPropertyOp57
 70
     1
102
RTVSPost2010Prop28
280
     0
102
RTVSPost2010PropOp28
 70
     1
102
RTVSPost2010Prop29
280
     1
102
RTVSPost2010PropOp29
 70
     1
102
RTVSPost2010Prop30
280
     1
102
RTVSPost2010PropOp30
 70
     1
102
RTVSPost2010Prop31
280
     0
102
RTVSPost2010PropOp31
 70
     1
102
RTVSPost2010Prop32
280
     0
102
RTVSPost2010PropOp32
 70
     1
102
RTVSPost2010Prop33
280
     0
102
RTVSPost2010PropOp33
 70
     1
102
RTVSPost2010Prop34
280
     0
102
RTVSPost2010PropOp34
 70
     1
102
RTVSPost2010Prop35
280
     0
102
RTVSPost2010PropOp35
 70
     1
102
RTVSPost2010Prop36
280
     0
102
RTVSPost2010PropOp36
 70
     1
102
RTVSPost2010Prop37
 90
       50
102
RTVSPost2010PropOp37
 70
     1
102
RTVSPost2010Prop38
140
0.0
102
RTVSPost2010PropOp38
 70
     1
102
RTVSPost2010Prop39
140
1.0
102
RTVSPost2010PropOp39
 70
     1
102
RTVSPost2010Prop40
 90
        0
102
RTVSPost2010PropOp40
 70
     1
102
RTVSPost2010Prop41ColorIndex
 90
       18
102
RTVSPost2010Prop41ColorRGB
 90
        0
102
RTVSPost2010PropOp41
 70
     1
102
RTVSPost2010Prop42
 90
       50
102
RTVSPost2010PropOp42
 70
     1
102
RTVSPost2010Prop43
 90
        3
102
RTVSPost2010PropOp43
 70
     1
102
RTVSPost2010Prop44ColorIndex
 90
        5
102
RTVSPost2010Prop44ColorRGB
 90
      255
102
RTVSPost2010PropOp44
 70
     1
102
RTVSPost2010Prop45
280
     0
102
RTVSPost2010PropOp45
 70
     1
102
RTVSPost2010Prop46
 90
       50
102
RTVSPost2010PropOp46
 70
     1
102
RTVSPost2010Prop47
 90
       50
102
RTVSPost2010PropOp47
 70
     1
102
RTVSPost2010Prop48
 90
       50
102
RTVSPost2010PropOp48
 70
     1
102
RTVSPost2010Prop49
280
     0
102
RTVSPost2010PropOp49
 70
     1
102
RTVSPost2010Prop50
 90
       50
102
RTVSPost2010PropOp50
 70
     1
102
RTVSPost2010Prop51ColorIndex
 90
      256
102
RTVSPost2010Prop51ColorRGB
 90
-16777216
102
RTVSPost2010PropOp51
 70
     0
102
RTVSPost2010Prop52
140
1.0
102
RTVSPost2010PropOp52
 70
     0
102
RTVSPost2010Prop53
 90
        2
102
RTVSPost2010PropOp53
 70
     1
102
RTVSPost2010Prop54
  1
strokes_ogs.tif
102
RTVSPost2010PropOp54
 70
     1
102
RTVSPost2010Prop55
280
     0
102
RTVSPost2010PropOp55
 70
     1
102
RTVSPost2010Prop56
140
1.0
102
RTVSPost2010PropOp56
 70
     1
102
RTVSPost2010Prop57
140
1.0
102
RTVSPost2010PropOp57
 70
     1
  0
ENDSEC
  0
EOF
