 0
SECTION
 2
HEADER
 9
$ACADVER
 1
AC1003
 9
$EXTMIN
 10
-138.500000
 20
-90.000000
 9
$EXTMAX
 10
138.500000
 20
97.548187
 9
$LIMMIN
 10
-138.501000
 20
-90.001000
 9
$LIMMAX
 10
138.501000
 20
97.549187
 9
$SNAPUNIT
 10
1
 20
1
 9
$SNAPBASE
 10
0
 20
0
 9
$GRIDMODE
 70
0
 9
$GRIDUNIT
 10
0
 20
0
 9
$LTSCALE
 40
4.616667
 9
$TEXTSIZE
 40
3.2
 9
$DIMTAD
 70
0
 9
$LUNITS
 70
2
 9
$LUPREC
 70
4
 9
$FILLETRAD
 40
0
 9
$AUNITS
 70
0
 9
$AUPREC
 70
0
 0
ENDSEC
 0
SECTION
 2
TABLES
 0
TABLE
 2
LTYPE
 70
25
  0
LTYPE
  2
CONTINUOUS
 70
    64
  3
Solid-line
 72
    65
 73
     0
 40
0.0
  0
LTYPE
  2
BORDER
 70
    64
  3
BORDER
 72
    65
 73
     6
 40
1.75
 49
0.5
 49
-0.25
 49
0.5
 49
-0.25
 49
0.0
 49
-0.25
  0
LTYPE
  2
BORDER2
 70
    64
  3
BORDER2
 72
    65
 73
     6
 40
0.875
 49
0.25
 49
-0.125
 49
0.25
 49
-0.125
 49
0.0
 49
-0.125
  0
LTYPE
  2
BORDERX2
 70
    64
  3
BORDERX2
 72
    65
 73
     6
 40
3.5
 49
1.0
 49
-0.5
 49
1.0
 49
-0.5
 49
0.0
 49
-0.5
  0
LTYPE
  2
CENTER
 70
    64
  3
CENTER
 72
    65
 73
     4
 40
2.0
 49
1.25
 49
-0.25
 49
0.25
 49
-0.25
  0
LTYPE
  2
CENTER2
 70
    64
  3
CENTER2
 72
    65
 73
     4
 40
1.125
 49
0.75
 49
-0.125
 49
0.125
 49
-0.125
  0
LTYPE
  2
CENTERX2
 70
    64
  3
CENTERX2
 72
    65
 73
     4
 40
4.0
 49
2.5
 49
-0.5
 49
0.5
 49
-0.5
  0
LTYPE
  2
DASHDOT
 70
    64
  3
DASHDOT
 72
    65
 73
     4
 40
1.0
 49
0.5
 49
-0.25
 49
0.0
 49
-0.25
  0
LTYPE
  2
DASHDOT2
 70
    64
  3
DASHDOT2
 72
    65
 73
     4
 40
0.5
 49
0.25
 49
-0.125
 49
0.0
 49
-0.125
  0
LTYPE
  2
DASHDOTX2
 70
    64
  3
DASHDOTX2
 72
    65
 73
     4
 40
2.0
 49
1.0
 49
-0.5
 49
0.0
 49
-0.5
  0
LTYPE
  2
DASHED
 70
    64
  3
DASHED
 72
    65
 73
     2
 40
0.75
 49
0.5
 49
-0.25
  0
LTYPE
  2
DASHED2
 70
    64
  3
DASHED2
 72
    65
 73
     2
 40
0.375
 49
0.25
 49
-0.125
  0
LTYPE
  2
DASHEDX2
 70
    64
  3
DASHEDX2
 72
    65
 73
     2
 40
1.5
 49
1.0
 49
-0.5
  0
LTYPE
  2
DIVIDE
 70
    64
  3
DIVIDE
 72
    65
 73
     6
 40
1.25
 49
0.5
 49
-0.25
 49
0.0
 49
-0.25
 49
0.0
 49
-0.25
  0
LTYPE
  2
DIVIDE2
 70
    64
  3
DIVIDE2
 72
    65
 73
     6
 40
0.625
 49
0.25
 49
-0.125
 49
0.0
 49
-0.125
 49
0.0
 49
-0.125
  0
LTYPE
  2
DIVIDEX2
 70
    64
  3
DIVIDEX2
 72
    65
 73
     6
 40
2.5
 49
1.0
 49
-0.5
 49
0.0
 49
-0.5
 49
0.0
 49
-0.5
  0
LTYPE
  2
DOT
 70
    64
  3
DOT
 72
    65
 73
     2
 40
0.25
 49
0.0
 49
-0.25
  0
LTYPE
  2
DOT2
 70
    64
  3
DOT2
 72
    65
 73
     2
 40
0.125
 49
0.0
 49
-0.125
  0
LTYPE
  2
DOTX2
 70
    64
  3
DOTX2
 72
    65
 73
     2
 40
0.5
 49
0.0
 49
-0.5
  0
LTYPE
  2
HIDDEN
 70
    64
  3
HIDDEN
 72
    65
 73
     2
 40
0.375
 49
0.25
 49
-0.125
  0
LTYPE
  2
HIDDEN2
 70
    64
  3
HIDDEN2
 72
    65
 73
     2
 40
0.1875
 49
0.125
 49
-0.0625
  0
LTYPE
  2
HIDDENX2
 70
    64
  3
HIDDENX2
 72
    65
 73
     2
 40
0.75
 49
0.5
 49
-0.25
  0
LTYPE
  2
PHANTOM
 70
    64
  3
PHANTOM
 72
    65
 73
     6
 40
2.5
 49
1.25
 49
-0.25
 49
0.25
 49
-0.25
 49
0.25
 49
-0.25
  0
LTYPE
  2
PHANTOM2
 70
    64
  3
PHANTOM2
 72
    65
 73
     6
 40
1.25
 49
0.625
 49
-0.125
 49
0.125
 49
-0.125
 49
0.125
 49
-0.125
  0
LTYPE
  2
PHANTOMX2
 70
    64
  3
PHANTOMX2
 72
    65
 73
     6
 40
5.0
 49
2.5
 49
-0.5
 49
0.5
 49
-0.5
 49
0.5
 49
-0.5
 0
ENDTAB
 0
TABLE
 2
LAYER
 70
1
 0
LAYER
 2
001
 70
0
 62
7
 6
CONTINUOUS
 0
ENDTAB
 0
TABLE
 2
STYLE
 70
2
 0
STYLE
 2
STANDARD
 70
0
 40
0
 41
1
 50
0
 71
0
 42
.2
 3
TXT
 4
BIGFONT
 0
STYLE
 2
TATEGAKI
 70
4
 40
1
 41
1
 50
0
 71
0
 42
.2
 3
TXT
 4
BIGFONT
 0
ENDTAB
 0
ENDSEC
 0
SECTION
 2
BLOCKS
 0
BLOCK
 8
0
 2
ARROW
 70
0
 10
0
 20
0
 0
POLYLINE
 8
0
 6
CONTINUOUS
 62
0
 66
1
 0
VERTEX
 8
0
 6
CONTINUOUS
 62
0
 10
2.000000
 20
0.535898
 0
VERTEX
 8
0
 6
CONTINUOUS
 62
0
 10
0.0
 20
0.0
 0
VERTEX
 8
0
 6
CONTINUOUS
 62
0
 10
2.000000
 20
-0.535898
 0
SEQEND
 8
0
 0
ENDBLK
 8
0
 0
BLOCK
 8
001
 2
*D0
 70
1
 10
0.0
 20
0.0
 0
LINE
 8
001
 10
20.359434
 20
-19.635622
 11
32.253823
 21
-19.635622
 0
LINE
 8
001
 10
20.249668
 20
-6.635622
 11
32.253823
 21
-6.635622
 0
LINE
 8
001
 10
31.253823
 20
-19.635622
 11
31.253823
 21
-6.635622
 0
INSERT
 8
001
 62
7
 2
ARROW
 6
BYBLOCK
 10
31.253823
 20
-19.635622
 41
1.000000
 42
1.000000
 50
90.000000
 0
INSERT
 8
001
 62
7
 2
ARROW
 6
BYBLOCK
 10
31.253823
 20
-6.635622
 41
1.000000
 42
1.000000
 50
270.000000
 0
TEXT
 8
001
 10
30.253823
 20
-16.016199
 40
3.200000
 1
13
 50
90.000003
 41
1.031250
 7
STANDARD
 0
POINT
 8
001
 10
19.359434
 20
-19.635622
 0
POINT
 8
001
 10
19.249668
 20
-6.635622
 0
POINT
 8
001
 10
31.253823
 20
-6.635622
 0
ENDBLK
 8
001
 0
BLOCK
 8
001
 2
*D1
 70
1
 10
0.0
 20
0.0
 0
LINE
 8
001
 10
-0.696980
 20
33.731603
 11
25.485222
 21
19.086047
 0
INSERT
 8
001
 62
7
 2
ARROW
 6
BYBLOCK
 10
-0.696980
 20
33.731603
 41
1.000000
 42
1.000000
 50
330.778631
 0
INSERT
 8
001
 62
7
 2
ARROW
 6
BYBLOCK
 10
25.485222
 20
19.086047
 41
1.000000
 42
1.000000
 50
150.778631
 0
TEXT
 8
001
 10
18.060653
 20
24.384950
 40
3.200000
 1
%%c30
 50
330.778630
 41
0.909927
 7
STANDARD
 0
POINT
 8
001
 10
-0.696980
 20
33.731603
 0
POINT
 8
001
 10
25.485222
 20
19.086047
 0
ENDBLK
 8
001
 0
BLOCK
 8
001
 2
*D2
 70
1
 10
0.0
 20
0.0
 0
LINE
 8
001
 10
-80.319970
 20
-18.635622
 11
-80.319970
 21
-30.321025
 0
LINE
 8
001
 10
-65.319970
 20
-18.635622
 11
-65.319970
 21
-30.321025
 0
LINE
 8
001
 10
-80.319970
 20
-29.321025
 11
-65.319970
 21
-29.321025
 0
INSERT
 8
001
 62
7
 2
ARROW
 6
BYBLOCK
 10
-80.319970
 20
-29.321025
 41
1.000000
 42
1.000000
 50
360.000000
 0
INSERT
 8
001
 62
7
 2
ARROW
 6
BYBLOCK
 10
-65.319970
 20
-29.321025
 41
1.000000
 42
1.000000
 50
180.000000
 0
TEXT
 8
001
 10
-76.835833
 20
-28.321025
 40
3.200000
 1
%%c15
 41
0.966797
 7
STANDARD
 0
POINT
 8
001
 10
-80.319970
 20
-17.635622
 0
POINT
 8
001
 10
-65.319970
 20
-17.635622
 0
POINT
 8
001
 10
-65.319970
 20
-29.321025
 0
ENDBLK
 8
001
 0
BLOCK
 8
001
 2
*D3
 70
1
 10
0.0
 20
0.0
 0
LINE
 8
001
 10
18.859434
 20
-19.635622
 11
48.174593
 21
-19.635622
 0
LINE
 8
001
 10
13.359434
 20
51.408801
 11
48.174593
 21
51.408801
 0
LINE
 8
001
 10
47.174593
 20
-19.635622
 11
47.174593
 21
51.408801
 0
INSERT
 8
001
 62
7
 2
ARROW
 6
BYBLOCK
 10
47.174593
 20
-19.635622
 41
1.000000
 42
1.000000
 50
90.000000
 0
INSERT
 8
001
 62
7
 2
ARROW
 6
BYBLOCK
 10
47.174593
 20
51.408801
 41
1.000000
 42
1.000000
 50
270.000000
 0
TEXT
 8
001
 10
46.174593
 20
13.136589
 40
3.200000
 1
70
 50
90.000003
 41
0.937500
 7
STANDARD
 0
POINT
 8
001
 10
17.859434
 20
-19.635622
 0
POINT
 8
001
 10
12.359434
 20
51.408801
 0
POINT
 8
001
 10
47.174593
 20
51.408801
 0
ENDBLK
 8
001
 0
BLOCK
 8
001
 2
*D4
 70
1
 10
0.0
 20
0.0
 0
LINE
 8
001
 10
-17.293015
 20
19.285742
 11
-17.293015
 21
60.038211
 0
LINE
 8
001
 10
37.391150
 20
27.794251
 11
37.391150
 21
60.038211
 0
LINE
 8
001
 10
-17.293015
 20
59.038211
 11
37.391150
 21
59.038211
 0
INSERT
 8
001
 62
7
 2
ARROW
 6
BYBLOCK
 10
-17.293015
 20
59.038211
 41
1.000000
 42
1.000000
 0
INSERT
 8
001
 62
7
 2
ARROW
 6
BYBLOCK
 10
37.391150
 20
59.038211
 41
1.000000
 42
1.000000
 50
180.000000
 0
TEXT
 8
001
 10
7.299067
 20
60.038211
 40
3.200000
 1
54
 41
0.859375
 7
STANDARD
 0
POINT
 8
001
 10
-17.293015
 20
18.285742
 0
POINT
 8
001
 10
37.391150
 20
26.794251
 0
POINT
 8
001
 10
37.391150
 20
59.038211
 0
ENDBLK
 8
001
 0
BLOCK
 8
001
 2
*D5
 70
1
 10
0.0
 20
0.0
 0
LINE
 8
001
 10
-77.819970
 20
51.908801
 11
-77.819970
 21
60.685093
 0
LINE
 8
001
 10
-67.819970
 20
51.908801
 11
-67.819970
 21
60.685093
 0
LINE
 8
001
 10
-77.819970
 20
59.685093
 11
-67.819970
 21
59.685093
 0
INSERT
 8
001
 62
7
 2
ARROW
 6
BYBLOCK
 10
-77.819970
 20
59.685093
 41
1.000000
 42
1.000000
 0
INSERT
 8
001
 62
7
 2
ARROW
 6
BYBLOCK
 10
-67.819970
 20
59.685093
 41
1.000000
 42
1.000000
 50
180.000000
 0
TEXT
 8
001
 10
-75.172341
 20
60.685093
 40
3.200000
 1
10
 41
1.145833
 7
STANDARD
 0
POINT
 8
001
 10
-77.819970
 20
50.908801
 0
POINT
 8
001
 10
-67.819970
 20
50.908801
 0
POINT
 8
001
 10
-67.819970
 20
59.685093
 0
ENDBLK
 8
001
 0
BLOCK
 8
001
 2
*D6
 70
1
 10
0.0
 20
0.0
 0
LINE
 8
001
 10
-75.819970
 20
13.502967
 11
-75.819970
 21
5.164394
 0
LINE
 8
001
 10
-69.819970
 20
13.502967
 11
-69.819970
 21
5.164394
 0
LINE
 8
001
 10
-75.819970
 20
6.164394
 11
-69.819970
 21
6.164394
 0
INSERT
 8
001
 62
7
 2
ARROW
 6
BYBLOCK
 10
-75.819970
 20
6.164394
 41
1.000000
 42
1.000000
 50
180.000000
 0
INSERT
 8
001
 62
7
 2
ARROW
 6
BYBLOCK
 10
-69.819970
 20
6.164394
 41
1.000000
 42
1.000000
 0
TEXT
 8
001
 10
-63.593122
 20
7.164394
 40
3.200000
 1
6
 41
0.859375
 7
STANDARD
 0
POINT
 8
001
 10
-75.819970
 20
14.502967
 0
POINT
 8
001
 10
-69.819970
 20
14.502967
 0
POINT
 8
001
 10
-69.819970
 20
6.164394
 0
LINE
 8
001
 10
-75.819970
 20
6.164394
 11
-78.819970
 21
6.164394
 0
LINE
 8
001
 10
-69.819970
 20
6.164394
 11
-60.843122
 21
6.164394
 0
ENDBLK
 8
001
 0
BLOCK
 8
001
 2
*D7
 70
1
 10
0.0
 20
0.0
 0
LINE
 8
001
 10
-67.602668
 20
-46.893169
 11
-53.199045
 21
-46.893169
 0
LINE
 8
001
 10
-67.602668
 20
-41.693169
 11
-53.199045
 21
-41.693169
 0
LINE
 8
001
 10
-54.199045
 20
-46.893169
 11
-54.199045
 21
-41.693169
 0
INSERT
 8
001
 62
7
 2
ARROW
 6
BYBLOCK
 10
-54.199045
 20
-46.893169
 41
1.000000
 42
1.000000
 50
270.000000
 0
INSERT
 8
001
 62
7
 2
ARROW
 6
BYBLOCK
 10
-54.199045
 20
-41.693169
 41
1.000000
 42
1.000000
 50
90.000000
 0
TEXT
 8
001
 10
-55.199045
 20
-37.012591
 40
3.200000
 1
5
 50
90.000003
 41
0.859375
 7
STANDARD
 0
POINT
 8
001
 10
-68.602668
 20
-46.893169
 0
POINT
 8
001
 10
-68.602668
 20
-41.693169
 0
POINT
 8
001
 10
-54.199045
 20
-41.693169
 0
LINE
 8
001
 10
-54.199045
 20
-46.893169
 11
-54.199045
 21
-49.893169
 0
LINE
 8
001
 10
-54.199045
 20
-41.693169
 11
-54.199045
 21
-34.262591
 0
ENDBLK
 8
001
 0
BLOCK
 8
001
 2
*D8
 70
1
 10
0.0
 20
0.0
 0
LINE
 8
001
 10
-73.819970
 20
-47.393169
 11
-90.005038
 21
-47.393169
 0
LINE
 8
001
 10
-73.819970
 20
-41.193169
 11
-90.005038
 21
-41.193169
 0
LINE
 8
001
 10
-89.005038
 20
-47.393169
 11
-89.005038
 21
-41.193169
 0
INSERT
 8
001
 62
7
 2
ARROW
 6
BYBLOCK
 10
-89.005038
 20
-47.393169
 41
1.000000
 42
1.000000
 50
270.000000
 0
INSERT
 8
001
 62
7
 2
ARROW
 6
BYBLOCK
 10
-89.005038
 20
-41.193169
 41
1.000000
 42
1.000000
 50
90.000000
 0
TEXT
 8
001
 10
-90.005038
 20
-38.193169
 40
3.200000
 1
6.2
 50
90.000003
 41
1.104911
 7
STANDARD
 0
POINT
 8
001
 10
-72.819970
 20
-47.393169
 0
POINT
 8
001
 10
-72.819970
 20
-41.193169
 0
POINT
 8
001
 10
-89.005038
 20
-41.193169
 0
LINE
 8
001
 10
-89.005038
 20
-47.393169
 11
-89.005038
 21
-50.393169
 0
LINE
 8
001
 10
-89.005038
 20
-41.193169
 11
-89.005038
 21
-29.943169
 0
ENDBLK
 8
001
 0
BLOCK
 8
001
 2
*D9
 70
1
 10
0.0
 20
0.0
 0
LINE
 8
001
 10
-66.320879
 20
-49.393169
 11
-45.911725
 21
-49.393169
 0
LINE
 8
001
 10
-66.320879
 20
-39.193169
 11
-45.911725
 21
-39.193169
 0
LINE
 8
001
 10
-46.911725
 20
-49.393169
 11
-46.911725
 21
-39.193169
 0
INSERT
 8
001
 62
7
 2
ARROW
 6
BYBLOCK
 10
-46.911725
 20
-49.393169
 41
1.000000
 42
1.000000
 50
90.000000
 0
INSERT
 8
001
 62
7
 2
ARROW
 6
BYBLOCK
 10
-46.911725
 20
-39.193169
 41
1.000000
 42
1.000000
 50
270.000000
 0
TEXT
 8
001
 10
-47.911725
 20
-49.852511
 40
3.200000
 1
10.2
 50
90.000003
 41
1.213235
 7
STANDARD
 0
POINT
 8
001
 10
-67.320879
 20
-49.393169
 0
POINT
 8
001
 10
-67.320879
 20
-39.193169
 0
POINT
 8
001
 10
-46.911725
 20
-39.193169
 0
ENDBLK
 8
001
 0
ENDSEC
 0
SECTION
 2
ENTITIES
 0
DIMENSION
 8
001
 2
*D0
 10
31.253823
 20
-6.635622
 11
30.253823
 21
-16.016199
 13
19.359434
 23
-19.635622
 14
19.249668
 24
-6.635622
 50
90.000000
 0
DIMENSION
 8
001
 2
*D1
 10
25.485222
 20
19.086047
 11
18.060653
 21
24.384950
 70
3
 15
-0.696980
 25
33.731603
 0
DIMENSION
 8
001
 2
*D2
 10
-65.319970
 20
-29.321025
 11
-76.835833
 21
-28.321025
 13
-80.319970
 23
-17.635622
 14
-65.319970
 24
-17.635622
 50
360.000000
 0
DIMENSION
 8
001
 2
*D3
 10
47.174593
 20
51.408801
 11
46.174593
 21
13.136589
 13
17.859434
 23
-19.635622
 14
12.359434
 24
51.408801
 50
90.000000
 0
DIMENSION
 8
001
 2
*D4
 10
37.391150
 20
59.038211
 11
7.299067
 21
60.038211
 13
-17.293015
 23
18.285742
 14
37.391150
 24
26.794251
 0
DIMENSION
 8
001
 2
*D5
 10
-67.819970
 20
59.685093
 11
-75.172341
 21
60.685093
 13
-77.819970
 23
50.908801
 14
-67.819970
 24
50.908801
 0
DIMENSION
 8
001
 2
*D6
 10
-69.819970
 20
6.164394
 11
-63.593122
 21
7.164394
 13
-75.819970
 23
14.502967
 14
-69.819970
 24
14.502967
 0
DIMENSION
 8
001
 2
*D7
 10
-54.199045
 20
-41.693169
 11
-55.199045
 21
-37.012591
 13
-68.602668
 23
-46.893169
 14
-68.602668
 24
-41.693169
 50
90.000000
 0
DIMENSION
 8
001
 2
*D8
 10
-89.005038
 20
-41.193169
 11
-90.005038
 21
-38.193169
 13
-72.819970
 23
-47.393169
 14
-72.819970
 24
-41.193169
 50
90.000000
 0
DIMENSION
 8
001
 2
*D9
 10
-46.911725
 20
-39.193169
 11
-47.911725
 21
-49.852511
 13
-67.320879
 23
-49.393169
 14
-67.320879
 24
-39.193169
 50
90.000000
 0
TEXT
 8
001
 62
3
 10
91.996821
 20
-56.062172
 40
1.993800
 1
A
 41
0.700000
 7
STANDARD
 0
TEXT
 8
001
 62
3
 10
94.524248
 20
-56.062172
 40
1.993800
 1
P
 41
0.700000
 7
STANDARD
 0
TEXT
 8
001
 62
3
 10
97.051675
 20
-56.062172
 40
1.993800
 1
P
 41
0.700000
 7
STANDARD
 0
TEXT
 8
001
 62
3
 10
99.579102
 20
-56.062172
 40
1.993800
 1
D
 41
0.700000
 7
STANDARD
 0
TEXT
 8
001
 62
3
 10
104.049020
 20
-55.851400
 40
1.993800
 1
C
 41
0.700000
 7
STANDARD
 0
TEXT
 8
001
 62
3
 10
106.576447
 20
-55.851400
 40
1.993800
 1
H
 41
0.700000
 7
STANDARD
 0
TEXT
 8
001
 62
3
 10
109.103874
 20
-55.851400
 40
1.993800
 1
C
 41
0.700000
 7
STANDARD
 0
TEXT
 8
001
 62
3
 10
111.631301
 20
-55.851400
 40
1.993800
 1
K
 41
0.700000
 7
STANDARD
 0
TEXT
 8
001
 62
3
 10
116.327493
 20
-55.769433
 40
1.993800
 1
DESN
 41
1.216762
 7
STANDARD
 0
TEXT
 8
001
 62
3
 10
91.146256
 20
-79.521994
 40
3.190080
 1
作成日
 41
1.017226
 7
STANDARD
 0
LINE
 8
001
 62
3
 10
126.511732
 20
-74.032892
 11
126.511732
 21
-53.097992
 0
TEXT
 8
001
 62
3
 10
128.871524
 20
-55.683880
 40
1.794420
 1
D
 41
0.666667
 7
STANDARD
 0
TEXT
 8
001
 62
3
 10
131.679421
 20
-55.683880
 40
1.794420
 1
E
 41
0.666667
 7
STANDARD
 0
TEXT
 8
001
 62
3
 10
134.487317
 20
-55.683880
 40
1.794420
 1
F
 41
0.666667
 7
STANDARD
 0
TEXT
 8
001
 62
3
 10
128.871524
 20
-59.664057
 40
3.190080
 1
製図
 41
1.076369
 7
STANDARD
 0
TEXT
 8
001
 62
3
 10
36.575508
 20
-60.081353
 40
3.190080
 1
部品名
 41
0.959524
 7
STANDARD
 0
TEXT
 8
001
 62
3
 10
36.033152
 20
-77.061465
 40
2.591940
 1
１
 41
0.884615
 7
STANDARD
 0
TEXT
 8
001
 62
3
 10
40.392368
 20
-77.061465
 40
2.591940
 1
台
 41
0.884615
 7
STANDARD
 0
TEXT
 8
001
 62
3
 10
44.751585
 20
-77.061465
 40
2.591940
 1
分
 41
0.884615
 7
STANDARD
 0
TEXT
 8
001
 62
3
 10
36.033152
 20
-80.550615
 40
2.591940
 1
個
 41
0.884615
 7
STANDARD
 0
TEXT
 8
001
 62
3
 10
44.751585
 20
-80.550615
 40
2.591940
 1
数
 41
0.884615
 7
STANDARD
 0
TEXT
 8
001
 62
3
 10
38.891982
 20
-89.779192
 40
4.386360
 1
日動工業株式会社
 41
0.833333
 7
STANDARD
 0
TEXT
 8
001
 62
3
 10
37.379329
 20
-84.603412
 40
2.591940
 1
NICHIDO IND.CO.,LTD
 41
0.949051
 7
STANDARD
 0
TEXT
 8
001
 62
3
 10
59.294730
 20
-77.814051
 40
2.591940
 1
3AD
 41
1.013213
 7
STANDARD
 0
TEXT
 8
001
 62
3
 10
59.294730
 20
-80.635030
 40
2.591940
 1
三角法
 41
0.844344
 7
STANDARD
 0
TEXT
 8
001
 62
3
 10
78.162211
 20
-84.984676
 40
2.880000
 1
出図コード
 41
0.699326
 7
STANDARD
 0
TEXT
 8
001
 62
3
 10
78.162211
 20
-89.052796
 40
2.880000
 1
HM-A4
 41
0.839192
 7
STANDARD
 0
LINE
 8
001
 62
3
 10
-0.281212
 20
96.548184
 11
-0.281212
 21
97.548184
 0
LINE
 8
001
 62
3
 10
54.833686
 20
85.551921
 11
138.433686
 21
85.551921
 0
TEXT
 8
001
 62
3
 10
127.708686
 20
81.406921
 40
3.040000
 1
担
 41
0.859375
 7
STANDARD
 0
TEXT
 8
001
 62
3
 10
134.596186
 20
81.406921
 40
3.040000
 1
当
 41
0.859375
 7
STANDARD
 0
TEXT
 8
001
 62
3
 10
87.512910
 20
81.389759
 40
3.040000
 1
変更・追記内容
 41
1.182726
 7
STANDARD
 0
LINE
 8
001
 62
3
 10
54.833686
 20
90.057310
 11
54.833686
 21
70.701921
 0
TEXT
 8
001
 62
3
 10
58.606391
 20
76.452745
 40
2.432000
 1
1
 41
1.499999
 7
STANDARD
 0
TEXT
 8
001
 62
3
 10
58.606391
 20
71.296534
 40
2.432000
 1
2
 41
1.000000
 7
STANDARD
 0
TEXT
 8
001
 62
3
 10
67.792635
 20
81.966286
 40
3.200000
 1
日
 41
0.859375
 7
STANDARD
 0
TEXT
 8
001
 62
3
 10
76.669509
 20
81.966286
 40
3.200000
 1
付
 41
0.859375
 7
STANDARD
 0
TEXT
 8
001
 62
3
 10
67.618477
 20
86.201921
 40
3.200000
 1
図
 41
0.859375
 7
STANDARD
 0
TEXT
 8
001
 62
3
 10
86.274372
 20
86.201921
 40
3.200000
 1
面
 41
0.859375
 7
STANDARD
 0
TEXT
 8
001
 62
3
 10
104.930267
 20
86.201921
 40
3.200000
 1
略
 41
0.859375
 7
STANDARD
 0
TEXT
 8
001
 62
3
 10
123.586162
 20
86.201921
 40
3.200000
 1
歴
 41
0.859375
 7
STANDARD
 0
TEXT
 8
001
 62
3
 10
55.436050
 20
81.326921
 40
3.200000
 1
記
 41
0.859375
 7
STANDARD
 0
TEXT
 8
001
 62
3
 10
61.688958
 20
81.326921
 40
3.200000
 1
号
 41
0.859375
 7
STANDARD
 0
LINE
 8
001
 62
3
 10
128.835042
 20
70.701921
 11
54.833686
 21
70.701921
 0
LINE
 8
001
 62
3
 10
136.985378
 20
70.701921
 11
128.835042
 21
70.701921
 0
LINE
 8
001
 62
3
 10
136.985378
 20
70.701921
 11
138.433686
 21
70.701921
 0
LINE
 8
001
 10
59.651391
 20
79.862676
 11
57.751391
 21
76.571779
 0
LINE
 8
001
 10
59.651391
 20
79.862676
 11
61.551391
 21
76.571779
 0
LINE
 8
001
 10
57.751391
 20
76.571779
 11
61.551391
 21
76.571779
 0
LINE
 8
001
 10
59.651391
 20
74.706466
 11
57.751391
 21
71.415569
 0
LINE
 8
001
 10
59.651391
 20
74.706466
 11
61.551391
 21
71.415569
 0
LINE
 8
001
 10
57.751391
 20
71.415569
 11
61.551391
 21
71.415569
 0
LINE
 8
001
 62
3
 10
114.511732
 20
-74.032892
 11
114.511732
 21
-53.097992
 0
LINE
 8
001
 62
3
 10
102.511732
 20
-74.032892
 11
102.511732
 21
-53.097992
 0
LINE
 8
001
 62
3
 10
90.511732
 20
-74.032892
 11
90.511732
 21
-53.097992
 0
LINE
 8
001
 62
3
 10
102.511732
 20
-74.032892
 11
102.511732
 21
-81.011192
 0
LINE
 8
001
 62
3
 10
90.511732
 20
-74.032892
 11
90.511732
 21
-81.011192
 0
LINE
 8
001
 62
3
 10
90.511732
 20
-81.011192
 11
90.511732
 21
-90.000000
 0
LINE
 8
001
 62
3
 10
77.696712
 20
-85.531325
 11
90.511732
 21
-85.531325
 0
LINE
 8
001
 62
3
 10
77.696712
 20
-67.054592
 11
77.696712
 21
-90.000000
 0
LINE
 8
001
 62
3
 10
66.986352
 20
-67.054592
 11
66.986352
 21
-81.011192
 0
LINE
 8
001
 62
3
 10
59.008227
 20
-74.032892
 11
59.008227
 21
-81.011192
 0
LINE
 8
001
 62
3
 10
35.415575
 20
-53.097992
 11
35.415575
 21
-90.000000
 0
LINE
 8
001
 62
3
 10
47.616265
 20
-53.097992
 11
47.616265
 21
-81.011192
 0
LINE
 8
001
 62
3
 10
35.415575
 20
-53.097992
 11
138.500000
 21
-53.097992
 0
LINE
 8
001
 62
3
 10
135.519519
 20
-81.011192
 11
105.730822
 21
-81.011192
 0
LINE
 8
001
 62
3
 10
135.519519
 20
-81.011192
 11
138.500000
 21
-81.011192
 0
LINE
 8
001
 62
3
 10
88.340879
 20
-81.011192
 11
80.254244
 21
-81.011192
 0
LINE
 8
001
 62
3
 10
88.340879
 20
-81.011192
 11
105.730822
 21
-81.011192
 0
LINE
 8
001
 62
3
 10
49.984537
 20
-81.011192
 11
35.415575
 21
-81.011192
 0
LINE
 8
001
 62
3
 10
58.190010
 20
-81.011192
 11
49.984537
 21
-81.011192
 0
LINE
 8
001
 62
3
 10
58.190010
 20
-81.011192
 11
80.254244
 21
-81.011192
 0
LINE
 8
001
 62
3
 10
50.284461
 20
-74.032892
 11
35.415575
 21
-74.032892
 0
LINE
 8
001
 62
3
 10
65.059971
 20
-74.032892
 11
50.284461
 21
-74.032892
 0
LINE
 8
001
 62
3
 10
65.059971
 20
-74.032892
 11
138.500000
 21
-74.032892
 0
LINE
 8
001
 62
3
 10
53.447812
 20
-67.054592
 11
35.415575
 21
-67.054592
 0
LINE
 8
001
 62
3
 10
84.696517
 20
-67.054592
 11
90.511732
 21
-67.054592
 0
LINE
 8
001
 62
3
 10
79.586488
 20
-67.054592
 11
84.696517
 21
-67.054592
 0
LINE
 8
001
 62
3
 10
57.578843
 20
-67.054592
 11
79.586488
 21
-67.054592
 0
LINE
 8
001
 62
3
 10
57.578843
 20
-67.054592
 11
53.447812
 21
-67.054592
 0
LINE
 8
001
 62
3
 10
49.011198
 20
-60.076292
 11
35.415575
 21
-60.076292
 0
LINE
 8
001
 62
3
 10
89.251969
 20
-60.076292
 11
138.500000
 21
-60.076292
 0
LINE
 8
001
 62
3
 10
85.302024
 20
-60.076292
 11
89.251969
 21
-60.076292
 0
LINE
 8
001
 62
3
 10
52.355635
 20
-60.076292
 11
49.011198
 21
-60.076292
 0
LINE
 8
001
 62
3
 10
55.818911
 20
-60.076292
 11
52.355635
 21
-60.076292
 0
LINE
 8
001
 62
3
 10
82.749839
 20
-60.076292
 11
55.818911
 21
-60.076292
 0
LINE
 8
001
 62
3
 10
82.749839
 20
-60.076292
 11
85.302024
 21
-60.076292
 0
LINE
 8
001
 62
3
 10
-71.195162
 20
-41.193169
 11
-72.819970
 21
-41.193169
 0
LINE
 8
001
 62
3
 10
-71.195162
 20
-47.393169
 11
-72.819970
 21
-47.393169
 0
LINE
 8
001
 62
3
 10
-68.602668
 20
-41.693169
 11
-70.476895
 21
-41.693169
 0
LINE
 8
001
 62
3
 10
-68.602668
 20
-46.893169
 11
-70.476895
 21
-46.893169
 0
ARC
 8
001
 62
3
 10
-72.819970
 20
-44.293169
 40
3.500000
 50
47.975372
 51
62.339550
 0
ARC
 8
001
 62
3
 10
-72.819970
 20
-44.293169
 40
3.500000
 50
297.660450
 51
312.024628
 0
LINE
 8
001
 6
CENTER
 10
-81.410719
 20
-44.293169
 11
-63.115729
 21
-44.293169
 0
LINE
 8
001
 6
CENTER
 10
-72.819970
 20
-35.613753
 11
-72.819970
 21
-52.813807
 0
TEXT
 8
001
 62
3
 10
80.254244
 20
-81.011192
 40
3.200000
 1
1/1
 41
1.072092
 7
STANDARD
 0
LINE
 8
001
 62
3
 10
-65.919067
 20
-41.355903
 11
-68.602668
 21
-41.693169
 0
LINE
 8
001
 62
3
 10
-65.919067
 20
-47.230435
 11
-68.602668
 21
-46.893169
 0
TEXT
 8
001
 62
3
 10
105.730822
 20
-81.011192
 40
3.200000
 1
2005.6.17
 41
1.357970
 7
STANDARD
 0
CIRCLE
 8
001
 62
3
 10
-72.819970
 20
-44.293169
 40
7.500000
 0
LINE
 8
001
 62
3
 10
7.393812
 20
-1.352494
 11
7.393812
 21
-5.135540
 0
LINE
 8
001
 62
3
 10
17.393812
 20
-4.262569
 11
17.393812
 21
-5.135540
 0
ARC
 8
001
 62
3
 10
22.394121
 20
-4.218204
 40
5.000000
 50
133.909628
 51
180.000000
 0
LINE
 8
001
 62
3
 10
18.955910
 20
2.188376
 11
27.651625
 21
10.559265
 0
LINE
 8
001
 62
3
 10
6.859434
 20
-6.635622
 11
17.859434
 21
-6.635622
 0
ARC
 8
001
 62
3
 10
17.859434
 20
-8.635622
 40
2.000000
 50
0.000000
 51
90.000000
 0
ARC
 8
001
 62
3
 10
6.859434
 20
-8.635622
 40
2.000000
 50
90.000000
 51
180.000000
 0
LINE
 8
001
 62
3
 10
6.557618
 20
-6.673909
 11
7.089876
 21
-5.173909
 0
LINE
 8
001
 62
3
 10
17.615407
 20
-5.135622
 11
7.103462
 21
-5.135622
 0
LINE
 8
001
 6
CENTER
 10
38.115115
 20
26.794251
 11
-13.445876
 21
26.794251
 0
LINE
 8
001
 62
3
 10
19.859434
 20
-17.635622
 11
19.859434
 21
-8.635622
 0
LINE
 8
001
 62
3
 10
4.859434
 20
-17.635622
 11
4.859434
 21
-8.635622
 0
LINE
 8
001
 62
3
 10
17.559434
 20
-10.435622
 11
7.159434
 21
-10.435622
 0
LINE
 8
001
 62
3
 10
17.559434
 20
-14.635622
 11
17.559434
 21
-10.435622
 0
ARC
 8
001
 62
3
 10
17.859434
 20
-17.635622
 40
2.000000
 50
270.000000
 51
0.000000
 0
LINE
 8
001
 62
3
 10
17.859434
 20
-19.635622
 11
14.859434
 21
-19.635622
 0
LINE
 8
001
 62
3
 10
6.859434
 20
-19.635622
 11
9.859434
 21
-19.635622
 0
ARC
 8
001
 62
3
 10
6.859434
 20
-17.635622
 40
2.000000
 50
180.000000
 51
270.000000
 0
LINE
 8
001
 62
3
 10
7.159434
 20
-14.635622
 11
7.159434
 21
-10.435622
 0
LINE
 8
001
 62
3
 10
15.459434
 20
-19.635622
 11
15.459434
 21
-14.635622
 0
LINE
 8
001
 62
3
 10
9.259434
 20
-19.635622
 11
9.259434
 21
-14.635622
 0
ARC
 8
001
 62
3
 10
12.394121
 20
26.408825
 40
22.000000
 50
313.909628
 51
168.279576
 0
LINE
 8
001
 62
3
 10
14.859434
 20
-19.635622
 11
9.859434
 21
-19.635622
 0
LINE
 8
001
 6
CENTER
 10
12.359434
 20
-20.855103
 11
12.359434
 21
52.522497
 0
ARC
 8
001
 62
3
 10
12.359434
 20
26.794251
 40
21.890875
 50
169.248937
 51
187.755701
 0
LINE
 8
001
 62
3
 10
18.161250
 20
-6.673909
 11
17.628992
 21
-5.173909
 0
LINE
 8
001
 62
3
 10
12.961670
 20
-4.687783
 11
14.863802
 21
-2.726649
 0
LINE
 8
001
 62
3
 10
10.808203
 20
-2.599104
 11
12.710334
 21
-0.637970
 0
ARC
 8
001
 62
3
 10
13.787068
 20
-1.682309
 40
1.500000
 50
315.874995
 51
135.874995
 0
ARC
 8
001
 62
3
 10
11.884936
 20
-3.643443
 40
1.500000
 50
135.874995
 51
315.874995
 0
ARC
 8
001
 62
3
 10
17.568864
 20
3.629245
 40
2.000000
 50
133.909622
 51
313.909628
 0
LINE
 8
001
 62
3
 10
-10.256170
 20
16.594702
 11
-8.430697
 21
18.667924
 0
LINE
 8
001
 62
3
 10
-12.507752
 20
18.577220
 11
-10.682279
 21
20.650443
 0
ARC
 8
001
 62
3
 10
-11.381961
 20
17.585961
 40
1.500000
 50
138.636077
 51
318.636074
 0
ARC
 8
001
 62
3
 10
-9.556488
 20
19.659183
 40
1.500000
 50
318.636074
 51
138.636074
 0
LINE
 8
001
 62
3
 10
-13.158354
 20
15.033409
 11
-16.963287
 21
17.657769
 0
ARC
 8
001
 62
3
 10
-16.530157
 20
18.285742
 40
0.762858
 50
68.020503
 51
235.404978
 0
LINE
 8
001
 62
3
 10
-3.519317
 20
21.976027
 11
-9.203456
 21
15.520448
 0
LINE
 8
001
 62
3
 10
-14.457903
 20
18.632239
 11
-11.318456
 21
22.197765
 0
LINE
 8
001
 6
HIDDEN
 62
15
 10
-4.407120
 20
20.967733
 11
-4.102087
 21
21.314164
 0
ARC
 8
001
 62
3
 10
-11.693720
 20
22.528185
 40
0.500000
 50
318.636074
 51
10.057391
 0
ARC
 8
001
 62
3
 10
-11.455037
 20
17.502967
 40
3.000000
 50
235.404978
 51
318.636074
 0
LINE
 8
001
 62
3
 10
8.926198
 20
2.249679
 11
22.796964
 21
15.602307
 0
ARC
 8
001
 62
3
 10
12.394121
 20
26.408825
 40
15.000000
 50
313.909628
 51
185.404186
 0
ARC
 8
001
 62
3
 10
-6.521426
 20
24.619385
 40
4.000000
 50
318.636074
 51
5.404186
 0
ARC
 8
001
 62
3
 10
12.393812
 20
-1.352494
 40
5.000000
 50
133.909628
 51
180.000000
 0
LINE
 8
001
 6
HIDDEN
 62
15
 10
8.926198
 20
2.249679
 11
8.232983
 21
1.582360
 0
LINE
 8
001
 62
3
 10
16.181818
 20
5.070114
 11
14.034727
 21
7.167380
 0
LINE
 8
001
 62
3
 10
20.529676
 20
9.255559
 11
18.291369
 21
11.265017
 0
LINE
 8
001
 62
3
 10
-14.457903
 20
18.632239
 11
-14.853819
 21
18.137457
 0
LINE
 8
001
 62
3
 10
-16.244639
 20
18.993154
 11
-14.853819
 21
18.137457
 0
TEXT
 8
001
 62
3
 10
59.093655
 20
-59.493390
 40
4.500000
 1
丸フック
 41
0.800576
 7
STANDARD
 0
TEXT
 8
001
 62
3
 10
55.540656
 20
-66.894813
 40
4.500000
 1
BH-SH
 41
0.960691
 7
STANDARD
 0
ARC
 8
001
 62
3
 10
12.394121
 20
26.408825
 40
25.000000
 50
313.909628
 51
174.046864
 0
LINE
 8
001
 62
3
 10
18.926506
 20
-0.616031
 11
29.732193
 21
8.397961
 0
LINE
 8
001
 62
3
 10
-11.201403
 20
22.615502
 11
-12.471056
 21
29.001700
 0
ARC
 8
001
 62
3
 10
12.394121
 20
26.408825
 40
18.500000
 50
313.909628
 51
186.644741
 0
LINE
 8
001
 62
3
 10
16.181818
 20
5.070114
 11
25.224295
 21
13.080786
 0
ARC
 8
001
 62
3
 10
-7.654549
 20
24.038330
 40
1.688324
 50
186.743177
 51
6.743177
 0
LINE
 8
001
 62
3
 10
23.305905
 20
6.375878
 11
25.216547
 21
4.374781
 0
LINE
 8
001
 62
3
 10
19.045984
 20
2.275086
 11
20.606295
 21
0.752440
 0
LINE
 8
001
 62
3
 10
-5.599394
 20
30.708061
 11
-2.211843
 21
29.824352
 0
LINE
 8
001
 62
3
 10
-8.963109
 20
31.687908
 11
-11.845539
 21
32.527558
 0
ARC
 8
001
 62
3
 10
-72.819970
 20
-44.293169
 40
3.100000
 50
90.000000
 51
270.000000
 0
LINE
 8
001
 62
3
 10
17.559434
 20
-14.635622
 11
7.159434
 21
-14.635622
 0
TEXT
 8
001
 62
3
 10
93.569746
 20
-90.000000
 40
6.300000
 1
K-BH-SH
 41
0.814934
 7
STANDARD
 0
LINE
 8
001
 62
3
 10
-67.319970
 20
-6.635622
 11
-78.319970
 21
-6.635622
 0
ARC
 8
001
 62
3
 10
-78.319970
 20
-8.635622
 40
2.000000
 50
90.000000
 51
180.000000
 0
ARC
 8
001
 62
3
 10
-67.319970
 20
-8.635622
 40
2.000000
 50
0.000000
 51
90.000000
 0
LINE
 8
001
 62
3
 10
-67.018154
 20
-6.673909
 11
-67.550412
 21
-5.173909
 0
LINE
 8
001
 62
3
 10
-80.319970
 20
-17.635622
 11
-80.319970
 21
-8.635622
 0
LINE
 8
001
 62
3
 10
-65.319970
 20
-17.635622
 11
-65.319970
 21
-8.635622
 0
ARC
 8
001
 62
3
 10
-78.319970
 20
-17.635622
 40
2.000000
 50
180.000000
 51
270.000000
 0
LINE
 8
001
 62
3
 10
-78.319970
 20
-19.635622
 11
-75.319970
 21
-19.635622
 0
LINE
 8
001
 62
3
 10
-67.319970
 20
-19.635622
 11
-70.319970
 21
-19.635622
 0
ARC
 8
001
 62
3
 10
-67.319970
 20
-17.635622
 40
2.000000
 50
270.000000
 51
0.000000
 0
LINE
 8
001
 62
3
 10
-75.319970
 20
-19.635622
 11
-70.319970
 21
-19.635622
 0
LINE
 8
001
 6
CENTER
 10
-72.819970
 20
-20.855103
 11
-72.819970
 21
52.522497
 0
LINE
 8
001
 62
3
 10
-78.621786
 20
-6.673909
 11
-78.089528
 21
-5.173909
 0
LINE
 8
001
 62
3
 10
-78.075943
 20
-5.135622
 11
-67.563998
 21
-5.135622
 0
LINE
 8
001
 62
3
 10
-77.319970
 20
51.408801
 11
-68.319970
 21
51.408801
 0
LINE
 8
001
 62
3
 10
-67.819970
 20
50.908801
 11
-67.819970
 21
8.592751
 0
LINE
 8
001
 62
3
 10
-77.819970
 20
50.908801
 11
-77.819970
 21
8.592751
 0
ARC
 8
001
 62
3
 10
-68.319970
 20
50.908801
 40
0.500000
 50
0.000000
 51
90.000000
 0
ARC
 8
001
 62
3
 10
-77.319970
 20
50.908801
 40
0.500000
 50
90.000000
 51
180.000000
 0
LINE
 8
001
 62
3
 10
-69.819970
 20
14.502967
 11
-75.819970
 21
14.502967
 0
LINE
 8
001
 62
3
 10
-67.819970
 20
29.824352
 11
-69.819970
 21
21.755361
 0
LINE
 8
001
 62
3
 10
-69.819970
 20
2.275086
 11
-67.819970
 21
8.592751
 0
LINE
 8
001
 62
3
 10
-77.819970
 20
29.824352
 11
-75.819970
 21
21.755361
 0
LINE
 8
001
 62
3
 10
-75.819970
 20
2.275086
 11
-77.819970
 21
8.592751
 0
LINE
 8
001
 62
3
 10
-75.819970
 20
21.755361
 11
-75.819970
 21
14.502967
 0
LINE
 8
001
 62
3
 10
-69.819970
 20
21.755361
 11
-69.819970
 21
14.502967
 0
LINE
 8
001
 62
3
 10
-75.819970
 20
2.275086
 11
-75.819970
 21
-5.135622
 0
LINE
 8
001
 62
3
 10
-69.819970
 20
2.275086
 11
-69.819970
 21
-5.135622
 0
POLYLINE
 8
001
 66
1
 0
VERTEX
 8
001
 10
-13.401912
 20
14.646360
 0
VERTEX
 8
001
 10
-12.297517
 20
16.397787
 0
VERTEX
 8
001
 10
-14.129665
 20
15.433204
 0
SEQEND
 8
001
 0
LINE
 8
001
 10
-12.297517
 20
16.397787
 11
-21.500735
 21
7.885724
 0
LINE
 8
001
 10
-21.500735
 20
7.885724
 11
-43.500735
 21
7.885724
 0
TEXT
 8
001
 62
4
 10
-40.750735
 20
8.885724
 40
3.200000
 1
２－３×５穴
 41
0.716146
 7
STANDARD
 0
LINE
 8
001
 62
3
 10
-138.500000
 20
90.000000
 11
-138.500000
 21
-90.000000
 0
LINE
 8
001
 62
3
 10
138.500000
 20
-90.000000
 11
138.500000
 21
90.000000
 0
LINE
 8
001
 62
3
 10
-138.500000
 20
90.000000
 11
138.500000
 21
90.000000
 0
TEXT
 8
001
 62
3
 10
36.212658
 20
-56.183523
 40
1.993800
 1
CONPONENTS
 41
0.533160
 7
STANDARD
 0
TEXT
 8
001
 62
3
 10
36.410462
 20
-73.882149
 40
2.990700
 1
材
 41
0.833333
 7
STANDARD
 0
TEXT
 8
001
 62
3
 10
43.922744
 20
-73.882149
 40
2.990700
 1
質
 41
0.833333
 7
STANDARD
 0
TEXT
 8
001
 62
3
 10
36.623162
 20
-63.204690
 40
1.993800
 1
MODEL
 41
1.031073
 7
STANDARD
 0
TEXT
 8
001
 62
3
 10
36.410462
 20
-70.211256
 40
1.993800
 1
MATERIAL
 41
0.659278
 7
STANDARD
 0
TEXT
 8
001
 62
3
 10
67.688124
 20
-74.118762
 40
2.990700
 1
備
 41
0.833333
 7
STANDARD
 0
TEXT
 8
001
 62
3
 10
74.400254
 20
-74.118762
 40
2.990700
 1
考
 41
0.833333
 7
STANDARD
 0
TEXT
 8
001
 62
3
 10
67.441881
 20
-70.447869
 40
1.993800
 1
REMARKS
 41
0.675794
 7
STANDARD
 0
TEXT
 8
001
 62
3
 10
67.954342
 20
-77.320377
 40
1.993800
 1
SCALE
 41
0.771963
 7
STANDARD
 0
TEXT
 8
001
 62
3
 10
67.817971
 20
-80.809527
 40
2.990700
 1
尺
 41
0.833333
 7
STANDARD
 0
TEXT
 8
001
 62
3
 10
74.530101
 20
-80.809527
 40
2.990700
 1
度
 41
0.833333
 7
STANDARD
 0
TEXT
 8
001
 62
3
 10
92.861478
 20
-59.797943
 40
2.990700
 1
承認
 41
1.089473
 7
STANDARD
 0
TEXT
 8
001
 62
3
 10
105.181184
 20
-59.644720
 40
2.990700
 1
検図
 41
0.931761
 7
STANDARD
 0
TEXT
 8
001
 62
3
 10
117.181094
 20
-59.562753
 40
2.990700
 1
設
 41
0.833333
 7
STANDARD
 0
TEXT
 8
001
 62
3
 10
121.657044
 20
-59.562753
 40
2.990700
 1
計
 41
0.833333
 7
STANDARD
 0
TEXT
 8
001
 62
3
 10
36.623162
 20
-67.054592
 40
2.990700
 1
品
 41
0.833333
 7
STANDARD
 0
TEXT
 8
001
 62
3
 10
44.147854
 20
-67.054592
 40
2.990700
 1
番
 41
0.833333
 7
STANDARD
 0
LINE
 8
001
 62
3
 10
91.623068
 20
-90.000000
 11
-138.500000
 21
-90.000000
 0
LINE
 8
001
 62
3
 10
137.098365
 20
-90.000000
 11
138.500000
 21
-90.000000
 0
LINE
 8
001
 62
3
 10
134.908352
 20
-90.000000
 11
137.098365
 21
-90.000000
 0
LINE
 8
001
 62
3
 10
93.569746
 20
-90.000000
 11
134.908352
 21
-90.000000
 0
LINE
 8
001
 62
3
 10
93.569746
 20
-90.000000
 11
91.623068
 21
-90.000000
 0
LINE
 8
001
 10
64.939120
 20
85.551921
 11
64.939120
 21
70.701921
 0
LINE
 8
001
 10
128.500280
 20
75.651921
 11
54.833686
 21
75.651921
 0
LINE
 8
001
 10
136.748813
 20
75.651921
 11
128.500280
 21
75.651921
 0
LINE
 8
001
 10
136.748813
 20
75.651921
 11
138.433686
 21
75.651921
 0
LINE
 8
001
 10
126.836161
 20
85.551921
 11
126.836161
 21
70.701921
 0
LINE
 8
001
 10
82.544446
 20
85.551921
 11
82.544446
 21
70.701921
 0
LINE
 8
001
 10
54.833686
 20
80.601921
 11
138.433686
 21
80.601921
 0
LINE
 8
001
 62
3
 10
138.399964
 20
-47.097992
 11
86.700600
 21
-47.097992
 0
LINE
 8
001
 62
3
 10
112.700600
 20
-53.097992
 11
112.700600
 21
-47.097992
 0
LINE
 8
001
 62
3
 10
86.700600
 20
-53.097992
 11
86.700600
 21
-47.097992
 0
TEXT
 8
001
 62
3
 10
87.850114
 20
-52.541906
 40
4.500000
 1
コード
 41
0.833333
 7
STANDARD
 0
TEXT
 8
001
 10
114.093391
 20
-52.599635
 40
4.500000
 1
29627
 41
1.000000
 7
STANDARD
 0
ARC
 8
001
 6
DASHED
 10
-72.819970
 20
-44.293169
 40
5.100000
 50
90.000000
 51
270.000000
 0
LINE
 8
001
 6
DASHED
 10
-72.819970
 20
-39.193169
 11
-67.320879
 21
-39.193169
 0
LINE
 8
001
 6
DASHED
 10
-72.819970
 20
-49.393169
 11
-67.320879
 21
-49.393169
 0
TEXT
 8
001
 62
3
 10
77.823058
 20
-71.000587
 40
3.200000
 1
耐候性
 41
0.833333
 7
STANDARD
 0
TEXT
 8
001
 62
3
 10
77.949404
 20
-74.159238
 40
3.200000
 1
グレード
 41
0.833333
 7
STANDARD
 0
TEXT
 8
001
 62
3
 10
50.284461
 20
-74.032892
 40
3.200000
 1
PA6
 41
1.000000
 7
STANDARD
 0
ENDSEC
 0
EOF
