 0
SECTION
 2
HEADER
 9
$ACADVER
 1
AC1003
 9
$EXTMIN
 10
-138.500000
 20
-90.000000
 9
$EXTMAX
 10
138.500000
 20
98.548187
 9
$LIMMIN
 10
-138.501000
 20
-90.001000
 9
$LIMMAX
 10
138.501000
 20
98.549187
 9
$SNAPUNIT
 10
1
 20
1
 9
$SNAPBASE
 10
0
 20
0
 9
$GRIDMODE
 70
0
 9
$GRIDUNIT
 10
0
 20
0
 9
$LTSCALE
 40
4.616667
 9
$TEXTSIZE
 40
3.2
 9
$DIMTAD
 70
0
 9
$LUNITS
 70
2
 9
$LUPREC
 70
4
 9
$FILLETRAD
 40
0
 9
$AUNITS
 70
0
 9
$AUPREC
 70
0
 0
ENDSEC
 0
SECTION
 2
TABLES
 0
TABLE
 2
LTYPE
 70
25
  0
LTYPE
  2
CONTINUOUS
 70
    64
  3
Solid-line
 72
    65
 73
     0
 40
0.0
  0
LTYPE
  2
BORDER
 70
    64
  3
BORDER
 72
    65
 73
     6
 40
1.75
 49
0.5
 49
-0.25
 49
0.5
 49
-0.25
 49
0.0
 49
-0.25
  0
LTYPE
  2
BORDER2
 70
    64
  3
BORDER2
 72
    65
 73
     6
 40
0.875
 49
0.25
 49
-0.125
 49
0.25
 49
-0.125
 49
0.0
 49
-0.125
  0
LTYPE
  2
BORDERX2
 70
    64
  3
BORDERX2
 72
    65
 73
     6
 40
3.5
 49
1.0
 49
-0.5
 49
1.0
 49
-0.5
 49
0.0
 49
-0.5
  0
LTYPE
  2
CENTER
 70
    64
  3
CENTER
 72
    65
 73
     4
 40
2.0
 49
1.25
 49
-0.25
 49
0.25
 49
-0.25
  0
LTYPE
  2
CENTER2
 70
    64
  3
CENTER2
 72
    65
 73
     4
 40
1.125
 49
0.75
 49
-0.125
 49
0.125
 49
-0.125
  0
LTYPE
  2
CENTERX2
 70
    64
  3
CENTERX2
 72
    65
 73
     4
 40
4.0
 49
2.5
 49
-0.5
 49
0.5
 49
-0.5
  0
LTYPE
  2
DASHDOT
 70
    64
  3
DASHDOT
 72
    65
 73
     4
 40
1.0
 49
0.5
 49
-0.25
 49
0.0
 49
-0.25
  0
LTYPE
  2
DASHDOT2
 70
    64
  3
DASHDOT2
 72
    65
 73
     4
 40
0.5
 49
0.25
 49
-0.125
 49
0.0
 49
-0.125
  0
LTYPE
  2
DASHDOTX2
 70
    64
  3
DASHDOTX2
 72
    65
 73
     4
 40
2.0
 49
1.0
 49
-0.5
 49
0.0
 49
-0.5
  0
LTYPE
  2
DASHED
 70
    64
  3
DASHED
 72
    65
 73
     2
 40
0.75
 49
0.5
 49
-0.25
  0
LTYPE
  2
DASHED2
 70
    64
  3
DASHED2
 72
    65
 73
     2
 40
0.375
 49
0.25
 49
-0.125
  0
LTYPE
  2
DASHEDX2
 70
    64
  3
DASHEDX2
 72
    65
 73
     2
 40
1.5
 49
1.0
 49
-0.5
  0
LTYPE
  2
DIVIDE
 70
    64
  3
DIVIDE
 72
    65
 73
     6
 40
1.25
 49
0.5
 49
-0.25
 49
0.0
 49
-0.25
 49
0.0
 49
-0.25
  0
LTYPE
  2
DIVIDE2
 70
    64
  3
DIVIDE2
 72
    65
 73
     6
 40
0.625
 49
0.25
 49
-0.125
 49
0.0
 49
-0.125
 49
0.0
 49
-0.125
  0
LTYPE
  2
DIVIDEX2
 70
    64
  3
DIVIDEX2
 72
    65
 73
     6
 40
2.5
 49
1.0
 49
-0.5
 49
0.0
 49
-0.5
 49
0.0
 49
-0.5
  0
LTYPE
  2
DOT
 70
    64
  3
DOT
 72
    65
 73
     2
 40
0.25
 49
0.0
 49
-0.25
  0
LTYPE
  2
DOT2
 70
    64
  3
DOT2
 72
    65
 73
     2
 40
0.125
 49
0.0
 49
-0.125
  0
LTYPE
  2
DOTX2
 70
    64
  3
DOTX2
 72
    65
 73
     2
 40
0.5
 49
0.0
 49
-0.5
  0
LTYPE
  2
HIDDEN
 70
    64
  3
HIDDEN
 72
    65
 73
     2
 40
0.375
 49
0.25
 49
-0.125
  0
LTYPE
  2
HIDDEN2
 70
    64
  3
HIDDEN2
 72
    65
 73
     2
 40
0.1875
 49
0.125
 49
-0.0625
  0
LTYPE
  2
HIDDENX2
 70
    64
  3
HIDDENX2
 72
    65
 73
     2
 40
0.75
 49
0.5
 49
-0.25
  0
LTYPE
  2
PHANTOM
 70
    64
  3
PHANTOM
 72
    65
 73
     6
 40
2.5
 49
1.25
 49
-0.25
 49
0.25
 49
-0.25
 49
0.25
 49
-0.25
  0
LTYPE
  2
PHANTOM2
 70
    64
  3
PHANTOM2
 72
    65
 73
     6
 40
1.25
 49
0.625
 49
-0.125
 49
0.125
 49
-0.125
 49
0.125
 49
-0.125
  0
LTYPE
  2
PHANTOMX2
 70
    64
  3
PHANTOMX2
 72
    65
 73
     6
 40
5.0
 49
2.5
 49
-0.5
 49
0.5
 49
-0.5
 49
0.5
 49
-0.5
 0
ENDTAB
 0
TABLE
 2
LAYER
 70
1
 0
LAYER
 2
001
 70
0
 62
7
 6
CONTINUOUS
 0
ENDTAB
 0
TABLE
 2
STYLE
 70
2
 0
STYLE
 2
STANDARD
 70
0
 40
0
 41
1
 50
0
 71
0
 42
.2
 3
TXT
 4
BIGFONT
 0
STYLE
 2
TATEGAKI
 70
4
 40
1
 41
1
 50
0
 71
0
 42
.2
 3
TXT
 4
BIGFONT
 0
ENDTAB
 0
ENDSEC
 0
SECTION
 2
BLOCKS
 0
BLOCK
 8
0
 2
ARROW
 70
0
 10
0
 20
0
 0
POLYLINE
 8
0
 6
CONTINUOUS
 62
0
 66
1
 0
VERTEX
 8
0
 6
CONTINUOUS
 62
0
 10
2.000000
 20
0.535898
 0
VERTEX
 8
0
 6
CONTINUOUS
 62
0
 10
0.0
 20
0.0
 0
VERTEX
 8
0
 6
CONTINUOUS
 62
0
 10
2.000000
 20
-0.535898
 0
SEQEND
 8
0
 0
ENDBLK
 8
0
 0
BLOCK
 8
001
 2
*D0
 70
1
 10
0.0
 20
0.0
 0
LINE
 8
001
 10
5.734606
 20
-35.724883
 11
5.734606
 21
-44.638455
 0
LINE
 8
001
 10
11.934606
 20
-35.724883
 11
11.934606
 21
-44.638455
 0
LINE
 8
001
 10
5.734606
 20
-43.638455
 11
11.934606
 21
-43.638455
 0
INSERT
 8
001
 62
7
 2
ARROW
 6
BYBLOCK
 10
5.734606
 20
-43.638455
 41
1.000000
 42
1.000000
 50
180.000000
 0
INSERT
 8
001
 62
7
 2
ARROW
 6
BYBLOCK
 10
11.934606
 20
-43.638455
 41
1.000000
 42
1.000000
 0
TEXT
 8
001
 10
20.938126
 20
-42.638455
 40
3.200000
 1
6
 41
0.859375
 7
STANDARD
 0
POINT
 8
001
 10
5.734606
 20
-34.724883
 0
POINT
 8
001
 10
11.934606
 20
-34.724883
 0
POINT
 8
001
 10
11.934606
 20
-43.638455
 0
LINE
 8
001
 10
5.734606
 20
-43.638455
 11
2.734606
 21
-43.638455
 0
LINE
 8
001
 10
11.934606
 20
-43.638455
 11
23.688126
 21
-43.638455
 0
ENDBLK
 8
001
 0
BLOCK
 8
001
 2
*D1
 70
1
 10
0.0
 20
0.0
 0
LINE
 8
001
 10
-13.140608
 20
37.195267
 11
30.809820
 21
13.354968
 0
INSERT
 8
001
 62
7
 2
ARROW
 6
BYBLOCK
 10
-13.140608
 20
37.195267
 41
1.000000
 42
1.000000
 50
331.522997
 0
INSERT
 8
001
 62
7
 2
ARROW
 6
BYBLOCK
 10
30.809820
 20
13.354968
 41
1.000000
 42
1.000000
 50
151.522997
 0
TEXT
 8
001
 10
18.928691
 20
20.937366
 40
3.200000
 1
%%c50
 50
331.523012
 41
0.909927
 7
STANDARD
 0
POINT
 8
001
 10
-13.140608
 20
37.195267
 0
POINT
 8
001
 10
30.809820
 20
13.354968
 0
ENDBLK
 8
001
 0
BLOCK
 8
001
 2
*D2
 70
1
 10
0.0
 20
0.0
 0
LINE
 8
001
 10
-35.902266
 20
16.662166
 11
-35.902266
 21
71.427676
 0
LINE
 8
001
 10
45.834606
 20
26.275117
 11
45.834606
 21
71.427676
 0
LINE
 8
001
 10
-35.902266
 20
70.427676
 11
45.834606
 21
70.427676
 0
INSERT
 8
001
 62
7
 2
ARROW
 6
BYBLOCK
 10
-35.902266
 20
70.427676
 41
1.000000
 42
1.000000
 0
INSERT
 8
001
 62
7
 2
ARROW
 6
BYBLOCK
 10
45.834606
 20
70.427676
 41
1.000000
 42
1.000000
 50
180.000000
 0
TEXT
 8
001
 10
2.216170
 20
71.427676
 40
3.200000
 1
82
 41
0.859375
 7
STANDARD
 0
POINT
 8
001
 10
-35.902266
 20
15.662166
 0
POINT
 8
001
 10
45.834606
 20
25.275117
 0
POINT
 8
001
 10
45.834606
 20
70.427676
 0
ENDBLK
 8
001
 0
BLOCK
 8
001
 2
*D3
 70
1
 10
0.0
 20
0.0
 0
LINE
 8
001
 10
-78.269962
 20
53.775117
 11
-78.269962
 21
71.427676
 0
LINE
 8
001
 10
-66.269962
 20
53.775117
 11
-66.269962
 21
71.427676
 0
LINE
 8
001
 10
-78.269962
 20
70.427676
 11
-66.269962
 21
70.427676
 0
INSERT
 8
001
 62
7
 2
ARROW
 6
BYBLOCK
 10
-78.269962
 20
70.427676
 41
1.000000
 42
1.000000
 0
INSERT
 8
001
 62
7
 2
ARROW
 6
BYBLOCK
 10
-66.269962
 20
70.427676
 41
1.000000
 42
1.000000
 50
180.000000
 0
TEXT
 8
001
 10
-75.019962
 20
71.427676
 40
3.200000
 1
12
 41
1.031250
 7
STANDARD
 0
POINT
 8
001
 10
-78.269962
 20
52.775117
 0
POINT
 8
001
 10
-66.269962
 20
52.775117
 0
POINT
 8
001
 10
-66.269962
 20
70.427676
 0
ENDBLK
 8
001
 0
BLOCK
 8
001
 2
*D4
 70
1
 10
0.0
 20
0.0
 0
LINE
 8
001
 10
0.334606
 20
-33.724883
 11
0.334606
 21
-53.854484
 0
LINE
 8
001
 10
17.334606
 20
-33.724883
 11
17.334606
 21
-53.854484
 0
LINE
 8
001
 10
0.334606
 20
-52.854484
 11
17.334606
 21
-52.854484
 0
INSERT
 8
001
 62
7
 2
ARROW
 6
BYBLOCK
 10
0.334606
 20
-52.854484
 41
1.000000
 42
1.000000
 0
INSERT
 8
001
 62
7
 2
ARROW
 6
BYBLOCK
 10
17.334606
 20
-52.854484
 41
1.000000
 42
1.000000
 50
180.000000
 0
TEXT
 8
001
 10
5.187432
 20
-51.854484
 40
3.200000
 1
%%c17
 41
0.966797
 7
STANDARD
 0
POINT
 8
001
 10
0.334606
 20
-32.724883
 0
POINT
 8
001
 10
17.334606
 20
-32.724883
 0
POINT
 8
001
 10
17.334606
 20
-52.854484
 0
ENDBLK
 8
001
 0
BLOCK
 8
001
 2
*D5
 70
1
 10
0.0
 20
0.0
 0
LINE
 8
001
 10
-79.769962
 20
-34.724883
 11
-98.516908
 21
-34.724883
 0
LINE
 8
001
 10
-73.269962
 20
62.275117
 11
-98.516908
 21
62.275117
 0
LINE
 8
001
 10
-97.516908
 20
-34.724883
 11
-97.516908
 21
62.275117
 0
INSERT
 8
001
 62
7
 2
ARROW
 6
BYBLOCK
 10
-97.516908
 20
-34.724883
 41
1.000000
 42
1.000000
 50
90.000000
 0
INSERT
 8
001
 62
7
 2
ARROW
 6
BYBLOCK
 10
-97.516908
 20
62.275117
 41
1.000000
 42
1.000000
 50
270.000000
 0
TEXT
 8
001
 10
-98.516908
 20
11.025117
 40
3.200000
 1
97
 50
90.000003
 41
0.859375
 7
STANDARD
 0
POINT
 8
001
 10
-78.769962
 20
-34.724883
 0
POINT
 8
001
 10
-72.269962
 20
62.275117
 0
POINT
 8
001
 10
-97.516908
 20
62.275117
 0
ENDBLK
 8
001
 0
BLOCK
 8
001
 2
*D6
 70
1
 10
0.0
 20
0.0
 0
LINE
 8
001
 10
-64.624663
 20
-48.978454
 11
-44.795466
 21
-48.978454
 0
LINE
 8
001
 10
-64.624663
 20
-59.578454
 11
-44.795466
 21
-59.578454
 0
LINE
 8
001
 10
-45.795466
 20
-48.978454
 11
-45.795466
 21
-59.578454
 0
INSERT
 8
001
 62
7
 2
ARROW
 6
BYBLOCK
 10
-45.795466
 20
-48.978454
 41
1.000000
 42
1.000000
 50
270.000000
 0
INSERT
 8
001
 62
7
 2
ARROW
 6
BYBLOCK
 10
-45.795466
 20
-59.578454
 41
1.000000
 42
1.000000
 50
90.000000
 0
TEXT
 8
001
 10
-46.795466
 20
-59.726334
 40
3.200000
 1
10.2
 50
90.000003
 41
1.213235
 7
STANDARD
 0
POINT
 8
001
 10
-65.624663
 20
-48.978454
 0
POINT
 8
001
 10
-65.624663
 20
-59.578454
 0
POINT
 8
001
 10
-45.795466
 20
-59.578454
 0
ENDBLK
 8
001
 0
BLOCK
 8
001
 2
*D7
 70
1
 10
0.0
 20
0.0
 0
LINE
 8
001
 10
-67.052660
 20
-56.878454
 11
-52.820727
 21
-56.878454
 0
LINE
 8
001
 10
-67.052660
 20
-51.678454
 11
-52.820727
 21
-51.678454
 0
LINE
 8
001
 10
-53.820727
 20
-56.878454
 11
-53.820727
 21
-51.678454
 0
INSERT
 8
001
 62
7
 2
ARROW
 6
BYBLOCK
 10
-53.820727
 20
-56.878454
 41
1.000000
 42
1.000000
 50
270.000000
 0
INSERT
 8
001
 62
7
 2
ARROW
 6
BYBLOCK
 10
-53.820727
 20
-51.678454
 41
1.000000
 42
1.000000
 50
90.000000
 0
TEXT
 8
001
 10
-54.820727
 20
-47.676239
 40
3.200000
 1
5
 50
90.000003
 41
0.859375
 7
STANDARD
 0
POINT
 8
001
 10
-68.052660
 20
-56.878454
 0
POINT
 8
001
 10
-68.052660
 20
-51.678454
 0
POINT
 8
001
 10
-53.820727
 20
-51.678454
 0
LINE
 8
001
 10
-53.820727
 20
-56.878454
 11
-53.820727
 21
-59.878454
 0
LINE
 8
001
 10
-53.820727
 20
-51.678454
 11
-53.820727
 21
-44.926239
 0
ENDBLK
 8
001
 0
BLOCK
 8
001
 2
*D8
 70
1
 10
0.0
 20
0.0
 0
LINE
 8
001
 10
-73.269962
 20
-57.378454
 11
-89.826257
 21
-57.378454
 0
LINE
 8
001
 10
-73.269962
 20
-51.178454
 11
-89.826257
 21
-51.178454
 0
LINE
 8
001
 10
-88.826257
 20
-57.378454
 11
-88.826257
 21
-51.178454
 0
INSERT
 8
001
 62
7
 2
ARROW
 6
BYBLOCK
 10
-88.826257
 20
-57.378454
 41
1.000000
 42
1.000000
 50
270.000000
 0
INSERT
 8
001
 62
7
 2
ARROW
 6
BYBLOCK
 10
-88.826257
 20
-51.178454
 41
1.000000
 42
1.000000
 50
90.000000
 0
TEXT
 8
001
 10
-89.826257
 20
-48.178454
 40
3.200000
 1
6.2
 50
90.000003
 41
1.104911
 7
STANDARD
 0
POINT
 8
001
 10
-72.269962
 20
-57.378454
 0
POINT
 8
001
 10
-72.269962
 20
-51.178454
 0
POINT
 8
001
 10
-88.826257
 20
-51.178454
 0
LINE
 8
001
 10
-88.826257
 20
-57.378454
 11
-88.826257
 21
-60.378454
 0
LINE
 8
001
 10
-88.826257
 20
-51.178454
 11
-88.826257
 21
-39.928454
 0
ENDBLK
 8
001
 0
ENDSEC
 0
SECTION
 2
ENTITIES
 0
DIMENSION
 8
001
 2
*D0
 10
11.934606
 20
-43.638455
 11
20.938126
 21
-42.638455
 13
5.734606
 23
-34.724883
 14
11.934606
 24
-34.724883
 0
DIMENSION
 8
001
 2
*D1
 10
30.809820
 20
13.354968
 11
18.928691
 21
20.937366
 70
3
 15
-13.140608
 25
37.195267
 0
DIMENSION
 8
001
 2
*D2
 10
45.834606
 20
70.427676
 11
2.216170
 21
71.427676
 13
-35.902266
 23
15.662166
 14
45.834606
 24
25.275117
 0
DIMENSION
 8
001
 2
*D3
 10
-66.269962
 20
70.427676
 11
-75.019962
 21
71.427676
 13
-78.269962
 23
52.775117
 14
-66.269962
 24
52.775117
 0
DIMENSION
 8
001
 2
*D4
 10
17.334606
 20
-52.854484
 11
5.187432
 21
-51.854484
 13
0.334606
 23
-32.724883
 14
17.334606
 24
-32.724883
 0
DIMENSION
 8
001
 2
*D5
 10
-97.516908
 20
62.275117
 11
-98.516908
 21
11.025117
 13
-78.769962
 23
-34.724883
 14
-72.269962
 24
62.275117
 50
90.000000
 0
DIMENSION
 8
001
 2
*D6
 10
-45.795466
 20
-59.578454
 11
-46.795466
 21
-59.726334
 13
-65.624663
 23
-48.978454
 14
-65.624663
 24
-59.578454
 50
270.000000
 0
DIMENSION
 8
001
 2
*D7
 10
-53.820727
 20
-51.678454
 11
-54.820727
 21
-47.676239
 13
-68.052660
 23
-56.878454
 14
-68.052660
 24
-51.678454
 50
90.000000
 0
DIMENSION
 8
001
 2
*D8
 10
-88.826257
 20
-51.178454
 11
-89.826257
 21
-48.178454
 13
-72.269962
 23
-57.378454
 14
-72.269962
 24
-51.178454
 50
90.000000
 0
TEXT
 8
001
 62
3
 10
91.996821
 20
-56.062172
 40
1.993800
 1
A
 41
0.700000
 7
STANDARD
 0
TEXT
 8
001
 62
3
 10
94.524248
 20
-56.062172
 40
1.993800
 1
P
 41
0.700000
 7
STANDARD
 0
TEXT
 8
001
 62
3
 10
97.051675
 20
-56.062172
 40
1.993800
 1
P
 41
0.700000
 7
STANDARD
 0
TEXT
 8
001
 62
3
 10
99.579102
 20
-56.062172
 40
1.993800
 1
D
 41
0.700000
 7
STANDARD
 0
TEXT
 8
001
 62
3
 10
104.049020
 20
-55.851400
 40
1.993800
 1
C
 41
0.700000
 7
STANDARD
 0
TEXT
 8
001
 62
3
 10
106.576447
 20
-55.851400
 40
1.993800
 1
H
 41
0.700000
 7
STANDARD
 0
TEXT
 8
001
 62
3
 10
109.103874
 20
-55.851400
 40
1.993800
 1
C
 41
0.700000
 7
STANDARD
 0
TEXT
 8
001
 62
3
 10
111.631301
 20
-55.851400
 40
1.993800
 1
K
 41
0.700000
 7
STANDARD
 0
TEXT
 8
001
 62
3
 10
116.327493
 20
-55.769433
 40
1.993800
 1
DESN
 41
1.216762
 7
STANDARD
 0
TEXT
 8
001
 62
3
 10
91.146256
 20
-79.521994
 40
3.190080
 1
作成日
 41
1.017226
 7
STANDARD
 0
LINE
 8
001
 62
3
 10
126.511732
 20
-74.032892
 11
126.511732
 21
-53.097992
 0
TEXT
 8
001
 62
3
 10
128.871524
 20
-55.683880
 40
1.794420
 1
D
 41
0.666667
 7
STANDARD
 0
TEXT
 8
001
 62
3
 10
131.679421
 20
-55.683880
 40
1.794420
 1
E
 41
0.666667
 7
STANDARD
 0
TEXT
 8
001
 62
3
 10
134.487317
 20
-55.683880
 40
1.794420
 1
F
 41
0.666667
 7
STANDARD
 0
TEXT
 8
001
 62
3
 10
128.871524
 20
-59.664057
 40
3.190080
 1
製図
 41
1.076369
 7
STANDARD
 0
TEXT
 8
001
 62
3
 10
36.575508
 20
-60.081353
 40
3.190080
 1
部品名
 41
0.959524
 7
STANDARD
 0
TEXT
 8
001
 62
3
 10
36.033152
 20
-77.061465
 40
2.591940
 1
１
 41
0.884615
 7
STANDARD
 0
TEXT
 8
001
 62
3
 10
40.392368
 20
-77.061465
 40
2.591940
 1
台
 41
0.884615
 7
STANDARD
 0
TEXT
 8
001
 62
3
 10
44.751585
 20
-77.061465
 40
2.591940
 1
分
 41
0.884615
 7
STANDARD
 0
TEXT
 8
001
 62
3
 10
36.033152
 20
-80.550615
 40
2.591940
 1
個
 41
0.884615
 7
STANDARD
 0
TEXT
 8
001
 62
3
 10
44.751585
 20
-80.550615
 40
2.591940
 1
数
 41
0.884615
 7
STANDARD
 0
TEXT
 8
001
 62
3
 10
38.891982
 20
-89.779192
 40
4.386360
 1
日動工業株式会社
 41
0.833333
 7
STANDARD
 0
TEXT
 8
001
 62
3
 10
37.379329
 20
-84.603412
 40
2.591940
 1
NICHIDO IND.CO.,LTD
 41
0.949051
 7
STANDARD
 0
TEXT
 8
001
 62
3
 10
59.294730
 20
-77.814051
 40
2.591940
 1
3AD
 41
1.013213
 7
STANDARD
 0
TEXT
 8
001
 62
3
 10
59.294730
 20
-80.635030
 40
2.591940
 1
三角法
 41
0.844344
 7
STANDARD
 0
TEXT
 8
001
 62
3
 10
78.162211
 20
-84.984676
 40
2.880000
 1
出図コード
 41
0.699326
 7
STANDARD
 0
TEXT
 8
001
 62
3
 10
78.162211
 20
-89.052796
 40
2.880000
 1
HM-A4
 41
0.839192
 7
STANDARD
 0
LINE
 8
001
 62
3
 10
-0.281212
 20
97.548184
 11
-0.281212
 21
98.548184
 0
LINE
 8
001
 62
3
 10
54.833686
 20
85.551921
 11
138.433686
 21
85.551921
 0
TEXT
 8
001
 62
3
 10
127.708686
 20
81.406921
 40
3.040000
 1
担
 41
0.859375
 7
STANDARD
 0
TEXT
 8
001
 62
3
 10
134.596186
 20
81.406921
 40
3.040000
 1
当
 41
0.859375
 7
STANDARD
 0
TEXT
 8
001
 62
3
 10
87.512910
 20
81.389759
 40
3.040000
 1
変更・追記内容
 41
1.182726
 7
STANDARD
 0
LINE
 8
001
 62
3
 10
54.833686
 20
90.057310
 11
54.833686
 21
70.701921
 0
TEXT
 8
001
 62
3
 10
58.606391
 20
76.452745
 40
2.432000
 1
1
 41
1.499999
 7
STANDARD
 0
TEXT
 8
001
 62
3
 10
58.606391
 20
71.296534
 40
2.432000
 1
2
 41
1.000000
 7
STANDARD
 0
TEXT
 8
001
 62
3
 10
67.792635
 20
81.966286
 40
3.200000
 1
日
 41
0.859375
 7
STANDARD
 0
TEXT
 8
001
 62
3
 10
76.669509
 20
81.966286
 40
3.200000
 1
付
 41
0.859375
 7
STANDARD
 0
TEXT
 8
001
 62
3
 10
67.618477
 20
86.201921
 40
3.200000
 1
図
 41
0.859375
 7
STANDARD
 0
TEXT
 8
001
 62
3
 10
86.274372
 20
86.201921
 40
3.200000
 1
面
 41
0.859375
 7
STANDARD
 0
TEXT
 8
001
 62
3
 10
104.930267
 20
86.201921
 40
3.200000
 1
略
 41
0.859375
 7
STANDARD
 0
TEXT
 8
001
 62
3
 10
123.586162
 20
86.201921
 40
3.200000
 1
歴
 41
0.859375
 7
STANDARD
 0
TEXT
 8
001
 62
3
 10
55.436050
 20
81.326921
 40
3.200000
 1
記
 41
0.859375
 7
STANDARD
 0
TEXT
 8
001
 62
3
 10
61.688958
 20
81.326921
 40
3.200000
 1
号
 41
0.859375
 7
STANDARD
 0
LINE
 8
001
 62
3
 10
128.835042
 20
70.701921
 11
54.833686
 21
70.701921
 0
LINE
 8
001
 62
3
 10
136.985378
 20
70.701921
 11
128.835042
 21
70.701921
 0
LINE
 8
001
 62
3
 10
136.985378
 20
70.701921
 11
138.433686
 21
70.701921
 0
LINE
 8
001
 10
59.651391
 20
79.862676
 11
57.751391
 21
76.571779
 0
LINE
 8
001
 10
59.651391
 20
79.862676
 11
61.551391
 21
76.571779
 0
LINE
 8
001
 10
57.751391
 20
76.571779
 11
61.551391
 21
76.571779
 0
LINE
 8
001
 10
59.651391
 20
74.706466
 11
57.751391
 21
71.415569
 0
LINE
 8
001
 10
59.651391
 20
74.706466
 11
61.551391
 21
71.415569
 0
LINE
 8
001
 10
57.751391
 20
71.415569
 11
61.551391
 21
71.415569
 0
LINE
 8
001
 62
3
 10
114.511732
 20
-74.032892
 11
114.511732
 21
-53.097992
 0
LINE
 8
001
 62
3
 10
102.511732
 20
-74.032892
 11
102.511732
 21
-53.097992
 0
LINE
 8
001
 62
3
 10
90.511732
 20
-74.032892
 11
90.511732
 21
-53.097992
 0
LINE
 8
001
 62
3
 10
102.511732
 20
-74.032892
 11
102.511732
 21
-81.011192
 0
LINE
 8
001
 62
3
 10
90.511732
 20
-74.032892
 11
90.511732
 21
-81.011192
 0
LINE
 8
001
 62
3
 10
90.511732
 20
-81.011192
 11
90.511732
 21
-90.000000
 0
LINE
 8
001
 62
3
 10
77.696712
 20
-85.531325
 11
90.511732
 21
-85.531325
 0
LINE
 8
001
 62
3
 10
77.696712
 20
-67.054592
 11
77.696712
 21
-90.000000
 0
LINE
 8
001
 62
3
 10
66.986352
 20
-67.054592
 11
66.986352
 21
-81.011192
 0
LINE
 8
001
 62
3
 10
59.008227
 20
-74.032892
 11
59.008227
 21
-81.011192
 0
LINE
 8
001
 62
3
 10
35.415575
 20
-53.097992
 11
35.415575
 21
-90.000000
 0
LINE
 8
001
 62
3
 10
47.616265
 20
-53.097992
 11
47.616265
 21
-81.011192
 0
LINE
 8
001
 62
3
 10
35.415575
 20
-53.097992
 11
138.500000
 21
-53.097992
 0
LINE
 8
001
 62
3
 10
135.519519
 20
-81.011192
 11
105.730822
 21
-81.011192
 0
LINE
 8
001
 62
3
 10
135.519519
 20
-81.011192
 11
138.500000
 21
-81.011192
 0
LINE
 8
001
 62
3
 10
88.340879
 20
-81.011192
 11
80.254244
 21
-81.011192
 0
LINE
 8
001
 62
3
 10
88.340879
 20
-81.011192
 11
105.730822
 21
-81.011192
 0
LINE
 8
001
 62
3
 10
49.984537
 20
-81.011192
 11
35.415575
 21
-81.011192
 0
LINE
 8
001
 62
3
 10
58.190010
 20
-81.011192
 11
49.984537
 21
-81.011192
 0
LINE
 8
001
 62
3
 10
58.190010
 20
-81.011192
 11
80.254244
 21
-81.011192
 0
LINE
 8
001
 62
3
 10
50.284461
 20
-74.032892
 11
35.415575
 21
-74.032892
 0
LINE
 8
001
 62
3
 10
65.059971
 20
-74.032892
 11
50.284461
 21
-74.032892
 0
LINE
 8
001
 62
3
 10
65.059971
 20
-74.032892
 11
138.500000
 21
-74.032892
 0
LINE
 8
001
 62
3
 10
53.447812
 20
-67.054592
 11
35.415575
 21
-67.054592
 0
LINE
 8
001
 62
3
 10
84.696517
 20
-67.054592
 11
90.511732
 21
-67.054592
 0
LINE
 8
001
 62
3
 10
79.586488
 20
-67.054592
 11
84.696517
 21
-67.054592
 0
LINE
 8
001
 62
3
 10
57.578843
 20
-67.054592
 11
79.586488
 21
-67.054592
 0
LINE
 8
001
 62
3
 10
57.578843
 20
-67.054592
 11
53.447812
 21
-67.054592
 0
LINE
 8
001
 62
3
 10
49.011198
 20
-60.076292
 11
35.415575
 21
-60.076292
 0
LINE
 8
001
 62
3
 10
89.251969
 20
-60.076292
 11
138.500000
 21
-60.076292
 0
LINE
 8
001
 62
3
 10
85.302024
 20
-60.076292
 11
89.251969
 21
-60.076292
 0
LINE
 8
001
 62
3
 10
52.355635
 20
-60.076292
 11
49.011198
 21
-60.076292
 0
LINE
 8
001
 62
3
 10
55.818911
 20
-60.076292
 11
52.355635
 21
-60.076292
 0
LINE
 8
001
 62
3
 10
82.749839
 20
-60.076292
 11
55.818911
 21
-60.076292
 0
LINE
 8
001
 62
3
 10
82.749839
 20
-60.076292
 11
85.302024
 21
-60.076292
 0
LINE
 8
001
 62
3
 10
3.396158
 20
-20.739131
 11
3.032790
 21
-21.763169
 0
LINE
 8
001
 62
3
 10
14.034606
 20
-25.524883
 11
3.634606
 21
-25.524883
 0
LINE
 8
001
 62
3
 10
14.034606
 20
-29.724883
 11
14.034606
 21
-25.524883
 0
LINE
 8
001
 62
3
 10
3.634606
 20
-29.724883
 11
3.634606
 21
-25.524883
 0
LINE
 8
001
 62
3
 10
11.934606
 20
-34.724883
 11
11.934606
 21
-29.724883
 0
LINE
 8
001
 62
3
 10
5.734606
 20
-34.724883
 11
5.734606
 21
-29.724883
 0
LINE
 8
001
 62
3
 10
14.034606
 20
-29.724883
 11
11.334606
 21
-29.724883
 0
LINE
 8
001
 62
3
 10
6.334606
 20
-29.724883
 11
3.634606
 21
-29.724883
 0
LINE
 8
001
 62
3
 10
-70.645155
 20
-51.178454
 11
-72.269962
 21
-51.178454
 0
LINE
 8
001
 62
3
 10
-70.645155
 20
-57.378454
 11
-72.269962
 21
-57.378454
 0
LINE
 8
001
 62
3
 10
-68.052660
 20
-51.678454
 11
-69.926888
 21
-51.678454
 0
LINE
 8
001
 62
3
 10
-68.052660
 20
-56.878454
 11
-69.926888
 21
-56.878454
 0
ARC
 8
001
 62
3
 10
-72.269962
 20
-54.278454
 40
3.500000
 50
47.975372
 51
62.339550
 0
ARC
 8
001
 62
3
 10
-72.269962
 20
-54.278454
 40
3.500000
 50
297.660450
 51
312.024628
 0
LINE
 8
001
 62
3
 10
14.273054
 20
-20.739131
 11
14.636422
 21
-21.763169
 0
LINE
 8
001
 6
CENTER
 10
-80.860711
 20
-54.278454
 11
-62.565721
 21
-54.278454
 0
LINE
 8
001
 6
CENTER
 10
-72.269962
 20
-45.599037
 11
-72.269962
 21
-62.799092
 0
LINE
 8
001
 6
CENTER
 10
-28.579064
 20
25.275117
 11
45.623253
 21
25.275117
 0
LINE
 8
001
 62
3
 10
-16.950032
 20
18.011589
 11
-24.395183
 21
10.353721
 0
LINE
 8
001
 62
3
 10
3.460401
 20
-8.023459
 11
22.450151
 21
4.308073
 0
LINE
 8
001
 62
3
 10
15.559373
 20
-14.981687
 11
29.766230
 21
-5.234998
 0
LINE
 8
001
 62
3
 10
6.735334
 20
-9.795067
 11
24.383441
 21
1.989205
 0
LINE
 8
001
 62
3
 10
13.227402
 20
-12.674744
 11
27.715335
 21
-3.000634
 0
ARC
 8
001
 62
3
 10
8.834606
 20
25.275117
 40
37.000000
 50
304.452275
 51
188.255611
 0
ARC
 8
001
 62
3
 10
8.834606
 20
25.275117
 40
34.000000
 50
303.732451
 51
90.000000
 0
ARC
 8
001
 62
3
 10
8.834606
 20
25.275117
 40
28.000000
 50
303.732451
 51
90.000000
 0
ARC
 8
001
 62
3
 10
8.834606
 20
25.275117
 40
25.000000
 50
302.998821
 51
90.000000
 0
ARC
 8
001
 62
3
 10
8.994444
 20
-11.824741
 40
1.500000
 50
123.806921
 51
303.806923
 0
LINE
 8
001
 62
3
 10
10.652602
 20
-8.909177
 11
8.159850
 21
-10.578365
 0
ARC
 8
001
 62
3
 10
11.487196
 20
-10.155553
 40
1.500000
 50
303.806921
 51
123.806917
 0
LINE
 8
001
 62
3
 10
12.321790
 20
-11.401929
 11
9.829038
 21
-13.071117
 0
ARC
 8
001
 62
3
 10
-22.019891
 20
22.275117
 40
3.000000
 50
174.446556
 51
354.446551
 0
TEXT
 8
001
 62
3
 10
80.254244
 20
-81.011192
 40
3.200000
 1
1/1
 41
1.072092
 7
STANDARD
 0
LINE
 8
001
 62
3
 10
3.487720
 20
-19.764087
 11
2.129640
 21
-10.998842
 0
ARC
 8
001
 62
3
 10
5.094266
 20
-10.539505
 40
3.000000
 50
122.998821
 51
188.807334
 0
LINE
 8
001
 62
3
 10
14.181492
 20
-19.764087
 11
14.714394
 21
-16.324657
 0
ARC
 8
001
 62
3
 10
16.690812
 20
-16.630882
 40
2.000000
 50
124.452275
 51
171.192666
 0
ARC
 8
001
 62
3
 10
8.401280
 20
-12.289986
 40
3.000000
 50
123.732451
 51
188.807334
 0
LINE
 8
001
 62
3
 10
5.436654
 20
-12.749323
 11
6.827320
 21
-21.724883
 0
LINE
 8
001
 62
3
 10
11.928722
 20
-14.710326
 11
10.841892
 21
-21.724883
 0
ARC
 8
001
 62
3
 10
14.893348
 20
-15.169663
 40
3.000000
 50
123.732451
 51
171.192666
 0
LINE
 8
001
 62
3
 10
2.334606
 20
-21.724883
 11
15.334606
 21
-21.724883
 0
LINE
 8
001
 62
3
 10
2.334606
 20
-34.724883
 11
15.334606
 21
-34.724883
 0
LINE
 8
001
 62
3
 10
-65.369059
 20
-51.341188
 11
-68.052660
 21
-51.678454
 0
LINE
 8
001
 62
3
 10
-65.369059
 20
-57.215720
 11
-68.052660
 21
-56.878454
 0
LINE
 8
001
 6
DASHED
 10
-72.269962
 20
-59.578454
 11
-65.624663
 21
-59.578454
 0
LINE
 8
001
 6
DASHED
 10
-72.269962
 20
-48.978454
 11
-65.624663
 21
-48.978454
 0
ARC
 8
001
 62
3
 10
16.157909
 20
-20.070311
 40
2.000000
 50
171.192666
 51
199.536655
 0
ARC
 8
001
 62
3
 10
1.511303
 20
-20.070311
 40
2.000000
 50
340.463345
 51
8.807334
 0
LINE
 8
001
 62
3
 10
-26.205059
 20
17.483194
 11
-28.212645
 21
15.418249
 0
LINE
 8
001
 62
3
 10
-24.140114
 20
15.475608
 11
-26.147700
 21
13.410663
 0
ARC
 8
001
 62
3
 10
-25.172586
 20
16.479401
 40
1.440000
 50
315.806921
 51
135.806917
 0
ARC
 8
001
 62
3
 10
-27.180172
 20
14.414456
 40
1.440000
 50
135.806921
 51
315.806923
 0
ARC
 8
001
 62
3
 10
-27.621660
 20
13.490574
 40
4.500000
 50
236.602291
 51
315.806921
 0
LINE
 8
001
 6
HIDDEN
 62
15
 10
-24.795183
 20
16.353721
 11
-24.931772
 21
16.213230
 0
LINE
 8
001
 62
3
 10
-27.907990
 20
19.609595
 11
-32.116404
 21
15.763668
 0
TEXT
 8
001
 62
3
 10
105.730822
 20
-81.011192
 40
3.200000
 1
2005.6.17
 41
1.357970
 7
STANDARD
 0
ARC
 8
001
 62
3
 10
8.834606
 20
25.275117
 40
34.000000
 50
90.000000
 51
185.553444
 0
ARC
 8
001
 62
3
 10
8.834606
 20
25.275117
 40
28.000000
 50
90.000000
 51
185.553444
 0
ARC
 8
001
 62
3
 10
8.834606
 20
25.275117
 40
25.000000
 50
90.000000
 51
188.877229
 0
ARC
 8
001
 62
3
 10
-19.818011
 20
20.799903
 40
4.000000
 50
315.806921
 51
8.877229
 0
ARC
 8
001
 62
3
 10
-28.177830
 20
19.904869
 40
0.400000
 50
312.423137
 51
8.255611
 0
LINE
 8
001
 62
3
 10
-19.033972
 20
22.565440
 11
-16.021542
 21
22.597076
 0
LINE
 8
001
 62
3
 10
12.955276
 20
-1.857693
 11
14.819302
 21
-4.397113
 0
LINE
 8
001
 62
3
 10
22.450151
 20
4.308073
 11
24.383441
 21
1.989205
 0
LINE
 8
001
 62
3
 10
-30.098673
 20
9.733660
 11
-35.394520
 21
14.519033
 0
LINE
 8
001
 62
3
 10
-33.663223
 20
17.035497
 11
-32.116404
 21
15.763668
 0
ARC
 8
001
 62
3
 10
-34.361574
 20
15.662166
 40
1.540692
 50
38.098144
 51
227.898761
 0
TEXT
 8
001
 62
3
 10
56.476527
 20
-59.691196
 40
4.500000
 1
単管フック
 41
0.800576
 7
STANDARD
 0
TEXT
 8
001
 62
3
 10
56.248918
 20
-66.574250
 40
4.500000
 1
BH-LH
 41
0.960691
 7
STANDARD
 0
ARC
 8
001
 62
3
 10
-72.269962
 20
-54.278454
 40
3.100000
 50
90.000000
 51
161.180937
 0
ARC
 8
001
 62
3
 10
-72.269962
 20
-54.278454
 40
3.100000
 50
198.819063
 51
270.000000
 0
ARC
 8
001
 6
DASHED
 10
-72.269962
 20
-54.278454
 40
5.300000
 50
90.000000
 51
169.124284
 0
ARC
 8
001
 6
DASHED
 10
-72.269962
 20
-54.278454
 40
5.300000
 50
190.875716
 51
270.000000
 0
LINE
 8
001
 62
3
 10
-77.474768
 20
-53.278454
 11
-77.543317
 21
-54.285605
 0
LINE
 8
001
 62
3
 10
-77.542830
 20
-54.278454
 11
-77.474768
 21
-55.278454
 0
LINE
 8
001
 62
3
 10
-75.204243
 20
-53.278454
 11
-77.474768
 21
-53.278454
 0
LINE
 8
001
 62
3
 10
-75.204243
 20
-55.278454
 11
-77.474768
 21
-55.278454
 0
CIRCLE
 8
001
 62
3
 10
-72.269962
 20
-54.278454
 40
8.500000
 0
LINE
 8
001
 62
3
 10
-65.369059
 20
-51.341188
 11
-64.369145
 21
-51.143635
 0
LINE
 8
001
 62
3
 10
-65.369059
 20
-57.215720
 11
-64.369145
 21
-57.413273
 0
LINE
 8
001
 62
3
 10
17.334606
 20
-32.724883
 11
17.334606
 21
-23.724883
 0
LINE
 8
001
 62
3
 10
0.334606
 20
-32.724883
 11
0.334606
 21
-23.724883
 0
ARC
 8
001
 62
3
 10
15.334606
 20
-23.724883
 40
2.000000
 50
0.000000
 51
90.000000
 0
ARC
 8
001
 62
3
 10
15.334606
 20
-32.724883
 40
2.000000
 50
270.000000
 51
0.000000
 0
ARC
 8
001
 62
3
 10
2.334606
 20
-23.724883
 40
2.000000
 50
90.000000
 51
180.000000
 0
ARC
 8
001
 62
3
 10
2.334606
 20
-32.724883
 40
2.000000
 50
180.000000
 51
270.000000
 0
TEXT
 8
001
 62
3
 10
93.569746
 20
-90.000000
 40
6.300000
 1
K-BH-LH
 41
0.814934
 7
STANDARD
 0
LINE
 8
001
 62
3
 10
-65.769962
 20
-34.724883
 11
-78.769962
 21
-34.724883
 0
LINE
 8
001
 62
3
 10
-80.769962
 20
-32.724883
 11
-80.769962
 21
-23.724883
 0
LINE
 8
001
 62
3
 10
-63.769962
 20
-32.724883
 11
-63.769962
 21
-23.724883
 0
ARC
 8
001
 62
3
 10
-78.769962
 20
-23.724883
 40
2.000000
 50
90.000000
 51
180.000000
 0
ARC
 8
001
 62
3
 10
-78.769962
 20
-32.724883
 40
2.000000
 50
180.000000
 51
270.000000
 0
ARC
 8
001
 62
3
 10
-65.769962
 20
-23.724883
 40
2.000000
 50
0.000000
 51
90.000000
 0
ARC
 8
001
 62
3
 10
-65.769962
 20
-32.724883
 40
2.000000
 50
270.000000
 51
0.000000
 0
LINE
 8
001
 62
3
 10
-66.025841
 20
-21.724883
 11
-65.769962
 21
-21.724883
 0
LINE
 8
001
 62
3
 10
-68.769962
 20
62.275117
 11
-75.769962
 21
62.275117
 0
LINE
 8
001
 62
3
 10
-75.769962
 20
8.990574
 11
-68.769962
 21
8.990574
 0
LINE
 8
001
 62
3
 10
-68.269962
 20
17.035497
 11
-76.269962
 21
17.035497
 0
LINE
 8
001
 62
3
 10
-66.269962
 20
52.775117
 11
-66.269962
 21
-4.397113
 0
LINE
 8
001
 62
3
 10
-78.269962
 20
52.775117
 11
-78.269962
 21
-4.397113
 0
LINE
 8
001
 62
3
 10
-68.269962
 20
61.775117
 11
-68.269962
 21
9.490574
 0
LINE
 8
001
 62
3
 10
-76.269962
 20
61.775117
 11
-76.269962
 21
9.490574
 0
ARC
 8
001
 62
3
 10
-68.769962
 20
9.490574
 40
0.500000
 50
270.000000
 51
0.000000
 0
ARC
 8
001
 62
3
 10
-75.769962
 20
9.490574
 40
0.500000
 50
180.000000
 51
270.000000
 0
ARC
 8
001
 62
3
 10
-66.769962
 20
52.775117
 40
0.500000
 50
0.000000
 51
90.000000
 0
ARC
 8
001
 62
3
 10
-77.769962
 20
52.775117
 40
0.500000
 50
90.000000
 51
180.000000
 0
ARC
 8
001
 62
3
 10
-75.769962
 20
61.775117
 40
0.500000
 50
90.000000
 51
180.000000
 0
ARC
 8
001
 62
3
 10
-68.769962
 20
61.775117
 40
0.500000
 50
0.000000
 51
90.000000
 0
LINE
 8
001
 62
3
 10
-77.769962
 20
53.275117
 11
-76.269962
 21
53.275117
 0
LINE
 8
001
 62
3
 10
-68.269962
 20
53.275117
 11
-66.769962
 21
53.275117
 0
LINE
 8
001
 62
3
 10
-68.012651
 20
-19.495562
 11
-66.269962
 21
-4.397113
 0
LINE
 8
001
 62
3
 10
-76.527274
 20
-19.495562
 11
-78.269962
 21
-4.397113
 0
ARC
 8
001
 62
3
 10
-66.025841
 20
-19.724883
 40
2.000000
 50
173.415961
 51
270.000000
 0
LINE
 8
001
 62
3
 10
-78.514084
 20
-21.724883
 11
-78.769962
 21
-21.724883
 0
ARC
 8
001
 62
3
 10
-78.514084
 20
-19.724883
 40
2.000000
 50
270.000000
 51
6.584039
 0
LINE
 8
001
 62
3
 10
-78.514084
 20
-21.724883
 11
-66.025841
 21
-21.724883
 0
LINE
 8
001
 6
CENTER
 10
8.834606
 20
64.635897
 11
8.834606
 21
-35.944364
 0
LINE
 8
001
 6
CENTER
 10
-72.269962
 20
64.635897
 11
-72.269962
 21
-35.944364
 0
LINE
 8
001
 62
3
 10
6.334606
 20
-29.724883
 11
11.334606
 21
-29.724883
 0
LINE
 8
001
 62
3
 10
-138.500000
 20
90.000000
 11
-138.500000
 21
-90.000000
 0
LINE
 8
001
 62
3
 10
138.500000
 20
-90.000000
 11
138.500000
 21
90.000000
 0
LINE
 8
001
 62
3
 10
-138.500000
 20
90.000000
 11
138.500000
 21
90.000000
 0
TEXT
 8
001
 62
3
 10
36.212658
 20
-56.183523
 40
1.993800
 1
CONPONENTS
 41
0.533160
 7
STANDARD
 0
TEXT
 8
001
 62
3
 10
36.410462
 20
-73.882149
 40
2.990700
 1
材
 41
0.833333
 7
STANDARD
 0
TEXT
 8
001
 62
3
 10
43.922744
 20
-73.882149
 40
2.990700
 1
質
 41
0.833333
 7
STANDARD
 0
TEXT
 8
001
 62
3
 10
36.623162
 20
-63.204690
 40
1.993800
 1
MODEL
 41
1.031073
 7
STANDARD
 0
TEXT
 8
001
 62
3
 10
36.410462
 20
-70.211256
 40
1.993800
 1
MATERIAL
 41
0.659278
 7
STANDARD
 0
TEXT
 8
001
 62
3
 10
67.688124
 20
-74.118762
 40
2.990700
 1
備
 41
0.833333
 7
STANDARD
 0
TEXT
 8
001
 62
3
 10
74.400254
 20
-74.118762
 40
2.990700
 1
考
 41
0.833333
 7
STANDARD
 0
TEXT
 8
001
 62
3
 10
67.441881
 20
-70.447869
 40
1.993800
 1
REMARKS
 41
0.675794
 7
STANDARD
 0
TEXT
 8
001
 62
3
 10
67.954342
 20
-77.320377
 40
1.993800
 1
SCALE
 41
0.771963
 7
STANDARD
 0
TEXT
 8
001
 62
3
 10
67.817971
 20
-80.809527
 40
2.990700
 1
尺
 41
0.833333
 7
STANDARD
 0
TEXT
 8
001
 62
3
 10
74.530101
 20
-80.809527
 40
2.990700
 1
度
 41
0.833333
 7
STANDARD
 0
TEXT
 8
001
 62
3
 10
92.861478
 20
-59.797943
 40
2.990700
 1
承認
 41
1.089473
 7
STANDARD
 0
TEXT
 8
001
 62
3
 10
105.181184
 20
-59.644720
 40
2.990700
 1
検図
 41
0.931761
 7
STANDARD
 0
TEXT
 8
001
 62
3
 10
117.181094
 20
-59.562753
 40
2.990700
 1
設
 41
0.833333
 7
STANDARD
 0
TEXT
 8
001
 62
3
 10
121.657044
 20
-59.562753
 40
2.990700
 1
計
 41
0.833333
 7
STANDARD
 0
TEXT
 8
001
 62
3
 10
36.623162
 20
-67.054592
 40
2.990700
 1
品
 41
0.833333
 7
STANDARD
 0
TEXT
 8
001
 62
3
 10
44.147854
 20
-67.054592
 40
2.990700
 1
番
 41
0.833333
 7
STANDARD
 0
LINE
 8
001
 62
3
 10
91.623068
 20
-90.000000
 11
-138.500000
 21
-90.000000
 0
LINE
 8
001
 62
3
 10
137.098365
 20
-90.000000
 11
138.500000
 21
-90.000000
 0
LINE
 8
001
 62
3
 10
134.908352
 20
-90.000000
 11
137.098365
 21
-90.000000
 0
LINE
 8
001
 62
3
 10
93.569746
 20
-90.000000
 11
134.908352
 21
-90.000000
 0
LINE
 8
001
 62
3
 10
93.569746
 20
-90.000000
 11
91.623068
 21
-90.000000
 0
LINE
 8
001
 10
64.939120
 20
85.551921
 11
64.939120
 21
70.701921
 0
LINE
 8
001
 10
128.500280
 20
75.651921
 11
54.833686
 21
75.651921
 0
LINE
 8
001
 10
136.748813
 20
75.651921
 11
128.500280
 21
75.651921
 0
LINE
 8
001
 10
136.748813
 20
75.651921
 11
138.433686
 21
75.651921
 0
LINE
 8
001
 10
126.836161
 20
85.551921
 11
126.836161
 21
70.701921
 0
LINE
 8
001
 10
82.544446
 20
85.551921
 11
82.544446
 21
70.701921
 0
LINE
 8
001
 10
54.833686
 20
80.601921
 11
138.433686
 21
80.601921
 0
LINE
 8
001
 62
3
 10
138.399964
 20
-47.097992
 11
86.700600
 21
-47.097992
 0
LINE
 8
001
 62
3
 10
112.700600
 20
-53.097992
 11
112.700600
 21
-47.097992
 0
LINE
 8
001
 62
3
 10
86.700600
 20
-53.097992
 11
86.700600
 21
-47.097992
 0
TEXT
 8
001
 62
3
 10
87.850114
 20
-52.541906
 40
4.500000
 1
コード
 41
0.833333
 7
STANDARD
 0
TEXT
 8
001
 10
114.093391
 20
-52.599635
 40
4.500000
 1
29616
 41
1.071428
 7
STANDARD
 0
TEXT
 8
001
 62
3
 10
78.305225
 20
-73.614312
 40
3.200000
 1
グレード
 41
0.833333
 7
STANDARD
 0
TEXT
 8
001
 62
3
 10
78.939644
 20
-70.600821
 40
3.200000
 1
耐候性
 41
0.833333
 7
STANDARD
 0
TEXT
 8
001
 62
3
 10
50.284461
 20
-74.032892
 40
3.200000
 1
PA6
 41
1.000000
 7
STANDARD
 0
ENDSEC
 0
EOF
