 0
SECTION
 2
HEADER
 9
$ACADVER
 1
AC1003
 9
$EXTMIN
 10
-233.473999
 20
-131.991165
 9
$EXTMAX
 10
171.548996
 20
145.030426
 9
$LIMMIN
 10
-233.474999
 20
-131.992165
 9
$LIMMAX
 10
171.549996
 20
145.031426
 9
$SNAPUNIT
 10
1
 20
1
 9
$SNAPBASE
 10
0
 20
0
 9
$GRIDMODE
 70
0
 9
$GRIDUNIT
 10
0
 20
0
 9
$LTSCALE
 40
6.750383
 9
$TEXTSIZE
 40
3.2
 9
$DIMTAD
 70
0
 9
$LUNITS
 70
2
 9
$LUPREC
 70
4
 9
$FILLETRAD
 40
0
 9
$AUNITS
 70
0
 9
$AUPREC
 70
0
 0
ENDSEC
 0
SECTION
 2
TABLES
 0
TABLE
 2
LTYPE
 70
25
  0
LTYPE
  2
CONTINUOUS
 70
    64
  3
Solid-line
 72
    65
 73
     0
 40
0.0
  0
LTYPE
  2
BORDER
 70
    64
  3
BORDER
 72
    65
 73
     6
 40
1.75
 49
0.5
 49
-0.25
 49
0.5
 49
-0.25
 49
0.0
 49
-0.25
  0
LTYPE
  2
BORDER2
 70
    64
  3
BORDER2
 72
    65
 73
     6
 40
0.875
 49
0.25
 49
-0.125
 49
0.25
 49
-0.125
 49
0.0
 49
-0.125
  0
LTYPE
  2
BORDERX2
 70
    64
  3
BORDERX2
 72
    65
 73
     6
 40
3.5
 49
1.0
 49
-0.5
 49
1.0
 49
-0.5
 49
0.0
 49
-0.5
  0
LTYPE
  2
CENTER
 70
    64
  3
CENTER
 72
    65
 73
     4
 40
2.0
 49
1.25
 49
-0.25
 49
0.25
 49
-0.25
  0
LTYPE
  2
CENTER2
 70
    64
  3
CENTER2
 72
    65
 73
     4
 40
1.125
 49
0.75
 49
-0.125
 49
0.125
 49
-0.125
  0
LTYPE
  2
CENTERX2
 70
    64
  3
CENTERX2
 72
    65
 73
     4
 40
4.0
 49
2.5
 49
-0.5
 49
0.5
 49
-0.5
  0
LTYPE
  2
DASHDOT
 70
    64
  3
DASHDOT
 72
    65
 73
     4
 40
1.0
 49
0.5
 49
-0.25
 49
0.0
 49
-0.25
  0
LTYPE
  2
DASHDOT2
 70
    64
  3
DASHDOT2
 72
    65
 73
     4
 40
0.5
 49
0.25
 49
-0.125
 49
0.0
 49
-0.125
  0
LTYPE
  2
DASHDOTX2
 70
    64
  3
DASHDOTX2
 72
    65
 73
     4
 40
2.0
 49
1.0
 49
-0.5
 49
0.0
 49
-0.5
  0
LTYPE
  2
DASHED
 70
    64
  3
DASHED
 72
    65
 73
     2
 40
0.75
 49
0.5
 49
-0.25
  0
LTYPE
  2
DASHED2
 70
    64
  3
DASHED2
 72
    65
 73
     2
 40
0.375
 49
0.25
 49
-0.125
  0
LTYPE
  2
DASHEDX2
 70
    64
  3
DASHEDX2
 72
    65
 73
     2
 40
1.5
 49
1.0
 49
-0.5
  0
LTYPE
  2
DIVIDE
 70
    64
  3
DIVIDE
 72
    65
 73
     6
 40
1.25
 49
0.5
 49
-0.25
 49
0.0
 49
-0.25
 49
0.0
 49
-0.25
  0
LTYPE
  2
DIVIDE2
 70
    64
  3
DIVIDE2
 72
    65
 73
     6
 40
0.625
 49
0.25
 49
-0.125
 49
0.0
 49
-0.125
 49
0.0
 49
-0.125
  0
LTYPE
  2
DIVIDEX2
 70
    64
  3
DIVIDEX2
 72
    65
 73
     6
 40
2.5
 49
1.0
 49
-0.5
 49
0.0
 49
-0.5
 49
0.0
 49
-0.5
  0
LTYPE
  2
DOT
 70
    64
  3
DOT
 72
    65
 73
     2
 40
0.25
 49
0.0
 49
-0.25
  0
LTYPE
  2
DOT2
 70
    64
  3
DOT2
 72
    65
 73
     2
 40
0.125
 49
0.0
 49
-0.125
  0
LTYPE
  2
DOTX2
 70
    64
  3
DOTX2
 72
    65
 73
     2
 40
0.5
 49
0.0
 49
-0.5
  0
LTYPE
  2
HIDDEN
 70
    64
  3
HIDDEN
 72
    65
 73
     2
 40
0.375
 49
0.25
 49
-0.125
  0
LTYPE
  2
HIDDEN2
 70
    64
  3
HIDDEN2
 72
    65
 73
     2
 40
0.1875
 49
0.125
 49
-0.0625
  0
LTYPE
  2
HIDDENX2
 70
    64
  3
HIDDENX2
 72
    65
 73
     2
 40
0.75
 49
0.5
 49
-0.25
  0
LTYPE
  2
PHANTOM
 70
    64
  3
PHANTOM
 72
    65
 73
     6
 40
2.5
 49
1.25
 49
-0.25
 49
0.25
 49
-0.25
 49
0.25
 49
-0.25
  0
LTYPE
  2
PHANTOM2
 70
    64
  3
PHANTOM2
 72
    65
 73
     6
 40
1.25
 49
0.625
 49
-0.125
 49
0.125
 49
-0.125
 49
0.125
 49
-0.125
  0
LTYPE
  2
PHANTOMX2
 70
    64
  3
PHANTOMX2
 72
    65
 73
     6
 40
5.0
 49
2.5
 49
-0.5
 49
0.5
 49
-0.5
 49
0.5
 49
-0.5
 0
ENDTAB
 0
TABLE
 2
LAYER
 70
1
 0
LAYER
 2
001
 70
0
 62
7
 6
CONTINUOUS
 0
ENDTAB
 0
TABLE
 2
STYLE
 70
2
 0
STYLE
 2
STANDARD
 70
0
 40
0
 41
1
 50
0
 71
0
 42
.2
 3
TXT
 4
BIGFONT
 0
STYLE
 2
TATEGAKI
 70
4
 40
1
 41
1
 50
0
 71
0
 42
.2
 3
TXT
 4
BIGFONT
 0
ENDTAB
 0
ENDSEC
 0
SECTION
 2
BLOCKS
 0
BLOCK
 8
0
 2
ARROW
 70
0
 10
0
 20
0
 0
POLYLINE
 8
0
 6
CONTINUOUS
 62
0
 66
1
 0
VERTEX
 8
0
 6
CONTINUOUS
 62
0
 10
2.000000
 20
0.535898
 0
VERTEX
 8
0
 6
CONTINUOUS
 62
0
 10
0.0
 20
0.0
 0
VERTEX
 8
0
 6
CONTINUOUS
 62
0
 10
2.000000
 20
-0.535898
 0
SEQEND
 8
0
 0
ENDBLK
 8
0
 0
BLOCK
 8
001
 2
*D0
 70
1
 10
0.0
 20
0.0
 0
LINE
 8
001
 10
-154.158338
 20
63.599347
 11
-163.388399
 21
63.599347
 0
LINE
 8
001
 10
-153.493338
 20
71.599347
 11
-163.388399
 21
71.599347
 0
LINE
 8
001
 10
-162.388399
 20
63.599347
 11
-162.388399
 21
71.599347
 0
INSERT
 8
001
 62
7
 2
ARROW
 6
BYBLOCK
 10
-162.388399
 20
63.599347
 41
1.000000
 42
1.000000
 50
90.000000
 0
INSERT
 8
001
 62
7
 2
ARROW
 6
BYBLOCK
 10
-162.388399
 20
71.599347
 41
1.000000
 42
1.000000
 50
270.000000
 0
TEXT
 8
001
 10
-163.388399
 20
66.229164
 40
3.200000
 1
8
 50
90.000003
 41
0.859375
 7
STANDARD
 0
POINT
 8
001
 10
-153.158338
 20
63.599347
 0
POINT
 8
001
 10
-152.493338
 20
71.599347
 0
POINT
 8
001
 10
-162.388399
 20
71.599347
 0
ENDBLK
 8
001
 0
BLOCK
 8
001
 2
*D1
 70
1
 10
0.0
 20
0.0
 0
LINE
 8
001
 10
-153.132331
 20
-2.705325
 11
-168.592130
 21
-2.705325
 0
LINE
 8
001
 10
-153.132331
 20
10.294675
 11
-168.592130
 21
10.294675
 0
LINE
 8
001
 10
-167.592130
 20
-2.705325
 11
-167.592130
 21
10.294675
 0
INSERT
 8
001
 62
7
 2
ARROW
 6
BYBLOCK
 10
-167.592130
 20
-2.705325
 41
1.000000
 42
1.000000
 50
90.000000
 0
INSERT
 8
001
 62
7
 2
ARROW
 6
BYBLOCK
 10
-167.592130
 20
10.294675
 41
1.000000
 42
1.000000
 50
270.000000
 0
TEXT
 8
001
 10
-168.592130
 20
0.798882
 40
3.200000
 1
13
 50
90.000003
 41
1.031250
 7
STANDARD
 0
POINT
 8
001
 10
-152.132331
 20
-2.705325
 0
POINT
 8
001
 10
-152.132331
 20
10.294675
 0
POINT
 8
001
 10
-167.592130
 20
10.294675
 0
ENDBLK
 8
001
 0
BLOCK
 8
001
 2
*D2
 70
1
 10
0.0
 20
0.0
 0
LINE
 8
001
 10
-153.132331
 20
-2.705325
 11
-153.132331
 21
-20.744365
 0
LINE
 8
001
 10
55.167669
 20
-0.205325
 11
55.167669
 21
-20.744365
 0
LINE
 8
001
 10
-153.132331
 20
-19.744365
 11
55.167669
 21
-19.744365
 0
INSERT
 8
001
 62
7
 2
ARROW
 6
BYBLOCK
 10
-153.132331
 20
-19.744365
 41
1.000000
 42
1.000000
 0
INSERT
 8
001
 62
7
 2
ARROW
 6
BYBLOCK
 10
55.167669
 20
-19.744365
 41
1.000000
 42
1.000000
 50
180.000000
 0
TEXT
 8
001
 10
-49.692438
 20
-18.744365
 40
3.200000
 1
250
 41
0.909927
 7
STANDARD
 0
POINT
 8
001
 10
-153.132331
 20
-1.705325
 0
POINT
 8
001
 10
55.167669
 20
0.794675
 0
POINT
 8
001
 10
55.167669
 20
-19.744365
 0
ENDBLK
 8
001
 0
BLOCK
 8
001
 2
*D3
 70
1
 10
0.0
 20
0.0
 0
LINE
 8
001
 10
-153.158338
 20
62.599347
 11
-153.158338
 21
28.070364
 0
LINE
 8
001
 10
97.479908
 20
62.784002
 11
97.479908
 21
28.070364
 0
LINE
 8
001
 10
-153.158338
 20
29.070364
 11
97.479908
 21
29.070364
 0
INSERT
 8
001
 62
7
 2
ARROW
 6
BYBLOCK
 10
-153.158338
 20
29.070364
 41
1.000000
 42
1.000000
 0
INSERT
 8
001
 62
7
 2
ARROW
 6
BYBLOCK
 10
97.479908
 20
29.070364
 41
1.000000
 42
1.000000
 50
180.000000
 0
TEXT
 8
001
 10
-31.964215
 20
30.070364
 40
3.200000
 1
290
 41
0.909927
 7
STANDARD
 0
POINT
 8
001
 10
-153.158338
 20
63.599347
 0
POINT
 8
001
 10
97.479908
 20
63.784002
 0
POINT
 8
001
 10
97.479908
 20
29.070364
 0
ENDBLK
 8
001
 0
BLOCK
 8
001
 2
*D4
 70
1
 10
0.0
 20
0.0
 0
LINE
 8
001
 10
81.979908
 20
47.284002
 11
109.802682
 21
47.284002
 0
LINE
 8
001
 10
75.452637
 20
84.355715
 11
109.802682
 21
84.355715
 0
LINE
 8
001
 10
108.802682
 20
47.284002
 11
108.802682
 21
84.355715
 0
INSERT
 8
001
 62
7
 2
ARROW
 6
BYBLOCK
 10
108.802682
 20
47.284002
 41
1.000000
 42
1.000000
 50
90.000000
 0
INSERT
 8
001
 62
7
 2
ARROW
 6
BYBLOCK
 10
108.802682
 20
84.355715
 41
1.000000
 42
1.000000
 50
270.000000
 0
TEXT
 8
001
 10
107.802682
 20
63.069858
 40
3.200000
 1
37
 50
90.000003
 41
0.859375
 7
STANDARD
 0
POINT
 8
001
 10
80.979908
 20
47.284002
 0
POINT
 8
001
 10
74.452637
 20
84.355715
 0
POINT
 8
001
 10
108.802682
 20
84.355715
 0
ENDBLK
 8
001
 0
BLOCK
 8
001
 2
*D5
 70
1
 10
0.0
 20
0.0
 0
LINE
 8
001
 10
-131.781869
 20
-0.185169
 11
-130.386047
 21
-0.185169
 0
LINE
 8
001
 10
-133.017580
 20
7.824519
 11
-130.386047
 21
7.824519
 0
LINE
 8
001
 10
-131.386047
 20
-0.185169
 11
-131.386047
 21
7.824519
 0
INSERT
 8
001
 62
7
 2
ARROW
 6
BYBLOCK
 10
-131.386047
 20
-0.185169
 41
1.000000
 42
1.000000
 50
270.000000
 0
INSERT
 8
001
 62
7
 2
ARROW
 6
BYBLOCK
 10
-131.386047
 20
7.824519
 41
1.000000
 42
1.000000
 50
90.000000
 0
TEXT
 8
001
 10
-132.386047
 20
11.481807
 40
3.200000
 1
8
 50
90.000003
 41
0.859375
 7
STANDARD
 0
POINT
 8
001
 10
-132.781869
 20
-0.185169
 0
POINT
 8
001
 10
-134.017580
 20
7.824519
 0
POINT
 8
001
 10
-131.386047
 20
7.824519
 0
LINE
 8
001
 10
-131.386047
 20
-0.185169
 11
-131.386047
 21
-3.185169
 0
LINE
 8
001
 10
-131.386047
 20
7.824519
 11
-131.386047
 21
14.231807
 0
ENDBLK
 8
001
 0
BLOCK
 8
001
 2
*D6
 70
1
 10
0.0
 20
0.0
 0
LINE
 8
001
 10
75.486611
 20
55.427945
 11
86.473205
 21
72.140059
 0
INSERT
 8
001
 62
7
 2
ARROW
 6
BYBLOCK
 10
75.486611
 20
55.427945
 41
1.000000
 42
1.000000
 50
56.678962
 0
INSERT
 8
001
 62
7
 2
ARROW
 6
BYBLOCK
 10
86.473205
 20
72.140059
 41
1.000000
 42
1.000000
 50
236.678962
 0
TEXT
 8
001
 10
77.878318
 20
60.886458
 40
3.200000
 1
%%c20
 50
56.678962
 41
0.909927
 7
STANDARD
 0
POINT
 8
001
 10
75.486611
 20
55.427945
 0
POINT
 8
001
 10
86.473205
 20
72.140059
 0
ENDBLK
 8
001
 0
ENDSEC
 0
SECTION
 2
ENTITIES
 0
DIMENSION
 8
001
 2
*D0
 10
-162.388399
 20
71.599347
 11
-163.388399
 21
66.229164
 13
-153.158338
 23
63.599347
 14
-152.493338
 24
71.599347
 50
90.000000
 0
DIMENSION
 8
001
 2
*D1
 10
-167.592130
 20
10.294675
 11
-168.592130
 21
0.798882
 13
-152.132331
 23
-2.705325
 14
-152.132331
 24
10.294675
 50
90.000000
 0
DIMENSION
 8
001
 2
*D2
 10
55.167669
 20
-19.744365
 11
-49.692438
 21
-18.744365
 13
-153.132331
 23
-1.705325
 14
55.167669
 24
0.794675
 0
DIMENSION
 8
001
 2
*D3
 10
97.479908
 20
29.070364
 11
-31.964215
 21
30.070364
 13
-153.158338
 23
63.599347
 14
97.479908
 24
63.784002
 0
DIMENSION
 8
001
 2
*D4
 10
108.802682
 20
84.355715
 11
107.802682
 21
63.069858
 13
80.979908
 23
47.284002
 14
74.452637
 24
84.355715
 50
90.000000
 0
DIMENSION
 8
001
 2
*D5
 10
-131.386047
 20
7.824519
 11
-132.386047
 21
11.481807
 13
-132.781869
 23
-0.185169
 14
-134.017580
 24
7.824519
 50
90.000000
 0
DIMENSION
 8
001
 2
*D6
 10
86.473205
 20
72.140059
 11
77.878318
 21
60.886458
 70
3
 15
75.486611
 25
55.427945
 0
LINE
 8
001
 62
3
 10
-19.391260
 20
63.454415
 11
-19.391260
 21
61.454415
 0
LINE
 8
001
 62
3
 10
-19.391260
 20
63.454415
 11
-25.391260
 21
63.454415
 0
LINE
 8
001
 62
3
 10
-25.391260
 20
63.454415
 11
-31.391260
 21
61.454415
 0
LINE
 8
001
 62
3
 10
-35.391260
 20
61.454415
 11
-31.391260
 21
61.454415
 0
LINE
 8
001
 62
3
 10
-19.391260
 20
61.454415
 11
-15.242236
 21
61.454415
 0
LINE
 8
001
 62
3
 10
-35.391260
 20
63.454415
 11
-41.391260
 21
63.454415
 0
LINE
 8
001
 62
3
 10
-35.391260
 20
63.454415
 11
-35.391260
 21
61.454415
 0
LINE
 8
001
 62
3
 10
-11.299228
 20
62.818425
 11
-15.391260
 21
61.454415
 0
LINE
 8
001
 62
3
 10
-41.391260
 20
63.454415
 11
-47.391260
 21
61.454415
 0
LINE
 8
001
 62
3
 10
-47.391260
 20
61.454415
 11
-52.122005
 21
61.454415
 0
ARC
 8
001
 62
3
 10
80.979908
 20
63.784002
 40
10.000000
 50
231.803086
 51
99.158390
 0
LINE
 8
001
 62
3
 10
56.995515
 20
67.784002
 11
56.995515
 21
59.784002
 0
LINE
 8
001
 62
3
 10
49.995515
 20
58.784002
 11
55.995515
 21
58.784002
 0
LINE
 8
001
 62
3
 10
49.995515
 20
68.784002
 11
55.995515
 21
68.784002
 0
ARC
 8
001
 62
3
 10
55.995515
 20
59.784002
 40
1.000000
 50
270.000000
 51
0.000000
 0
ARC
 8
001
 62
3
 10
55.995515
 20
67.784002
 40
1.000000
 50
0.000000
 51
90.000000
 0
LINE
 8
001
 62
3
 10
48.995515
 20
59.784002
 11
48.995515
 21
61.584002
 0
ARC
 8
001
 62
3
 10
49.995515
 20
59.784002
 40
1.000000
 50
180.000000
 51
270.000000
 0
LINE
 8
001
 62
3
 10
48.995515
 20
67.784002
 11
48.995515
 21
65.984002
 0
ARC
 8
001
 62
3
 10
49.995515
 20
67.784002
 40
1.000000
 50
90.000000
 51
180.000000
 0
LINE
 8
001
 62
3
 10
51.995515
 20
60.484002
 11
51.995515
 21
61.584002
 0
LINE
 8
001
 62
3
 10
51.995515
 20
65.984002
 11
51.995515
 21
66.884002
 0
LINE
 8
001
 62
3
 10
51.995515
 20
61.584002
 11
51.995515
 21
65.984002
 0
ARC
 8
001
 62
2
 10
-49.089858
 20
82.213269
 40
1.955557
 50
296.448056
 51
63.551944
 0
ARC
 8
001
 62
2
 10
-53.582177
 20
73.182578
 40
11.642061
 50
63.551944
 51
81.838225
 0
ARC
 8
001
 62
2
 10
-61.815917
 20
15.773099
 40
70.038821
 50
81.838225
 51
99.174487
 0
ARC
 8
001
 62
2
 10
-53.582177
 20
73.182578
 40
12.041901
 50
63.551944
 51
81.838225
 0
ARC
 8
001
 62
2
 10
-61.834664
 20
15.573217
 40
69.838835
 50
81.736062
 51
99.053763
 0
ARC
 8
001
 62
2
 10
-49.089858
 20
82.213269
 40
1.555717
 50
296.448056
 51
63.551944
 0
ARC
 8
001
 62
2
 10
-53.582177
 20
91.243961
 40
12.041901
 50
278.161775
 51
296.448056
 0
ARC
 8
001
 62
2
 10
-61.834664
 20
148.853322
 40
69.838835
 50
260.946237
 51
278.263938
 0
ARC
 8
001
 62
2
 10
-53.582177
 20
91.243961
 40
11.642061
 50
278.161775
 51
296.448056
 0
ARC
 8
001
 62
2
 10
-61.815917
 20
148.653440
 40
70.038821
 50
260.825513
 51
278.161775
 0
ARC
 8
001
 62
2
 10
-70.274585
 20
91.243961
 40
12.041901
 50
243.551944
 51
257.001965
 0
ARC
 8
001
 62
2
 10
-70.274585
 20
91.243961
 40
11.642061
 50
243.551944
 51
257.347733
 0
ARC
 8
001
 62
2
 10
-74.766904
 20
82.213269
 40
1.555717
 50
116.448056
 51
243.551944
 0
ARC
 8
001
 62
2
 10
-74.766904
 20
82.213269
 40
1.955557
 50
116.448056
 51
243.551944
 0
ARC
 8
001
 62
2
 10
-70.274585
 20
73.182578
 40
11.642061
 50
102.652267
 51
116.448056
 0
ARC
 8
001
 62
2
 10
-70.274585
 20
73.182578
 40
12.041901
 50
102.998035
 51
116.448056
 0
ARC
 8
001
 62
3
 10
-152.493338
 20
71.099347
 40
0.500000
 50
90.000000
 51
180.000000
 0
LINE
 8
001
 62
3
 10
-147.470132
 20
71.599347
 11
-152.493338
 21
71.599347
 0
ARC
 8
001
 62
3
 10
-147.470132
 20
71.099347
 40
0.500000
 50
1.636697
 51
90.000000
 0
LINE
 8
001
 6
HIDDEN
 62
15
 10
-146.470336
 20
69.613628
 11
-146.470415
 21
69.616408
 0
LINE
 8
001
 62
3
 10
-150.657213
 20
64.099347
 11
-150.657213
 21
63.849347
 0
LINE
 8
001
 62
3
 10
-153.158338
 20
64.099347
 11
-153.158338
 21
63.849347
 0
LINE
 8
001
 62
3
 10
-150.657213
 20
63.849347
 11
-150.657213
 21
63.599347
 0
LINE
 8
001
 62
3
 10
-153.158338
 20
63.849347
 11
-153.158338
 21
63.599347
 0
LINE
 8
001
 62
3
 10
-134.981319
 20
65.470586
 11
-134.981319
 21
65.099347
 0
LINE
 8
001
 62
3
 10
-134.981319
 20
65.099347
 11
-129.431884
 21
65.099347
 0
LINE
 8
001
 62
3
 10
-152.993338
 20
71.099347
 11
-153.158338
 21
63.599347
 0
LINE
 8
001
 62
3
 10
-146.966131
 20
71.199610
 11
-146.966131
 21
69.758250
 0
LINE
 8
001
 62
3
 10
-135.404048
 20
65.964579
 11
-138.002281
 21
66.371002
 0
LINE
 8
001
 62
3
 10
-146.966131
 20
69.758250
 11
-146.966131
 21
67.599347
 0
LINE
 8
001
 62
3
 10
-138.002281
 20
66.371002
 11
-145.855021
 21
67.599347
 0
LINE
 8
001
 62
3
 10
-146.966131
 20
67.599347
 11
-145.855021
 21
67.599347
 0
LINE
 8
001
 6
DASHED
 10
-134.981319
 20
65.099347
 11
-134.981319
 21
63.599347
 0
LINE
 8
001
 62
3
 10
55.195515
 20
60.484002
 11
55.195515
 21
66.884002
 0
LINE
 8
001
 62
3
 10
51.995515
 20
60.484002
 11
55.195515
 21
60.484002
 0
LINE
 8
001
 62
3
 10
51.995515
 20
66.884002
 11
55.195515
 21
66.884002
 0
LINE
 8
001
 62
3
 10
-153.158338
 20
63.599347
 11
-59.197503
 21
63.599347
 0
LINE
 8
001
 62
3
 10
-129.431884
 20
65.099347
 11
-58.676659
 21
65.099347
 0
LINE
 8
001
 62
3
 10
-11.299228
 20
62.818425
 11
-6.905558
 21
62.818425
 0
ARC
 8
001
 62
3
 10
-135.481319
 20
65.470586
 40
0.500000
 50
0.000000
 51
81.109690
 0
TEXT
 8
001
 62
3
 10
107.444225
 20
-122.558707
 40
3.200000
 1
1/1
 41
1.072092
 7
STANDARD
 0
ARC
 8
001
 62
3
 10
80.979908
 20
63.784002
 40
12.500000
 50
228.474716
 51
97.980784
 0
ARC
 8
001
 62
3
 10
80.979908
 20
63.784002
 40
14.500000
 50
226.424105
 51
97.980784
 0
ARC
 8
001
 62
3
 10
80.979908
 20
63.784002
 40
16.500000
 50
229.741083
 51
99.416652
 0
LINE
 8
001
 62
3
 10
62.897332
 20
60.974451
 11
70.984843
 21
53.279304
 0
LINE
 8
001
 62
3
 10
63.973580
 20
62.146889
 11
72.693027
 21
54.425712
 0
TEXT
 8
001
 62
3
 10
121.942185
 20
-96.827025
 40
1.993800
 1
A
 41
0.700000
 7
STANDARD
 0
TEXT
 8
001
 62
3
 10
124.469612
 20
-96.827025
 40
1.993800
 1
P
 41
0.700000
 7
STANDARD
 0
TEXT
 8
001
 62
3
 10
126.997039
 20
-96.827025
 40
1.993800
 1
P
 41
0.700000
 7
STANDARD
 0
TEXT
 8
001
 62
3
 10
129.524466
 20
-96.827025
 40
1.993800
 1
D
 41
0.700000
 7
STANDARD
 0
TEXT
 8
001
 62
3
 10
134.876506
 20
-96.827025
 40
1.993800
 1
C
 41
0.700000
 7
STANDARD
 0
TEXT
 8
001
 62
3
 10
137.403933
 20
-96.827025
 40
1.993800
 1
H
 41
0.700000
 7
STANDARD
 0
TEXT
 8
001
 62
3
 10
139.931360
 20
-96.827025
 40
1.993800
 1
C
 41
0.700000
 7
STANDARD
 0
TEXT
 8
001
 62
3
 10
142.458787
 20
-96.827025
 40
1.993800
 1
K
 41
0.700000
 7
STANDARD
 0
TEXT
 8
001
 62
3
 10
148.115164
 20
-96.827025
 40
1.993800
 1
DESN
 41
1.216762
 7
STANDARD
 0
TEXT
 8
001
 62
3
 10
121.212619
 20
-121.250935
 40
3.190080
 1
作成日
 41
1.017226
 7
STANDARD
 0
LINE
 8
001
 62
3
 10
171.477194
 20
-93.043905
 11
60.518793
 21
-93.043905
 0
LINE
 8
001
 62
3
 10
158.817199
 20
-115.972605
 11
158.817199
 21
-93.043905
 0
TEXT
 8
001
 62
3
 10
162.130699
 20
-96.741472
 40
1.794420
 1
D
 41
0.666667
 7
STANDARD
 0
TEXT
 8
001
 62
3
 10
164.938595
 20
-96.741472
 40
1.794420
 1
E
 41
0.666667
 7
STANDARD
 0
TEXT
 8
001
 62
3
 10
167.746492
 20
-96.741472
 40
1.794420
 1
F
 41
0.666667
 7
STANDARD
 0
TEXT
 8
001
 62
3
 10
162.130699
 20
-100.721649
 40
3.190080
 1
製図
 41
1.076369
 7
STANDARD
 0
LINE
 8
001
 62
3
 10
60.518793
 20
-93.043905
 11
60.518793
 21
-131.923005
 0
TEXT
 8
001
 62
3
 10
61.940090
 20
-101.517555
 40
3.190080
 1
部品名
 41
0.959524
 7
STANDARD
 0
TEXT
 8
001
 62
3
 10
61.729505
 20
-119.461755
 40
2.591940
 1
１
 41
0.884615
 7
STANDARD
 0
TEXT
 8
001
 62
3
 10
66.088722
 20
-119.461755
 40
2.591940
 1
台
 41
0.884615
 7
STANDARD
 0
TEXT
 8
001
 62
3
 10
70.447938
 20
-119.461755
 40
2.591940
 1
分
 41
0.884615
 7
STANDARD
 0
TEXT
 8
001
 62
3
 10
61.729505
 20
-122.950905
 40
2.591940
 1
個
 41
0.884615
 7
STANDARD
 0
TEXT
 8
001
 62
3
 10
70.447938
 20
-122.950905
 40
2.591940
 1
数
 41
0.884615
 7
STANDARD
 0
TEXT
 8
001
 62
3
 10
63.884978
 20
-131.258329
 40
4.386360
 1
日動工業株式会社
 41
0.833333
 7
STANDARD
 0
TEXT
 8
001
 62
3
 10
63.372324
 20
-126.082549
 40
2.591940
 1
NICHIDO IND.CO.,LTD
 41
0.949051
 7
STANDARD
 0
TEXT
 8
001
 62
3
 10
87.144080
 20
-119.749861
 40
2.591940
 1
3AD
 41
1.013213
 7
STANDARD
 0
TEXT
 8
001
 62
3
 10
87.144080
 20
-122.570840
 40
2.591940
 1
三角法
 41
0.844344
 7
STANDARD
 0
LINE
 8
001
 62
3
 10
119.938099
 20
-93.043905
 11
119.938099
 21
-131.923005
 0
LINE
 8
001
 62
3
 10
145.857499
 20
-93.043905
 11
145.857499
 21
-115.972605
 0
LINE
 8
001
 62
3
 10
132.897799
 20
-93.043905
 11
132.897799
 21
-122.950905
 0
LINE
 8
001
 62
3
 10
73.723166
 20
-122.950905
 11
73.723166
 21
-93.043905
 0
LINE
 8
001
 62
3
 10
94.976003
 20
-108.994305
 11
94.976003
 21
-122.950905
 0
LINE
 8
001
 62
3
 10
87.103084
 20
-115.972605
 11
87.103084
 21
-122.950905
 0
LINE
 8
001
 62
3
 10
105.029114
 20
-108.994305
 11
105.029114
 21
-131.991172
 0
LINE
 8
001
 62
3
 10
119.938099
 20
-127.471039
 11
105.029114
 21
-127.471039
 0
TEXT
 8
001
 62
3
 10
105.865521
 20
-126.810972
 40
3.200000
 1
出図コード
 41
0.699326
 7
STANDARD
 0
TEXT
 8
001
 62
3
 10
105.865521
 20
-131.331105
 40
3.200000
 1
HM-A3
 41
0.839192
 7
STANDARD
 0
LINE
 8
001
 62
3
 10
87.949003
 20
140.469259
 11
171.549003
 21
140.469259
 0
TEXT
 8
001
 62
3
 10
160.824003
 20
135.624259
 40
3.040000
 1
担
 41
0.859375
 7
STANDARD
 0
TEXT
 8
001
 62
3
 10
167.711503
 20
135.624259
 40
3.040000
 1
当
 41
0.859375
 7
STANDARD
 0
TEXT
 8
001
 62
3
 10
120.280250
 20
135.190641
 40
3.040000
 1
変更・追記内容
 41
1.182726
 7
STANDARD
 0
LINE
 8
001
 62
3
 10
87.949003
 20
140.469259
 11
87.949003
 21
120.519259
 0
TEXT
 8
001
 62
3
 10
91.721707
 20
128.470083
 40
2.432000
 1
1
 41
1.499999
 7
STANDARD
 0
TEXT
 8
001
 62
3
 10
91.721707
 20
121.613873
 40
2.432000
 1
2
 41
1.000000
 7
STANDARD
 0
TEXT
 8
001
 62
3
 10
101.081991
 20
135.226216
 40
3.200000
 1
日
 41
0.859375
 7
STANDARD
 0
TEXT
 8
001
 62
3
 10
109.958865
 20
135.226216
 40
3.200000
 1
付
 41
0.859375
 7
STANDARD
 0
LINE
 8
001
 62
3
 10
87.949003
 20
140.469259
 11
87.949003
 21
144.969259
 0
TEXT
 8
001
 62
3
 10
100.733793
 20
141.119259
 40
3.200000
 1
図
 41
0.859375
 7
STANDARD
 0
TEXT
 8
001
 62
3
 10
119.389688
 20
141.119259
 40
3.200000
 1
面
 41
0.859375
 7
STANDARD
 0
TEXT
 8
001
 62
3
 10
138.045584
 20
141.119259
 40
3.200000
 1
略
 41
0.859375
 7
STANDARD
 0
TEXT
 8
001
 62
3
 10
156.701479
 20
141.119259
 40
3.200000
 1
歴
 41
0.859375
 7
STANDARD
 0
TEXT
 8
001
 62
3
 10
88.551367
 20
135.544259
 40
3.200000
 1
記
 41
0.859375
 7
STANDARD
 0
TEXT
 8
001
 62
3
 10
94.804275
 20
135.544259
 40
3.200000
 1
号
 41
0.859375
 7
STANDARD
 0
LINE
 8
001
 62
3
 10
168.745786
 20
-122.950905
 11
135.584871
 21
-122.950905
 0
LINE
 8
001
 62
3
 10
168.745786
 20
-122.950905
 11
171.477194
 21
-122.950905
 0
LINE
 8
001
 62
3
 10
75.831120
 20
-102.016005
 11
60.518793
 21
-102.016005
 0
LINE
 8
001
 62
3
 10
117.359927
 20
-102.016005
 11
171.477194
 21
-102.016005
 0
LINE
 8
001
 62
3
 10
113.124206
 20
-102.016005
 11
117.359927
 21
-102.016005
 0
LINE
 8
001
 62
3
 10
79.805499
 20
-102.016005
 11
113.124206
 21
-102.016005
 0
LINE
 8
001
 62
3
 10
79.805499
 20
-102.016005
 11
75.831120
 21
-102.016005
 0
LINE
 8
001
 62
3
 10
79.697017
 20
-108.994305
 11
60.518793
 21
-108.994305
 0
LINE
 8
001
 62
3
 10
113.390480
 20
-108.994305
 11
79.697017
 21
-108.994305
 0
LINE
 8
001
 62
3
 10
113.390480
 20
-108.994305
 11
119.938099
 21
-108.994305
 0
LINE
 8
001
 62
3
 10
75.140781
 20
-115.972605
 11
60.518793
 21
-115.972605
 0
LINE
 8
001
 62
3
 10
93.523516
 20
-115.972605
 11
75.140781
 21
-115.972605
 0
LINE
 8
001
 62
3
 10
93.523516
 20
-115.972605
 11
171.477194
 21
-115.972605
 0
LINE
 8
001
 62
3
 10
75.564846
 20
-122.950905
 11
60.518793
 21
-122.950905
 0
LINE
 8
001
 62
3
 10
85.471208
 20
-122.950905
 11
75.564846
 21
-122.950905
 0
LINE
 8
001
 62
3
 10
107.719840
 20
-122.950905
 11
85.471208
 21
-122.950905
 0
LINE
 8
001
 62
3
 10
117.359927
 20
-122.950905
 11
107.719840
 21
-122.950905
 0
LINE
 8
001
 62
3
 10
117.359927
 20
-122.950905
 11
135.584871
 21
-122.950905
 0
LINE
 8
001
 62
3
 10
161.286211
 20
120.519259
 11
87.949003
 21
120.519259
 0
LINE
 8
001
 62
3
 10
170.294528
 20
120.519259
 11
161.286211
 21
120.519259
 0
LINE
 8
001
 62
3
 10
170.294528
 20
120.519259
 11
171.549003
 21
120.519259
 0
LINE
 8
001
 10
92.766707
 20
131.880014
 11
90.866707
 21
128.589118
 0
LINE
 8
001
 10
92.766707
 20
131.880014
 11
94.666707
 21
128.589118
 0
LINE
 8
001
 10
90.866707
 20
128.589118
 11
94.666707
 21
128.589118
 0
LINE
 8
001
 10
92.766707
 20
125.023804
 11
90.866707
 21
121.732907
 0
LINE
 8
001
 10
92.766707
 20
125.023804
 11
94.666707
 21
121.732907
 0
LINE
 8
001
 10
90.866707
 20
121.732907
 11
94.666707
 21
121.732907
 0
LINE
 8
001
 62
3
 10
-58.676659
 20
65.099347
 11
-55.712906
 21
65.099347
 0
LINE
 8
001
 62
3
 10
-59.197503
 20
63.599347
 11
-55.960496
 21
63.599347
 0
LINE
 8
001
 62
3
 10
-150.132331
 20
1.794675
 11
-150.132331
 21
5.794675
 0
ARC
 8
001
 62
3
 10
-152.132331
 20
9.294675
 40
1.000000
 50
90.000000
 51
180.000000
 0
ARC
 8
001
 62
3
 10
-152.132331
 20
-1.705325
 40
1.000000
 50
180.000000
 51
270.000000
 0
LINE
 8
001
 62
3
 10
-149.232331
 20
8.044675
 11
-150.532331
 21
8.044675
 0
LINE
 8
001
 62
3
 10
-150.532331
 20
-0.455325
 11
-149.232331
 21
-0.455325
 0
LINE
 8
001
 62
3
 10
-152.632331
 20
1.794675
 11
-150.632331
 21
1.794675
 0
LINE
 8
001
 62
3
 10
-152.632331
 20
5.794675
 11
-150.632331
 21
5.794675
 0
LINE
 8
001
 62
3
 10
-138.130699
 20
2.294675
 11
-138.130699
 21
5.294675
 0
LINE
 8
001
 62
3
 10
-137.630699
 20
5.294675
 11
-137.630699
 21
2.294675
 0
ARC
 8
001
 62
3
 10
-138.630699
 20
5.294675
 40
0.500000
 50
0.000000
 51
90.000000
 0
ARC
 8
001
 62
3
 10
-138.630699
 20
2.294675
 40
0.500000
 50
270.000000
 51
0.000000
 0
ARC
 8
001
 62
3
 10
-152.632331
 20
1.294675
 40
0.500000
 50
90.000000
 51
180.000000
 0
ARC
 8
001
 62
3
 10
-152.632331
 20
6.294675
 40
0.500000
 50
180.000000
 51
270.000000
 0
LINE
 8
001
 62
3
 10
-153.132331
 20
1.294675
 11
-153.132331
 21
-1.705325
 0
LINE
 8
001
 62
3
 10
-153.132331
 20
6.294675
 11
-153.132331
 21
9.294675
 0
LINE
 8
001
 62
3
 10
-148.116060
 20
-2.705325
 11
-152.132331
 21
-2.705325
 0
LINE
 8
001
 62
3
 10
-148.116060
 20
10.294675
 11
-152.132331
 21
10.294675
 0
LINE
 8
001
 62
3
 10
-147.116060
 20
1.294675
 11
-149.132331
 21
1.294675
 0
LINE
 8
001
 62
3
 10
-148.880699
 20
1.794675
 11
-150.132331
 21
1.794675
 0
LINE
 8
001
 62
3
 10
-148.880699
 20
5.794675
 11
-150.132331
 21
5.794675
 0
LINE
 8
001
 62
3
 10
-147.116060
 20
6.294675
 11
-149.132331
 21
6.294675
 0
LINE
 8
001
 62
3
 10
-135.130699
 20
-0.185169
 11
-132.781869
 21
-0.185169
 0
LINE
 8
001
 6
HIDDEN
 62
15
 10
-146.616060
 20
9.294675
 11
-146.616060
 21
9.324519
 0
ARC
 8
001
 62
3
 10
-135.630699
 20
-0.182246
 40
0.500000
 50
276.179879
 51
0.000000
 0
LINE
 8
001
 6
HIDDEN
 62
15
 10
-137.380699
 20
-0.182246
 11
-137.380699
 21
-0.185169
 0
ARC
 8
001
 62
3
 10
-135.630699
 20
7.821768
 40
0.500000
 50
0.000000
 51
84.003189
 0
LINE
 8
001
 6
HIDDEN
 62
15
 10
-137.380699
 20
7.821768
 11
-137.380699
 21
7.824519
 0
LINE
 8
001
 62
3
 10
-135.130699
 20
-0.185169
 11
-135.130699
 21
7.824519
 0
LINE
 8
001
 62
3
 10
-148.052380
 20
1.794675
 11
-148.880699
 21
1.794675
 0
LINE
 8
001
 62
3
 10
-148.052380
 20
5.794675
 11
-148.880699
 21
5.794675
 0
LINE
 8
001
 62
3
 10
-148.052380
 20
1.794675
 11
-147.116060
 21
1.794675
 0
LINE
 8
001
 62
3
 10
-148.052380
 20
5.794675
 11
-147.116060
 21
5.794675
 0
LINE
 8
001
 62
3
 10
-146.024802
 20
-2.380392
 11
-148.116060
 21
-2.705325
 0
LINE
 8
001
 62
3
 10
-146.026658
 20
9.978059
 11
-148.116060
 21
10.294675
 0
LINE
 8
001
 62
3
 10
-138.630699
 20
1.794675
 11
-145.001570
 21
1.794675
 0
LINE
 8
001
 62
3
 10
-138.630699
 20
5.794675
 11
-145.001570
 21
5.794675
 0
ARC
 8
001
 62
3
 10
-149.232331
 20
-0.355325
 40
0.100000
 50
270.000000
 51
0.000000
 0
ARC
 8
001
 62
3
 10
-150.532331
 20
-0.355325
 40
0.100000
 50
180.000000
 51
270.000000
 0
ARC
 8
001
 62
3
 10
-150.532331
 20
7.944675
 40
0.100000
 50
90.000000
 51
180.000000
 0
ARC
 8
001
 62
3
 10
-149.232331
 20
7.944675
 40
0.100000
 50
0.000000
 51
90.000000
 0
LINE
 8
001
 62
3
 10
-149.132331
 20
1.294675
 11
-149.132331
 21
-0.355325
 0
LINE
 8
001
 62
3
 10
-150.632331
 20
1.794675
 11
-150.632331
 21
-0.355325
 0
LINE
 8
001
 62
3
 10
-149.132331
 20
6.294675
 11
-149.132331
 21
7.944675
 0
LINE
 8
001
 62
3
 10
-150.632331
 20
5.794675
 11
-150.632331
 21
7.944675
 0
LINE
 8
001
 6
CENTER
 10
-153.245376
 20
3.794675
 11
-129.957850
 21
3.794675
 0
LINE
 8
001
 62
3
 10
-147.116060
 20
1.794675
 11
-145.001570
 21
1.794675
 0
LINE
 8
001
 62
3
 10
-147.116060
 20
5.794675
 11
-145.001570
 21
5.794675
 0
LINE
 8
001
 62
3
 10
-138.630699
 20
1.294675
 11
-145.601570
 21
1.294675
 0
LINE
 8
001
 62
3
 10
-138.630699
 20
6.294675
 11
-145.601570
 21
6.294675
 0
ARC
 8
001
 62
3
 10
-138.630699
 20
2.294675
 40
1.000000
 50
270.000000
 51
0.000000
 0
ARC
 8
001
 62
3
 10
-138.630699
 20
5.294675
 40
1.000000
 50
0.000000
 51
90.000000
 0
LINE
 8
001
 62
3
 10
-145.601570
 20
6.294675
 11
-145.601570
 21
5.794675
 0
LINE
 8
001
 62
3
 10
-145.601570
 20
1.294675
 11
-145.601570
 21
1.794675
 0
LINE
 8
001
 62
3
 10
-147.116060
 20
6.294675
 11
-147.116060
 21
5.794675
 0
LINE
 8
001
 62
3
 10
-147.116060
 20
1.294675
 11
-147.116060
 21
1.794675
 0
LINE
 8
001
 62
3
 10
-148.630699
 20
5.794675
 11
-148.630699
 21
1.794675
 0
ARC
 8
001
 62
3
 10
37.167669
 20
3.794675
 40
2.000000
 50
90.000000
 51
270.000000
 0
LINE
 8
001
 62
3
 10
36.167669
 20
7.824519
 11
41.167669
 21
5.794675
 0
LINE
 8
001
 62
3
 10
41.167669
 20
1.794675
 11
36.167669
 21
-0.185169
 0
LINE
 8
001
 62
3
 10
52.167669
 20
6.794675
 11
52.167669
 21
0.794675
 0
LINE
 8
001
 62
3
 10
55.167669
 20
6.794675
 11
55.167669
 21
0.794675
 0
LINE
 8
001
 62
3
 10
52.167669
 20
6.794675
 11
55.167669
 21
6.794675
 0
LINE
 8
001
 62
3
 10
52.167669
 20
0.794675
 11
55.167669
 21
0.794675
 0
LINE
 8
001
 62
3
 10
37.167669
 20
5.794675
 11
52.167669
 21
5.794675
 0
LINE
 8
001
 62
3
 10
37.167669
 20
1.794675
 11
52.167669
 21
1.794675
 0
LINE
 8
001
 6
PHANTOM
 10
-5.130699
 20
6.044675
 11
-5.130699
 21
1.544675
 0
LINE
 8
001
 6
PHANTOM
 10
-85.130699
 20
6.044675
 11
-85.130699
 21
1.544675
 0
LINE
 8
001
 62
3
 10
-146.026658
 20
9.978059
 11
-135.578462
 21
8.319032
 0
LINE
 8
001
 62
3
 10
-146.024802
 20
-2.380392
 11
-135.576873
 21
-0.679341
 0
LINE
 8
001
 6
PHANTOM
 10
-81.130699
 20
6.044675
 11
-81.130699
 21
1.544675
 0
LINE
 8
001
 6
PHANTOM
 10
-77.130699
 20
6.044675
 11
-77.130699
 21
1.544675
 0
LINE
 8
001
 6
PHANTOM
 10
-73.130699
 20
6.044675
 11
-73.130699
 21
1.544675
 0
LINE
 8
001
 6
PHANTOM
 10
-69.130699
 20
6.044675
 11
-69.130699
 21
1.544675
 0
LINE
 8
001
 6
PHANTOM
 10
-65.130699
 20
6.044675
 11
-65.130699
 21
1.544675
 0
LINE
 8
001
 6
PHANTOM
 10
-61.130699
 20
6.044675
 11
-61.130699
 21
1.544675
 0
LINE
 8
001
 6
PHANTOM
 10
-57.130699
 20
6.044675
 11
-57.130699
 21
1.544675
 0
LINE
 8
001
 6
PHANTOM
 10
-53.130699
 20
6.044675
 11
-53.130699
 21
1.544675
 0
LINE
 8
001
 6
PHANTOM
 10
-45.130699
 20
6.044675
 11
-45.130699
 21
1.544675
 0
LINE
 8
001
 6
PHANTOM
 10
-41.130699
 20
6.044675
 11
-41.130699
 21
1.544675
 0
LINE
 8
001
 6
PHANTOM
 10
-37.130699
 20
6.044675
 11
-37.130699
 21
1.544675
 0
LINE
 8
001
 6
PHANTOM
 10
-33.130699
 20
6.044675
 11
-33.130699
 21
1.544675
 0
LINE
 8
001
 6
PHANTOM
 10
-29.130699
 20
6.044675
 11
-29.130699
 21
1.544675
 0
LINE
 8
001
 6
PHANTOM
 10
-25.130699
 20
6.044675
 11
-25.130699
 21
1.544675
 0
LINE
 8
001
 6
PHANTOM
 10
-21.130699
 20
6.044675
 11
-21.130699
 21
1.544675
 0
LINE
 8
001
 6
PHANTOM
 10
-17.130699
 20
6.044675
 11
-17.130699
 21
1.544675
 0
LINE
 8
001
 6
PHANTOM
 10
-13.130699
 20
6.044675
 11
-13.130699
 21
1.544675
 0
LINE
 8
001
 6
PHANTOM
 10
-9.130699
 20
6.044675
 11
-9.130699
 21
1.544675
 0
ARC
 8
001
 62
3
 10
8.867669
 20
3.794675
 40
2.000000
 50
90.000000
 51
270.000000
 0
LINE
 8
001
 62
3
 10
12.867669
 20
1.794675
 11
7.867669
 21
-0.185169
 0
LINE
 8
001
 62
3
 10
7.867669
 20
7.824519
 11
12.867669
 21
5.794675
 0
LINE
 8
001
 62
3
 10
20.867669
 20
7.824519
 11
20.867669
 21
5.794675
 0
LINE
 8
001
 62
3
 10
20.867669
 20
1.794675
 11
20.867669
 21
-0.185169
 0
LINE
 8
001
 62
3
 10
8.867669
 20
5.794675
 11
23.867669
 21
5.794675
 0
LINE
 8
001
 62
3
 10
8.867669
 20
1.794675
 11
23.867669
 21
1.794675
 0
LINE
 8
001
 62
3
 10
22.816887
 20
9.824519
 11
25.867669
 21
9.824519
 0
LINE
 8
001
 62
3
 10
22.768156
 20
-2.185169
 11
25.867669
 21
-2.185169
 0
LINE
 8
001
 62
3
 10
20.867669
 20
7.824519
 11
22.779357
 21
9.786012
 0
LINE
 8
001
 62
3
 10
20.867669
 20
-0.235169
 11
22.779357
 21
-2.196661
 0
LINE
 8
001
 62
3
 10
36.167669
 20
7.824519
 11
25.867669
 21
7.824519
 0
LINE
 8
001
 62
3
 10
36.167669
 20
-0.185169
 11
25.867669
 21
-0.185169
 0
LINE
 8
001
 62
3
 10
25.867669
 20
9.824519
 11
25.867669
 21
7.824519
 0
LINE
 8
001
 62
3
 10
25.867669
 20
-0.185169
 11
25.867669
 21
-2.185169
 0
LINE
 8
001
 62
3
 10
6.367669
 20
7.824519
 11
7.867669
 21
7.824519
 0
LINE
 8
001
 62
3
 10
6.367669
 20
-0.185169
 11
7.867669
 21
-0.185169
  0
POLYLINE
  8
001
 66
1
  0
VERTEX
  8
001
 10
-45.711575
 20
11.551175
  0
VERTEX
  8
001
 10
-47.288926
 20
9.442485
  0
VERTEX
  8
001
 10
-48.352207
 20
7.366675
  0
VERTEX
  8
001
 10
-48.387349
 20
5.356621
  0
VERTEX
  8
001
 10
-47.008016
 20
3.179287
  0
VERTEX
  8
001
 10
-45.711575
 20
1.028966
  0
VERTEX
  8
001
 10
-45.902236
 20
-0.813156
  0
VERTEX
  8
001
 10
-47.095506
 20
-2.689105
  0
VERTEX
  8
001
 10
-48.790081
 20
-4.581968
  0
SEQEND
  8
001
  0
POLYLINE
  8
001
 66
1
  0
VERTEX
  8
001
 10
-49.892565
 20
11.551175
  0
VERTEX
  8
001
 10
-51.469915
 20
9.442485
  0
VERTEX
  8
001
 10
-52.533197
 20
7.366675
  0
VERTEX
  8
001
 10
-52.568339
 20
5.356621
  0
VERTEX
  8
001
 10
-51.189005
 20
3.179287
  0
VERTEX
  8
001
 10
-49.892565
 20
1.028966
  0
VERTEX
  8
001
 10
-50.083225
 20
-0.813156
  0
VERTEX
  8
001
 10
-51.276495
 20
-2.689105
  0
VERTEX
  8
001
 10
-52.971070
 20
-4.581968
  0
SEQEND
  8
001
 0
LINE
 8
001
 62
3
 10
-135.130699
 20
7.824519
 11
-52.367220
 21
7.824519
 0
LINE
 8
001
 62
3
 10
-48.186234
 20
7.824519
 11
6.367669
 21
7.824519
 0
LINE
 8
001
 6
PHANTOM
 10
-48.523738
 20
6.044675
 11
-5.130699
 21
6.044675
 0
LINE
 8
001
 6
PHANTOM
 10
-52.704730
 20
6.044675
 11
-85.130699
 21
6.044675
 0
LINE
 8
001
 6
CENTER
 10
-49.183847
 20
3.794675
 11
56.249942
 21
3.794675
 0
LINE
 8
001
 6
PHANTOM
 10
-45.903643
 20
1.544675
 11
-5.130699
 21
1.544675
 0
LINE
 8
001
 6
PHANTOM
 10
-50.084632
 20
1.544675
 11
-85.130699
 21
1.544675
 0
LINE
 8
001
 62
3
 10
-49.881439
 20
-0.185169
 11
-132.781869
 21
-0.185169
 0
LINE
 8
001
 62
3
 10
-45.700449
 20
-0.185169
 11
6.367669
 21
-0.185169
 0
LINE
 8
001
 6
CENTER
 10
-129.957850
 20
3.794675
 11
-51.664836
 21
3.794675
 0
LINE
 8
001
 62
3
 10
-7.074104
 20
65.454415
 11
-51.503091
 21
65.454415
 0
CIRCLE
 8
001
 10
-29.483440
 20
59.999466
 40
22.685270
 0
LINE
 8
001
 62
3
 10
-137.630699
 20
63.599347
 11
-137.630699
 21
66.371002
 0
LINE
 8
001
 62
3
 10
41.053852
 20
63.034002
 11
41.053852
 21
64.534002
 0
LINE
 8
001
 62
3
 10
48.053852
 20
61.784002
 11
52.053852
 21
61.784002
 0
LINE
 8
001
 62
3
 10
37.053852
 20
65.784002
 11
52.053852
 21
65.784002
 0
ARC
 8
001
 62
3
 10
37.053852
 20
63.784002
 40
2.000000
 50
90.000000
 51
157.975687
 0
LINE
 8
001
 62
3
 10
20.703923
 20
63.034002
 11
41.053852
 21
63.034002
 0
LINE
 8
001
 62
3
 10
20.703923
 20
64.534002
 11
41.053852
 21
64.534002
 0
LINE
 8
001
 62
3
 10
48.053852
 20
61.784002
 11
35.199802
 21
63.034002
 0
LINE
 8
001
 62
3
 10
12.703923
 20
63.034002
 11
12.703923
 21
64.534002
 0
LINE
 8
001
 62
3
 10
20.703923
 20
63.034002
 11
20.703923
 21
64.534002
 0
LINE
 8
001
 62
3
 10
24.203923
 20
65.871908
 11
8.203923
 21
65.871908
 0
LINE
 8
001
 62
3
 10
24.203923
 20
61.784002
 11
20.703923
 21
61.784002
 0
LINE
 8
001
 62
3
 10
12.703923
 20
64.534002
 11
2.724660
 21
64.534002
 0
LINE
 8
001
 62
3
 10
12.703923
 20
63.034002
 11
2.724660
 21
63.034002
 0
ARC
 8
001
 62
3
 10
8.203923
 20
64.371908
 40
1.500000
 50
90.000000
 51
173.796361
 0
ARC
 8
001
 62
3
 10
24.203923
 20
64.371908
 40
1.500000
 50
6.203639
 51
90.000000
 0
ARC
 8
001
 62
3
 10
24.203923
 20
63.284002
 40
1.500000
 50
270.000000
 51
350.405932
 0
LINE
 8
001
 62
3
 10
6.724903
 20
63.034002
 11
20.703923
 21
61.784002
 0
ARC
 8
001
 62
3
 10
23.867669
 20
3.794675
 40
2.000000
 50
270.000000
 51
90.000000
 0
LINE
 8
001
 10
35.194628
 20
5.994675
 11
29.194628
 21
5.994675
 0
LINE
 8
001
 10
35.194628
 20
1.594675
 11
29.194628
 21
1.594675
 0
LINE
 8
001
 10
29.194628
 20
5.994675
 11
29.194628
 21
1.594675
 0
LINE
 8
001
 10
35.194628
 20
5.994675
 11
35.194628
 21
1.594675
 0
TEXT
 8
001
 62
3
 10
137.503953
 20
-121.921709
 40
3.200000
 1
2005.8.30
 41
1.326390
 7
STANDARD
 0
LINE
 8
001
 62
3
 10
59.438145
 20
59.784002
 11
56.995515
 21
59.784002
 0
LINE
 8
001
 62
3
 10
61.357425
 20
66.499239
 11
74.796247
 21
55.925100
 0
LINE
 8
001
 62
3
 10
58.075683
 20
63.388870
 11
59.644590
 21
61.867165
 0
LINE
 8
001
 62
3
 10
59.746626
 20
65.111644
 11
61.315533
 21
63.589939
 0
ARC
 8
001
 62
3
 10
60.480062
 20
62.728552
 40
1.200000
 50
225.874995
 51
45.874995
 0
ARC
 8
001
 62
3
 10
58.911154
 20
64.250257
 40
1.200000
 50
45.874995
 51
225.874995
 0
ARC
 8
001
 62
3
 10
63.445947
 20
61.551040
 40
0.795885
 50
48.474716
 51
226.424105
 0
LINE
 8
001
 62
3
 10
73.099805
 20
79.336524
 11
74.758383
 21
77.876146
 0
LINE
 8
001
 62
3
 10
74.685819
 20
81.137790
 11
76.344397
 21
79.677412
 0
ARC
 8
001
 62
3
 10
73.892812
 20
80.237157
 40
1.200000
 50
48.636077
 51
228.636074
 0
ARC
 8
001
 62
3
 10
75.551390
 20
78.776779
 40
1.200000
 50
228.636074
 51
48.636074
 0
LINE
 8
001
 62
3
 10
71.850771
 20
81.658272
 11
73.950258
 21
84.702218
 0
ARC
 8
001
 62
3
 10
74.452637
 20
84.355715
 40
0.610286
 50
338.020503
 51
145.404978
 0
LINE
 8
001
 62
3
 10
76.928254
 20
74.366698
 11
72.240402
 21
78.494353
 0
LINE
 8
001
 62
3
 10
77.455847
 20
80.297656
 11
74.729834
 21
82.697911
 0
LINE
 8
001
 6
HIDDEN
 62
15
 10
76.598229
 20
74.657285
 11
76.875375
 21
74.413259
 0
ARC
 8
001
 62
3
 10
73.826416
 20
80.295619
 40
2.400000
 50
145.404978
 51
228.636074
 0
LINE
 8
001
 62
3
 10
74.729834
 20
82.697911
 11
74.334009
 21
83.014643
 0
LINE
 8
001
 62
3
 10
75.018566
 20
84.127300
 11
74.334009
 21
83.014643
 0
ARC
 8
001
 62
3
 10
78.116686
 20
81.048184
 40
1.000000
 50
228.636074
 51
279.416652
 0
LINE
 8
001
 6
HIDDEN
 62
15
 10
77.455847
 20
80.297656
 11
77.582255
 21
80.186354
 0
ARC
 8
001
 62
3
 10
78.910773
 20
76.618280
 40
3.000000
 50
228.636074
 51
279.158390
 0
ARC
 8
001
 62
3
 10
79.105555
 20
77.153250
 40
1.000000
 50
97.980784
 51
277.980789
 0
LINE
 8
001
 62
3
 10
57.647229
 20
67.783897
 11
56.995515
 21
67.783897
 0
ARC
 8
001
 62
3
 10
57.647229
 20
61.783897
 40
6.000000
 50
51.803086
 51
90.000000
 0
LINE
 8
001
 62
3
 10
63.973580
 20
62.146889
 11
64.808258
 21
63.784002
 0
LINE
 8
001
 62
3
 10
79.244396
 20
76.162936
 11
79.388266
 21
73.656523
 0
LINE
 8
001
 62
3
 10
60.730630
 20
59.310266
 11
70.316903
 21
51.192326
 0
ARC
 8
001
 62
3
 10
59.438145
 20
57.784002
 40
2.000000
 50
49.741083
 51
90.000000
 0
TEXT
 8
001
 62
3
 10
107.549364
 20
-112.487181
 40
3.200000
 1
耐候性
 41
0.833333
 7
STANDARD
 0
TEXT
 8
001
 62
3
 10
106.147178
 20
-116.033887
 40
3.200000
 1
グレード
 41
0.833333
 7
STANDARD
 0
LINE
 8
001
 62
3
 10
2.724660
 20
64.534002
 11
-5.395089
 21
64.534002
 0
LINE
 8
001
 62
3
 10
2.724660
 20
63.034002
 11
-5.150189
 21
63.034002
 0
TEXT
 8
001
 62
3
 10
-47.675716
 20
-69.158951
 40
4.500000
 1
%%c50
 41
1.058824
 7
STANDARD
 0
TEXT
 8
001
 62
3
 10
-47.383857
 20
-76.231892
 40
4.500000
 1
3.0
 41
1.384616
 7
STANDARD
 0
TEXT
 8
001
 62
3
 10
-58.854223
 20
-83.230315
 40
4.500000
 1
－２０℃～８０℃
 41
0.833333
 7
STANDARD
 0
TEXT
 8
001
 62
3
 10
-95.293348
 20
-83.206892
 40
4.500000
 1
温　度　範　囲
 41
0.833333
 7
STANDARD
 0
LINE
 8
001
 62
3
 10
-96.940447
 20
-48.887072
 11
-19.560435
 21
-48.887072
 0
LINE
 8
001
 62
3
 10
-96.940447
 20
-83.887072
 11
-19.560435
 21
-83.887072
 0
LINE
 8
001
 62
3
 10
-96.940447
 20
-48.887072
 11
-96.940447
 21
-83.887072
 0
TEXT
 8
001
 62
3
 10
-94.940447
 20
-55.387072
 40
4.500000
 1
型　　　　　式
 41
0.833333
 7
STANDARD
 0
TEXT
 8
001
 62
3
 10
-94.865098
 20
-62.056377
 40
4.500000
 1
着　　　　　色
 41
0.833333
 7
STANDARD
 0
TEXT
 8
001
 62
3
 10
-94.715838
 20
-69.259723
 40
4.500000
 1
結束径（ｍａｘ）
 41
0.833333
 7
STANDARD
 0
TEXT
 8
001
 62
3
 10
-94.771502
 20
-76.109110
 40
4.500000
 1
耐荷重（ｋｇ）
 41
0.833333
 7
STANDARD
 0
LINE
 8
001
 10
-60.905156
 20
-49.383224
 11
-60.905156
 21
-69.887072
 0
LINE
 8
001
 10
-96.940447
 20
-55.887072
 11
-19.560435
 21
-55.887072
 0
LINE
 8
001
 10
-96.940447
 20
-62.887072
 11
-19.560435
 21
-62.887072
 0
LINE
 8
001
 10
-96.940447
 20
-69.887072
 11
-19.560435
 21
-69.887072
 0
LINE
 8
001
 10
-60.905156
 20
-69.887072
 11
-60.905156
 21
-83.887072
 0
LINE
 8
001
 10
-96.940447
 20
-76.887072
 11
-19.560435
 21
-76.887072
 0
TEXT
 8
001
 62
3
 10
84.586203
 20
-101.331651
 40
4.500000
 1
万能フッカー
 41
0.775627
 7
STANDARD
 0
LINE
 8
001
 62
3
 10
-230.875918
 20
11.530433
 11
-233.473995
 21
10.030433
 0
LINE
 8
001
 62
3
 10
-230.875918
 20
11.530433
 11
-233.473995
 21
13.030433
 0
LINE
 8
001
 62
3
 10
-233.473995
 20
10.030433
 11
-233.473995
 21
13.030433
 0
LINE
 8
001
 62
2
 10
-58.843148
 20
83.642854
 11
-59.022711
 21
83.642854
 0
ARC
 8
001
 62
2
 10
-58.843148
 20
83.407626
 40
0.235228
 50
0.000000
 51
90.000000
 0
LINE
 8
001
 62
2
 10
-58.607921
 20
83.407626
 11
-58.607921
 21
80.918883
 0
LINE
 8
001
 62
2
 10
-56.866159
 20
80.186266
 11
-59.022711
 21
80.186266
 0
LINE
 8
001
 62
2
 10
-56.866159
 20
80.683656
 11
-56.866159
 21
80.186266
 0
LINE
 8
001
 62
2
 10
-57.045722
 20
80.683656
 11
-56.866159
 21
80.683656
 0
ARC
 8
001
 62
2
 10
-57.045722
 20
80.918883
 40
0.235228
 50
180.000000
 51
270.000000
 0
LINE
 8
001
 62
2
 10
-59.459555
 20
84.140149
 11
-61.477843
 21
84.140149
 0
LINE
 8
001
 62
2
 10
-59.459555
 20
84.140149
 11
-59.459555
 21
83.639470
 0
LINE
 8
001
 62
2
 10
-59.609191
 20
83.639470
 11
-59.459555
 21
83.639470
 0
ARC
 8
001
 62
2
 10
-59.569986
 20
83.407532
 40
0.235228
 50
99.594068
 51
180.000000
 0
LINE
 8
001
 62
2
 10
-59.805214
 20
83.407532
 11
-59.805214
 21
80.918789
 0
ARC
 8
001
 62
2
 10
-59.569986
 20
80.918789
 40
0.235228
 50
180.000000
 51
260.405932
 0
LINE
 8
001
 62
2
 10
-59.609191
 20
80.686852
 11
-59.459555
 21
80.686852
 0
LINE
 8
001
 62
2
 10
-59.459555
 20
80.686852
 11
-59.459555
 21
80.186172
 0
LINE
 8
001
 62
2
 10
-59.459555
 20
80.186172
 11
-61.477843
 21
80.186172
 0
ARC
 8
001
 62
2
 10
-57.045722
 20
83.407626
 40
0.235228
 50
90.000000
 51
180.000000
 0
LINE
 8
001
 62
2
 10
-57.280950
 20
83.407626
 11
-57.280950
 21
80.918883
 0
LINE
 8
001
 62
2
 10
-56.866159
 20
84.140243
 11
-56.866159
 21
83.642854
 0
LINE
 8
001
 62
2
 10
-57.045722
 20
83.642854
 11
-56.866159
 21
83.642854
 0
LINE
 8
001
 62
2
 10
-56.866159
 20
84.140243
 11
-59.022711
 21
84.140243
 0
LINE
 8
001
 62
2
 10
-59.022711
 20
84.140243
 11
-59.022711
 21
83.642854
 0
LINE
 8
001
 62
2
 10
-56.462251
 20
80.683656
 11
-56.462251
 21
80.186266
 0
ARC
 8
001
 62
2
 10
-56.282688
 20
80.918883
 40
0.235228
 50
270.000000
 51
0.000000
 0
LINE
 8
001
 62
2
 10
-56.282688
 20
80.683656
 11
-56.462251
 21
80.683656
 0
LINE
 8
001
 62
2
 10
-54.133606
 20
80.186266
 11
-56.462251
 21
80.186266
 0
LINE
 8
001
 62
2
 10
-56.047461
 20
83.407626
 11
-56.047461
 21
80.918883
 0
LINE
 8
001
 62
2
 10
-54.720490
 20
83.504590
 11
-54.720490
 21
80.821919
 0
LINE
 8
001
 62
2
 10
-54.720490
 20
80.821919
 11
-54.539581
 21
80.821919
 0
ARC
 8
001
 62
2
 10
-55.464629
 20
82.163255
 40
1.629385
 50
304.591955
 51
55.408045
 0
ARC
 8
001
 62
2
 10
-54.133606
 20
81.748464
 40
1.562198
 50
270.000000
 51
342.691251
 0
ARC
 8
001
 62
2
 10
-54.133606
 20
82.578045
 40
1.562198
 50
17.308749
 51
90.000000
 0
LINE
 8
001
 62
2
 10
-54.133606
 20
84.140243
 11
-56.462251
 21
84.140243
 0
LINE
 8
001
 62
2
 10
-56.462251
 20
84.140243
 11
-56.462251
 21
83.642854
 0
LINE
 8
001
 62
2
 10
-56.282688
 20
83.642854
 11
-56.462251
 21
83.642854
 0
ARC
 8
001
 62
2
 10
-56.282688
 20
83.407626
 40
0.235228
 50
0.000000
 51
90.000000
 0
ARC
 8
001
 62
2
 10
-58.843148
 20
80.918883
 40
0.235228
 50
270.000000
 51
0.000000
 0
LINE
 8
001
 62
2
 10
-58.843148
 20
80.683656
 11
-59.022711
 21
80.683656
 0
LINE
 8
001
 62
2
 10
-59.022711
 20
80.683656
 11
-59.022711
 21
80.186266
 0
LINE
 8
001
 62
2
 10
-54.720490
 20
83.504590
 11
-54.539581
 21
83.504590
 0
ARC
 8
001
 62
2
 10
-55.464629
 20
82.163255
 40
2.956355
 50
342.691251
 51
17.308566
 0
ARC
 8
001
 62
2
 10
-55.019959
 20
82.414817
 40
2.804624
 50
333.675284
 51
19.690635
 0
ARC
 8
001
 62
2
 10
-48.621434
 20
82.132737
 40
2.623344
 50
149.334413
 51
209.361467
 0
ARC
 8
001
 62
2
 10
-50.800273
 20
82.170253
 40
1.976989
 50
210.357840
 51
143.008079
 0
ARC
 8
001
 62
2
 10
-52.979111
 20
82.132735
 40
2.623344
 50
330.372273
 51
30.840525
 0
ARC
 8
001
 62
2
 10
-50.798996
 20
83.401100
 40
0.105242
 50
46.621771
 51
138.589269
 0
ARC
 8
001
 62
2
 10
-50.798996
 20
80.925410
 40
0.134421
 50
215.965123
 51
318.221816
 0
LINE
 8
001
 62
2
 10
-67.777468
 20
83.407615
 11
-67.777511
 21
80.918872
 0
LINE
 8
001
 62
2
 10
-67.542288
 20
80.683640
 11
-67.362725
 21
80.683637
 0
ARC
 8
001
 62
2
 10
-67.542283
 20
80.918867
 40
0.235228
 50
179.999000
 51
269.999000
 0
LINE
 8
001
 62
2
 10
-67.362725
 20
80.683637
 11
-67.362733
 21
80.186247
 0
LINE
 8
001
 62
2
 10
-69.519285
 20
80.186285
 11
-67.362733
 21
80.186247
 0
LINE
 8
001
 62
2
 10
-72.678488
 20
82.505000
 11
-72.678488
 21
80.918883
 0
ARC
 8
001
 62
2
 10
-72.443260
 20
80.918883
 40
0.235228
 50
180.000000
 51
270.000000
 0
LINE
 8
001
 62
2
 10
-73.728931
 20
80.186266
 11
-72.263697
 21
80.186266
 0
ARC
 8
001
 62
2
 10
-65.409693
 20
82.163255
 40
1.976989
 50
46.752880
 51
312.823120
 0
ARC
 8
001
 62
2
 10
-77.991586
 20
82.209809
 40
14.005914
 50
353.866006
 51
357.694034
 0
LINE
 8
001
 62
2
 10
-64.934708
 20
81.649739
 11
-63.997015
 21
81.646270
 0
POLYLINE
 8
001
 62
2
 66
1
 0
VERTEX
 8
001
 62
2
 10
-64.930921
 20
82.673241
 0
VERTEX
 8
001
 62
2
 10
-64.948653
 20
82.786773
 0
VERTEX
 8
001
 62
2
 10
-64.969948
 20
82.895485
 0
VERTEX
 8
001
 62
2
 10
-64.994642
 20
82.998537
 0
VERTEX
 8
001
 62
2
 10
-65.022545
 20
83.095133
 0
VERTEX
 8
001
 62
2
 10
-65.053439
 20
83.184526
 0
VERTEX
 8
001
 62
2
 10
-65.087088
 20
83.266025
 0
VERTEX
 8
001
 62
2
 10
-65.123230
 20
83.339001
 0
VERTEX
 8
001
 62
2
 10
-65.161586
 20
83.402888
 0
VERTEX
 8
001
 62
2
 10
-65.201860
 20
83.457194
 0
VERTEX
 8
001
 62
2
 10
-65.243741
 20
83.501498
 0
VERTEX
 8
001
 62
2
 10
-65.286904
 20
83.535458
 0
VERTEX
 8
001
 62
2
 10
-65.331016
 20
83.558812
 0
VERTEX
 8
001
 62
2
 10
-65.375737
 20
83.571379
 0
VERTEX
 8
001
 62
2
 10
-65.420720
 20
83.573062
 0
VERTEX
 8
001
 62
2
 10
-65.465617
 20
83.563848
 0
VERTEX
 8
001
 62
2
 10
-65.510083
 20
83.543807
 0
VERTEX
 8
001
 62
2
 10
-65.553772
 20
83.513096
 0
VERTEX
 8
001
 62
2
 10
-65.596348
 20
83.471952
 0
VERTEX
 8
001
 62
2
 10
-65.637481
 20
83.420691
 0
VERTEX
 8
001
 62
2
 10
-65.676853
 20
83.359712
 0
VERTEX
 8
001
 62
2
 10
-65.714161
 20
83.289484
 0
VERTEX
 8
001
 62
2
 10
-65.749115
 20
83.210552
 0
VERTEX
 8
001
 62
2
 10
-65.781445
 20
83.123524
 0
VERTEX
 8
001
 62
2
 10
-65.810902
 20
83.029074
 0
VERTEX
 8
001
 62
2
 10
-65.837258
 20
82.927931
 0
VERTEX
 8
001
 62
2
 10
-65.860309
 20
82.820878
 0
VERTEX
 8
001
 62
2
 10
-65.879877
 20
82.708742
 0
VERTEX
 8
001
 62
2
 10
-65.895811
 20
82.592389
 0
VERTEX
 8
001
 62
2
 10
-65.907987
 20
82.472720
 0
VERTEX
 8
001
 62
2
 10
-65.916312
 20
82.350658
 0
VERTEX
 8
001
 62
2
 10
-65.920720
 20
82.227148
 0
VERTEX
 8
001
 62
2
 10
-65.921179
 20
82.103144
 0
VERTEX
 8
001
 62
2
 10
-65.917684
 20
81.979605
 0
VERTEX
 8
001
 62
2
 10
-65.910263
 20
81.857485
 0
VERTEX
 8
001
 62
2
 10
-65.898973
 20
81.737729
 0
VERTEX
 8
001
 62
2
 10
-65.883901
 20
81.621262
 0
VERTEX
 8
001
 62
2
 10
-65.865163
 20
81.508984
 0
VERTEX
 8
001
 62
2
 10
-65.842905
 20
81.401763
 0
VERTEX
 8
001
 62
2
 10
-65.817298
 20
81.300428
 0
VERTEX
 8
001
 62
2
 10
-65.788541
 20
81.205763
 0
VERTEX
 8
001
 62
2
 10
-65.756855
 20
81.118498
 0
VERTEX
 8
001
 62
2
 10
-65.722487
 20
81.039309
 0
VERTEX
 8
001
 62
2
 10
-65.685700
 20
80.968807
 0
VERTEX
 8
001
 62
2
 10
-65.646780
 20
80.907538
 0
VERTEX
 8
001
 62
2
 10
-65.606027
 20
80.855975
 0
VERTEX
 8
001
 62
2
 10
-65.563757
 20
80.814516
 0
VERTEX
 8
001
 62
2
 10
-65.520296
 20
80.783483
 0
VERTEX
 8
001
 62
2
 10
-65.475980
 20
80.763114
 0
VERTEX
 8
001
 62
2
 10
-65.431152
 20
80.753568
 0
VERTEX
 8
001
 62
2
 10
-65.386158
 20
80.754918
 0
VERTEX
 8
001
 62
2
 10
-65.341346
 20
80.767153
 0
VERTEX
 8
001
 62
2
 10
-65.297062
 20
80.790180
 0
VERTEX
 8
001
 62
2
 10
-65.253649
 20
80.823820
 0
VERTEX
 8
001
 62
2
 10
-65.211441
 20
80.867813
 0
VERTEX
 8
001
 62
2
 10
-65.170767
 20
80.921819
 0
VERTEX
 8
001
 62
2
 10
-65.131939
 20
80.985421
 0
VERTEX
 8
001
 62
2
 10
-65.095257
 20
81.058127
 0
VERTEX
 8
001
 62
2
 10
-65.061007
 20
81.139375
 0
VERTEX
 8
001
 62
2
 10
-65.029451
 20
81.228537
 0
VERTEX
 8
001
 62
2
 10
-65.000835
 20
81.324924
 0
VERTEX
 8
001
 62
2
 10
-64.975379
 20
81.427790
 0
VERTEX
 8
001
 62
2
 10
-64.953280
 20
81.536342
 0
VERTEX
 8
001
 62
2
 10
-64.934708
 20
81.649739
 0
SEQEND
 8
001
 0
LINE
 8
001
 62
2
 10
-64.930921
 20
82.673241
 11
-63.993227
 21
82.669772
 0
ARC
 8
001
 62
2
 10
-77.991586
 20
82.209809
 40
14.005914
 50
1.881966
 51
5.709994
 0
ARC
 8
001
 62
2
 10
-67.542240
 20
83.407611
 40
0.235228
 50
89.999028
 51
179.999000
 0
LINE
 8
001
 62
2
 10
-67.362664
 20
84.140224
 11
-67.362673
 21
83.642835
 0
LINE
 8
001
 62
2
 10
-69.519216
 20
84.140262
 11
-67.362664
 21
84.140224
 0
LINE
 8
001
 62
2
 10
-67.542236
 20
83.642838
 11
-67.362673
 21
83.642835
 0
ARC
 8
001
 62
2
 10
-69.339683
 20
83.407629
 40
0.235228
 50
359.999803
 51
89.999774
 0
LINE
 8
001
 62
2
 10
-69.104455
 20
83.407629
 11
-69.104464
 21
80.918885
 0
ARC
 8
001
 62
2
 10
-69.339709
 20
80.918899
 40
0.235228
 50
269.999000
 51
359.999000
 0
LINE
 8
001
 62
2
 10
-69.519276
 20
80.683674
 11
-69.519285
 21
80.186285
 0
LINE
 8
001
 62
2
 10
-69.339713
 20
80.683671
 11
-69.519276
 21
80.683674
 0
LINE
 8
001
 62
2
 10
-69.519216
 20
84.140262
 11
-69.519224
 21
83.642873
 0
LINE
 8
001
 62
2
 10
-69.339661
 20
83.642869
 11
-69.519224
 21
83.642873
 0
LINE
 8
001
 62
2
 10
-72.263697
 20
80.683656
 11
-72.263697
 21
80.186266
 0
LINE
 8
001
 62
2
 10
-72.443260
 20
80.683656
 11
-72.263697
 21
80.683656
 0
LINE
 8
001
 62
2
 10
-72.678488
 20
82.505000
 11
-71.229279
 21
80.186266
 0
LINE
 8
001
 62
2
 10
-71.229279
 20
80.186266
 11
-70.258876
 21
80.186266
 0
LINE
 8
001
 62
2
 10
-70.258876
 20
83.269363
 11
-70.258876
 21
80.186266
 0
ARC
 8
001
 62
2
 10
-69.885385
 20
83.269363
 40
0.373491
 50
83.651426
 51
180.000000
 0
LINE
 8
001
 62
2
 10
-69.844086
 20
84.140243
 11
-69.844086
 21
83.640563
 0
LINE
 8
001
 62
2
 10
-71.309320
 20
84.140243
 11
-69.844086
 21
84.140243
 0
LINE
 8
001
 62
2
 10
-71.309320
 20
84.140243
 11
-71.309320
 21
83.642854
 0
LINE
 8
001
 62
2
 10
-71.309320
 20
83.642854
 11
-71.129757
 21
83.642854
 0
ARC
 8
001
 62
2
 10
-71.129757
 20
83.407626
 40
0.235228
 50
0.000000
 51
90.000000
 0
LINE
 8
001
 62
2
 10
-70.894529
 20
82.349362
 11
-70.894529
 21
83.407626
 0
LINE
 8
001
 62
2
 10
-70.894529
 20
82.349362
 11
-72.069796
 21
84.140243
 0
LINE
 8
001
 62
2
 10
-73.728931
 20
84.140243
 11
-72.069796
 21
84.140243
 0
LINE
 8
001
 62
2
 10
-63.344400
 20
80.918789
 11
-63.344400
 21
83.407532
 0
LINE
 8
001
 62
2
 10
-63.690059
 20
84.140149
 11
-61.671771
 21
84.140149
 0
ARC
 8
001
 62
2
 10
-63.510496
 20
83.407532
 40
0.166096
 50
0.000000
 51
90.000000
 0
LINE
 8
001
 62
2
 10
-63.510496
 20
83.573628
 11
-63.690059
 21
83.573628
 0
LINE
 8
001
 62
2
 10
-63.690059
 20
83.573628
 11
-63.690059
 21
84.140149
 0
ARC
 8
001
 62
2
 10
-63.510496
 20
80.918789
 40
0.166096
 50
270.000000
 51
0.000000
 0
LINE
 8
001
 62
2
 10
-63.510496
 20
80.752693
 11
-63.690059
 21
80.752693
 0
LINE
 8
001
 62
2
 10
-63.690059
 20
80.186172
 11
-63.690059
 21
80.752693
 0
LINE
 8
001
 62
2
 10
-63.690059
 20
80.186172
 11
-61.671771
 21
80.186172
 0
ARC
 8
001
 62
2
 10
-61.367412
 20
83.407532
 40
0.235228
 50
0.000000
 51
80.405932
 0
LINE
 8
001
 62
2
 10
-61.328207
 20
83.639470
 11
-61.477843
 21
83.639470
 0
LINE
 8
001
 62
2
 10
-61.132184
 20
82.480987
 11
-61.132184
 21
83.407532
 0
LINE
 8
001
 62
2
 10
-61.132184
 20
82.480987
 11
-62.017430
 21
82.480987
 0
LINE
 8
001
 62
2
 10
-61.132184
 20
81.845334
 11
-62.017430
 21
81.845334
 0
LINE
 8
001
 62
2
 10
-61.132184
 20
80.918789
 11
-61.132184
 21
81.845334
 0
ARC
 8
001
 62
2
 10
-61.367412
 20
80.918789
 40
0.235228
 50
279.594068
 51
0.000000
 0
LINE
 8
001
 62
2
 10
-61.328207
 20
80.686852
 11
-61.477843
 21
80.686852
 0
LINE
 8
001
 62
2
 10
-61.477843
 20
80.686852
 11
-61.477843
 21
80.186172
 0
LINE
 8
001
 62
2
 10
-61.671771
 20
80.686852
 11
-61.671771
 21
80.186172
 0
LINE
 8
001
 62
2
 10
-61.821407
 20
80.686852
 11
-61.671771
 21
80.686852
 0
ARC
 8
001
 62
2
 10
-61.782202
 20
80.918789
 40
0.235228
 50
180.000000
 51
260.405932
 0
LINE
 8
001
 62
2
 10
-62.017430
 20
80.918789
 11
-62.017430
 21
81.845334
 0
LINE
 8
001
 62
2
 10
-62.017430
 20
82.480987
 11
-62.017430
 21
83.407532
 0
ARC
 8
001
 62
2
 10
-61.782202
 20
83.407532
 40
0.235228
 50
99.594068
 51
180.000000
 0
LINE
 8
001
 62
2
 10
-61.821407
 20
83.639470
 11
-61.671771
 21
83.639470
 0
LINE
 8
001
 62
2
 10
-61.671771
 20
83.639470
 11
-61.671771
 21
84.140149
 0
LINE
 8
001
 62
2
 10
-61.477843
 20
83.639470
 11
-61.477843
 21
84.140149
 0
LINE
 8
001
 62
2
 10
-73.728931
 20
80.683656
 11
-73.728931
 21
80.186266
 0
LINE
 8
001
 62
2
 10
-73.314141
 20
83.407626
 11
-73.314141
 21
80.918883
 0
ARC
 8
001
 62
2
 10
-73.549368
 20
80.918883
 40
0.235228
 50
270.000000
 51
360.000000
 0
LINE
 8
001
 62
2
 10
-73.549368
 20
80.683656
 11
-73.728931
 21
80.683656
 0
ARC
 8
001
 62
2
 10
-73.549368
 20
83.407626
 40
0.235228
 50
0.000000
 51
90.000000
 0
LINE
 8
001
 62
2
 10
-73.728931
 20
84.140243
 11
-73.728931
 21
83.642854
 0
LINE
 8
001
 62
2
 10
-73.549368
 20
83.642854
 11
-73.728931
 21
83.642854
 0
LINE
 8
001
 62
3
 10
-218.473995
 20
145.030433
 11
-218.473995
 21
-131.969567
 0
LINE
 8
001
 62
3
 10
171.526005
 20
-131.969567
 11
171.526005
 21
145.030433
 0
LINE
 8
001
 62
3
 10
-218.473995
 20
145.030433
 11
171.526005
 21
145.030433
 0
LINE
 8
001
 62
3
 10
-218.473995
 20
-131.969567
 11
171.526005
 21
-131.969567
 0
TEXT
 8
001
 62
3
 10
62.330556
 20
-96.862505
 40
1.993800
 1
CONPONENTS
 41
0.533160
 7
STANDARD
 0
TEXT
 8
001
 62
3
 10
61.981913
 20
-115.735992
 40
2.990700
 1
材
 41
0.833333
 7
STANDARD
 0
TEXT
 8
001
 62
3
 10
69.494195
 20
-115.735992
 40
2.990700
 1
質
 41
0.833333
 7
STANDARD
 0
TEXT
 8
001
 62
3
 10
62.069711
 20
-105.144403
 40
1.993800
 1
MODEL
 41
1.031073
 7
STANDARD
 0
TEXT
 8
001
 62
3
 10
61.981913
 20
-112.065099
 40
1.993800
 1
MATERIAL
 41
0.659278
 7
STANDARD
 0
TEXT
 8
001
 62
3
 10
95.451604
 20
-115.972605
 40
2.990700
 1
備
 41
0.833333
 7
STANDARD
 0
TEXT
 8
001
 62
3
 10
102.163733
 20
-115.972605
 40
2.990700
 1
考
 41
0.833333
 7
STANDARD
 0
TEXT
 8
001
 62
3
 10
95.205360
 20
-112.301712
 40
1.993800
 1
REMARKS
 41
0.675794
 7
STANDARD
 0
TEXT
 8
001
 62
3
 10
95.717822
 20
-119.174220
 40
1.993800
 1
SCALE
 41
0.771963
 7
STANDARD
 0
TEXT
 8
001
 62
3
 10
95.581451
 20
-122.663370
 40
2.990700
 1
尺
 41
0.833333
 7
STANDARD
 0
TEXT
 8
001
 62
3
 10
102.293580
 20
-122.663370
 40
2.990700
 1
度
 41
0.833333
 7
STANDARD
 0
TEXT
 8
001
 62
3
 10
122.806842
 20
-100.562795
 40
2.990700
 1
承認
 41
1.089473
 7
STANDARD
 0
TEXT
 8
001
 62
3
 10
136.008670
 20
-100.620345
 40
2.990700
 1
検図
 41
0.931761
 7
STANDARD
 0
TEXT
 8
001
 62
3
 10
148.968765
 20
-100.620345
 40
2.990700
 1
設
 41
0.833333
 7
STANDARD
 0
TEXT
 8
001
 62
3
 10
153.444715
 20
-100.620345
 40
2.990700
 1
計
 41
0.833333
 7
STANDARD
 0
TEXT
 8
001
 62
3
 10
62.069711
 20
-108.994305
 40
2.990700
 1
品
 41
0.833333
 7
STANDARD
 0
TEXT
 8
001
 62
3
 10
69.594402
 20
-108.994305
 40
2.990700
 1
番
 41
0.833333
 7
STANDARD
 0
LINE
 8
001
 10
159.951478
 20
140.400997
 11
159.951478
 21
120.519259
 0
LINE
 8
001
 10
98.054436
 20
140.469259
 11
98.054436
 21
120.519259
 0
LINE
 8
001
 10
116.290840
 20
140.011082
 11
116.290840
 21
120.519259
 0
LINE
 8
001
 10
161.011975
 20
127.169259
 11
87.949003
 21
127.169259
 0
LINE
 8
001
 10
170.466722
 20
127.169259
 11
161.011975
 21
127.169259
 0
LINE
 8
001
 10
170.466722
 20
127.169259
 11
171.549003
 21
127.169259
 0
LINE
 8
001
 10
87.949003
 20
133.819259
 11
171.549003
 21
133.819259
 0
LINE
 8
001
 62
3
 10
-19.560435
 20
-49.147250
 11
-19.560435
 21
-83.887072
 0
TEXT
 8
001
 62
3
 10
-58.446464
 20
-55.456956
 40
4.500000
 1
BH-250-W
 41
0.979592
 7
STANDARD
 0
TEXT
 8
001
 62
3
 10
-42.230993
 20
-62.188359
 40
4.500000
 1
白
 41
0.833333
 7
STANDARD
 0
TEXT
 8
001
 62
3
 10
82.054511
 20
-108.136546
 40
4.500000
 1
BH-250-W
 41
0.767928
 7
STANDARD
 0
TEXT
 8
001
 62
3
 10
125.342876
 20
-130.910517
 40
6.300000
 1
K-BH-250-W
 41
0.578199
 7
STANDARD
 0
LINE
 8
001
 62
3
 10
171.425969
 20
-87.043905
 11
119.726606
 21
-87.043905
 0
LINE
 8
001
 62
3
 10
145.726606
 20
-93.043905
 11
145.726606
 21
-87.043905
 0
LINE
 8
001
 62
3
 10
119.726606
 20
-93.043905
 11
119.726606
 21
-87.043905
 0
TEXT
 8
001
 62
3
 10
120.876119
 20
-92.487820
 40
4.500000
 1
コード
 41
0.833333
 7
STANDARD
 0
TEXT
 8
001
 10
147.119396
 20
-92.545549
 40
4.500000
 1
29634
 41
1.000000
 7
STANDARD
 0
CIRCLE
 8
001
 62
3
 10
-120.130699
 20
3.794675
 40
1.500000
 0
CIRCLE
 8
001
 62
3
 10
-112.130699
 20
3.794675
 40
1.500000
 0
CIRCLE
 8
001
 62
3
 10
-104.130699
 20
3.794675
 40
1.500000
 0
POLYLINE
 8
001
 66
1
 0
VERTEX
 8
001
 10
-111.493744
 20
7.295267
 0
VERTEX
 8
001
 10
-111.718619
 20
5.236962
 0
VERTEX
 8
001
 10
-110.494719
 20
6.907068
 0
SEQEND
 8
001
 0
LINE
 8
001
 10
-111.718619
 20
5.236962
 11
-108.330305
 21
13.956762
 0
LINE
 8
001
 10
-108.330305
 20
13.956762
 11
-89.080305
 21
13.956762
 0
TEXT
 8
001
 62
4
 10
-105.580305
 20
14.956762
 40
3.200000
 1
３－φ３穴
 41
0.716146
 7
STANDARD
 0
POLYLINE
 8
001
 66
1
 0
VERTEX
 8
001
 10
-75.364059
 20
68.467624
 0
VERTEX
 8
001
 10
-76.081717
 20
66.525421
 0
VERTEX
 8
001
 10
-74.489106
 20
67.848590
 0
SEQEND
 8
001
 0
LINE
 8
001
 10
-76.081717
 20
66.525421
 11
-68.315652
 21
77.502105
 0
TEXT
 8
001
 62
3
 10
77.722710
 20
-115.122971
 40
3.200000
 1
PA6
 41
1.000000
 7
STANDARD
 0
ENDSEC
 0
EOF
