  0
SECTION
  2
HEADER
  9
$ACADVER
  1
AC1015
  9
$ACADMAINTVER
 70
     6
  9
$DWGCODEPAGE
  3
ANSI_932
  9
$INSBASE
 10
0.0
 20
0.0
 30
0.0
  9
$EXTMIN
 10
809.2657871116024
 20
7.862441997889164
 30
0.0
  9
$EXTMAX
 10
1001.265787111602
 20
288.2087941442932
 30
0.0
  9
$LIMMIN
 10
0.0
 20
0.0
  9
$LIMMAX
 10
12.0
 20
9.0
  9
$ORTHOMODE
 70
     0
  9
$REGENMODE
 70
     1
  9
$FILLMODE
 70
     1
  9
$QTEXTMODE
 70
     0
  9
$MIRRTEXT
 70
     0
  9
$LTSCALE
 40
1.0
  9
$ATTMODE
 70
     1
  9
$TEXTSIZE
 40
3.2
  9
$TRACEWID
 40
0.05
  9
$TEXTSTYLE
  7
高3.2
  9
$CLAYER
  8
0
  9
$CELTYPE
  6
ByLayer
  9
$CECOLOR
 62
   256
  9
$CELTSCALE
 40
1.0
  9
$DISPSILH
 70
     0
  9
$DIMSCALE
 40
1.0
  9
$DIMASZ
 40
2.5
  9
$DIMEXO
 40
0.25
  9
$DIMDLI
 40
0.2
  9
$DIMRND
 40
0.0
  9
$DIMDLE
 40
0.0
  9
$DIMEXE
 40
1.25
  9
$DIMTP
 40
0.0
  9
$DIMTM
 40
0.0
  9
$DIMTXT
 40
3.0
  9
$DIMCEN
 40
0.0
  9
$DIMTSZ
 40
0.0
  9
$DIMTOL
 70
     0
  9
$DIMLIM
 70
     0
  9
$DIMTIH
 70
     0
  9
$DIMTOH
 70
     0
  9
$DIMSE1
 70
     0
  9
$DIMSE2
 70
     0
  9
$DIMTAD
 70
     3
  9
$DIMZIN
 70
     8
  9
$DIMBLK
  1
Open30
  9
$DIMASO
 70
     1
  9
$DIMSHO
 70
     1
  9
$DIMPOST
  1

  9
$DIMAPOST
  1

  9
$DIMALT
 70
     0
  9
$DIMALTD
 70
     3
  9
$DIMALTF
 40
0.03937007874016
  9
$DIMLFAC
 40
1.0
  9
$DIMTOFL
 70
     1
  9
$DIMTVP
 40
0.0
  9
$DIMTIX
 70
     0
  9
$DIMSOXD
 70
     0
  9
$DIMSAH
 70
     0
  9
$DIMBLK1
  1

  9
$DIMBLK2
  1

  9
$DIMSTYLE
  2
1：1
  9
$DIMCLRD
 70
     0
  9
$DIMCLRE
 70
     0
  9
$DIMCLRT
 70
     4
  9
$DIMTFAC
 40
1.0
  9
$DIMGAP
 40
0.625
  9
$DIMJUST
 70
     0
  9
$DIMSD1
 70
     0
  9
$DIMSD2
 70
     0
  9
$DIMTOLJ
 70
     0
  9
$DIMTZIN
 70
     8
  9
$DIMALTZ
 70
     0
  9
$DIMALTTZ
 70
     0
  9
$DIMUPT
 70
     1
  9
$DIMDEC
 70
     2
  9
$DIMTDEC
 70
     2
  9
$DIMALTU
 70
     2
  9
$DIMALTTD
 70
     3
  9
$DIMTXSTY
  7
Standard
  9
$DIMAUNIT
 70
     0
  9
$DIMADEC
 70
     1
  9
$DIMALTRND
 40
0.0
  9
$DIMAZIN
 70
     2
  9
$DIMDSEP
 70
    46
  9
$DIMATFIT
 70
     0
  9
$DIMFRAC
 70
     0
  9
$DIMLDRBLK
  1
Open30
  9
$DIMLUNIT
 70
     2
  9
$DIMLWD
 70
    -2
  9
$DIMLWE
 70
    -2
  9
$DIMTMOVE
 70
     0
  9
$LUNITS
 70
     2
  9
$LUPREC
 70
     4
  9
$SKETCHINC
 40
0.1
  9
$FILLETRAD
 40
0.0
  9
$AUNITS
 70
     0
  9
$AUPREC
 70
     0
  9
$MENU
  1
.
  9
$ELEVATION
 40
0.0
  9
$PELEVATION
 40
0.0
  9
$THICKNESS
 40
0.0
  9
$LIMCHECK
 70
     0
  9
$CHAMFERA
 40
0.0
  9
$CHAMFERB
 40
0.0
  9
$CHAMFERC
 40
0.0
  9
$CHAMFERD
 40
0.0
  9
$SKPOLY
 70
     0
  9
$TDCREATE
 40
2459872.421470451
  9
$TDUCREATE
 40
2459872.046470451
  9
$TDUPDATE
 40
2459881.448631169
  9
$TDUUPDATE
 40
2459881.073631169
  9
$TDINDWG
 40
0.1450332755
  9
$TDUSRTIMER
 40
0.1450326273
  9
$USRTIMER
 70
     1
  9
$ANGBASE
 50
0.0
  9
$ANGDIR
 70
     0
  9
$PDMODE
 70
     0
  9
$PDSIZE
 40
0.0
  9
$PLINEWID
 40
0.0
  9
$SPLFRAME
 70
     0
  9
$SPLINETYPE
 70
     6
  9
$SPLINESEGS
 70
     8
  9
$HANDSEED
  5
152B
  9
$SURFTAB1
 70
     6
  9
$SURFTAB2
 70
     6
  9
$SURFTYPE
 70
     6
  9
$SURFU
 70
     6
  9
$SURFV
 70
     6
  9
$UCSBASE
  2

  9
$UCSNAME
  2

  9
$UCSORG
 10
0.0
 20
0.0
 30
0.0
  9
$UCSXDIR
 10
1.0
 20
0.0
 30
0.0
  9
$UCSYDIR
 10
0.0
 20
1.0
 30
0.0
  9
$UCSORTHOREF
  2

  9
$UCSORTHOVIEW
 70
     0
  9
$UCSORGTOP
 10
0.0
 20
0.0
 30
0.0
  9
$UCSORGBOTTOM
 10
0.0
 20
0.0
 30
0.0
  9
$UCSORGLEFT
 10
0.0
 20
0.0
 30
0.0
  9
$UCSORGRIGHT
 10
0.0
 20
0.0
 30
0.0
  9
$UCSORGFRONT
 10
0.0
 20
0.0
 30
0.0
  9
$UCSORGBACK
 10
0.0
 20
0.0
 30
0.0
  9
$PUCSBASE
  2

  9
$PUCSNAME
  2

  9
$PUCSORG
 10
0.0
 20
0.0
 30
0.0
  9
$PUCSXDIR
 10
1.0
 20
0.0
 30
0.0
  9
$PUCSYDIR
 10
0.0
 20
1.0
 30
0.0
  9
$PUCSORTHOREF
  2

  9
$PUCSORTHOVIEW
 70
     0
  9
$PUCSORGTOP
 10
0.0
 20
0.0
 30
0.0
  9
$PUCSORGBOTTOM
 10
0.0
 20
0.0
 30
0.0
  9
$PUCSORGLEFT
 10
0.0
 20
0.0
 30
0.0
  9
$PUCSORGRIGHT
 10
0.0
 20
0.0
 30
0.0
  9
$PUCSORGFRONT
 10
0.0
 20
0.0
 30
0.0
  9
$PUCSORGBACK
 10
0.0
 20
0.0
 30
0.0
  9
$USERI1
 70
     0
  9
$USERI2
 70
     0
  9
$USERI3
 70
     0
  9
$USERI4
 70
     0
  9
$USERI5
 70
     0
  9
$USERR1
 40
0.0
  9
$USERR2
 40
0.0
  9
$USERR3
 40
0.0
  9
$USERR4
 40
0.0
  9
$USERR5
 40
0.0
  9
$WORLDVIEW
 70
     1
  9
$SHADEDGE
 70
     3
  9
$SHADEDIF
 70
    70
  9
$TILEMODE
 70
     1
  9
$MAXACTVP
 70
    64
  9
$PINSBASE
 10
0.0
 20
0.0
 30
0.0
  9
$PLIMCHECK
 70
     0
  9
$PEXTMIN
 10
0.0
 20
0.0
 30
0.0
  9
$PEXTMAX
 10
0.0
 20
0.0
 30
0.0
  9
$PLIMMIN
 10
0.0
 20
0.0
  9
$PLIMMAX
 10
12.0
 20
9.0
  9
$UNITMODE
 70
     0
  9
$VISRETAIN
 70
     1
  9
$PLINEGEN
 70
     0
  9
$PSLTSCALE
 70
     1
  9
$TREEDEPTH
 70
  3020
  9
$CMLSTYLE
  2
Standard
  9
$CMLJUST
 70
     0
  9
$CMLSCALE
 40
1.0
  9
$PROXYGRAPHICS
 70
     1
  9
$MEASUREMENT
 70
     1
  9
$CELWEIGHT
370
    -1
  9
$ENDCAPS
280
     0
  9
$JOINSTYLE
280
     0
  9
$LWDISPLAY
290
     0
  9
$INSUNITS
 70
     1
  9
$HYPERLINKBASE
  1

  9
$STYLESHEET
  1

  9
$XEDIT
290
     1
  9
$CEPSNTYPE
380
     0
  9
$PSTYLEMODE
290
     1
  9
$FINGERPRINTGUID
  2
{20222996-1835-49DD-8A91-267158384188}
  9
$VERSIONGUID
  2
{E9044E5C-161E-45AA-814B-AE7A6FC21038}
  9
$EXTNAMES
290
     1
  9
$PSVPSCALE
 40
0.0
  9
$OLESTARTUP
290
     0
  0
ENDSEC
  0
SECTION
  2
CLASSES
  0
CLASS
  1
ACDBDICTIONARYWDFLT
  2
AcDbDictionaryWithDefault
  3
ObjectDBX Classes
 90
        0
280
     0
281
     0
  0
CLASS
  1
ACDBPLACEHOLDER
  2
AcDbPlaceHolder
  3
ObjectDBX Classes
 90
        0
280
     0
281
     0
  0
CLASS
  1
LAYOUT
  2
AcDbLayout
  3
ObjectDBX Classes
 90
        0
280
     0
281
     0
  0
CLASS
  1
DICTIONARYVAR
  2
AcDbDictionaryVar
  3
ObjectDBX Classes
 90
        0
280
     0
281
     0
  0
CLASS
  1
TABLESTYLE
  2
AcDbTableStyle
  3
ObjectDBX Classes
 90
     4095
280
     0
281
     0
  0
CLASS
  1
MATERIAL
  2
AcDbMaterial
  3
ObjectDBX Classes
 90
     1153
280
     0
281
     0
  0
CLASS
  1
VISUALSTYLE
  2
AcDbVisualStyle
  3
ObjectDBX Classes
 90
     4095
280
     0
281
     0
  0
CLASS
  1
SORTENTSTABLE
  2
AcDbSortentsTable
  3
ObjectDBX Classes
 90
        0
280
     0
281
     0
  0
CLASS
  1
DIMASSOC
  2
AcDbDimAssoc
  3
"AcDbDimAssoc|Product Desc:     AcDim ARX App For Dimension|Company:          Autodesk, Inc.|WEB Address:      www.autodesk.com"
 90
        0
280
     0
281
     0
  0
CLASS
  1
SCALE
  2
AcDbScale
  3
ObjectDBX Classes
 90
     1153
280
     0
281
     0
  0
CLASS
  1
MLEADERSTYLE
  2
AcDbMLeaderStyle
  3
ACDB_MLEADERSTYLE_CLASS
 90
     4095
280
     0
281
     0
  0
CLASS
  1
CELLSTYLEMAP
  2
AcDbCellStyleMap
  3
ObjectDBX Classes
 90
     1152
280
     0
281
     0
  0
ENDSEC
  0
SECTION
  2
TABLES
  0
TABLE
  2
VPORT
  5
8
102
{ACAD_XDICTIONARY
360
14ED
102
}
330
0
100
AcDbSymbolTable
 70
     1
  0
VPORT
  5
94
330
8
100
AcDbSymbolTableRecord
100
AcDbViewportTableRecord
  2
*Active
 70
     0
 10
0.0
 20
0.0
 11
1.0
 21
1.0
 12
905.2657871116022
 22
148.0356180710912
 13
0.0
 23
0.0
 14
0.5
 24
0.5
 15
0.5
 25
0.5
 16
0.0
 26
0.0
 36
1.0
 17
0.0
 27
0.0
 37
0.0
 40
230.060010954224
 41
1.160291438979963
 42
50.0
 43
0.0
 44
0.0
 50
0.0
 51
0.0
 71
     0
 72
  1000
 73
     1
 74
     2
 75
     0
 76
     0
 77
     0
 78
     0
281
     0
 65
     1
110
0.0
120
0.0
130
0.0
111
1.0
121
0.0
131
0.0
112
0.0
122
1.0
132
0.0
 79
     0
146
0.0
  0
ENDTAB
  0
TABLE
  2
LTYPE
  5
5
330
0
100
AcDbSymbolTable
 70
     4
  0
LTYPE
  5
14
330
5
100
AcDbSymbolTableRecord
100
AcDbLinetypeTableRecord
  2
ByBlock
 70
     0
  3

 72
    65
 73
     0
 40
0.0
  0
LTYPE
  5
15
330
5
100
AcDbSymbolTableRecord
100
AcDbLinetypeTableRecord
  2
ByLayer
 70
     0
  3

 72
    65
 73
     0
 40
0.0
  0
LTYPE
  5
16
330
5
100
AcDbSymbolTableRecord
100
AcDbLinetypeTableRecord
  2
Continuous
 70
     0
  3
Solid line
 72
    65
 73
     0
 40
0.0
  0
LTYPE
  5
148
330
5
100
AcDbSymbolTableRecord
100
AcDbLinetypeTableRecord
  2
CENTER
 70
     0
  3
Center ____ _ ____ _ ____ _ ____ _ ____ _ ____
 72
    65
 73
     4
 40
50.8
 49
31.75
 74
     0
 49
-6.35
 74
     0
 49
6.35
 74
     0
 49
-6.35
 74
     0
  0
LTYPE
  5
149
330
5
100
AcDbSymbolTableRecord
100
AcDbLinetypeTableRecord
  2
HIDDEN
 70
     0
  3
Hidden __ __ __ __ __ __ __ __ __ __ __ __ __ __
 72
    65
 73
     2
 40
9.524999999999999
 49
6.35
 74
     0
 49
-3.175
 74
     0
  0
LTYPE
  5
14A
330
5
100
AcDbSymbolTableRecord
100
AcDbLinetypeTableRecord
  2
PHANTOM
 70
     0
  3
Phantom ______  __  __  ______  __  __  ______
 72
    65
 73
     6
 40
63.5
 49
31.75
 74
     0
 49
-6.35
 74
     0
 49
6.35
 74
     0
 49
-6.35
 74
     0
 49
6.35
 74
     0
 49
-6.35
 74
     0
  0
ENDTAB
  0
TABLE
  2
LAYER
  5
2
102
{ACAD_XDICTIONARY
360
DD
102
}
330
0
100
AcDbSymbolTable
 70
     2
  0
LAYER
  5
10
102
{ACAD_XDICTIONARY
360
81D
102
}
330
2
100
AcDbSymbolTableRecord
100
AcDbLayerTableRecord
  2
0
 70
     0
 62
     7
  6
Continuous
370
    -3
390
F
  0
LAYER
  5
D8
330
2
100
AcDbSymbolTableRecord
100
AcDbLayerTableRecord
  2
Defpoints
 70
     0
 62
     7
  6
Continuous
290
     0
370
    -3
390
F
  0
ENDTAB
  0
TABLE
  2
STYLE
  5
3
330
0
100
AcDbSymbolTable
 70
     6
  0
STYLE
  5
11
330
3
100
AcDbSymbolTableRecord
100
AcDbTextStyleTableRecord
  2
Standard
 70
     0
 40
0.0
 41
1.0
 50
0.0
 71
     0
 42
0.2
  3
txt.shx
  4
bigfont.shx
  0
STYLE
  5
11D
330
3
100
AcDbSymbolTableRecord
100
AcDbTextStyleTableRecord
  2
高3.2
 70
     0
 40
3.2
 41
1.0
 50
0.0
 71
     0
 42
3.2
  3
txt.shx
  4
bigfont.shx
  0
STYLE
  5
11E
330
3
100
AcDbSymbolTableRecord
100
AcDbTextStyleTableRecord
  2
高6.3
 70
     0
 40
6.3
 41
1.0
 50
0.0
 71
     0
 42
6.3
  3
txt.shx
  4
bigfont.shx
  0
STYLE
  5
11F
330
3
100
AcDbSymbolTableRecord
100
AcDbTextStyleTableRecord
  2
高2.5
 70
     0
 40
2.5
 41
1.0
 50
0.0
 71
     0
 42
0.2
  3
txt.shx
  4
bigfont.shx
  0
STYLE
  5
146
330
3
100
AcDbSymbolTableRecord
100
AcDbTextStyleTableRecord
  2
高4.5
 70
     0
 40
4.5
 41
1.0
 50
0.0
 71
     0
 42
6.3
  3
txt.shx
  4
bigfont.shx
  0
STYLE
  5
171
330
3
100
AcDbSymbolTableRecord
100
AcDbTextStyleTableRecord
  2
高2
 70
     0
 40
2.0
 41
1.0
 50
0.0
 71
     0
 42
6.3
  3
txt.shx
  4
bigfont.shx
  0
ENDTAB
  0
TABLE
  2
VIEW
  5
6
330
0
100
AcDbSymbolTable
 70
     0
  0
ENDTAB
  0
TABLE
  2
UCS
  5
7
330
0
100
AcDbSymbolTable
 70
     0
  0
ENDTAB
  0
TABLE
  2
APPID
  5
9
330
0
100
AcDbSymbolTable
 70
    10
  0
APPID
  5
12
330
9
100
AcDbSymbolTableRecord
100
AcDbRegAppTableRecord
  2
ACAD
 70
     0
  0
APPID
  5
DC
330
9
100
AcDbSymbolTableRecord
100
AcDbRegAppTableRecord
  2
ACAD_DSTYLE_DIMJOGGED_JOGANGLE_SYMBOL
 70
     0
  0
APPID
  5
566
330
9
100
AcDbSymbolTableRecord
100
AcDbRegAppTableRecord
  2
ACAD_EXEMPT_FROM_CAD_STANDARDS
 70
     0
  0
APPID
  5
647
330
9
100
AcDbSymbolTableRecord
100
AcDbRegAppTableRecord
  2
ACAD_DSTYLE_DIMJAG
 70
     0
  0
APPID
  5
648
330
9
100
AcDbSymbolTableRecord
100
AcDbRegAppTableRecord
  2
ACAD_DSTYLE_DIMBREAK
 70
     0
  0
APPID
  5
649
330
9
100
AcDbSymbolTableRecord
100
AcDbRegAppTableRecord
  2
ACAD_DSTYLE_DIMTALN
 70
     0
  0
APPID
  5
858
330
9
100
AcDbSymbolTableRecord
100
AcDbRegAppTableRecord
  2
ACAD_DSTYLE_DIMARC_LENGTH_SYMBOL
 70
     0
  0
APPID
  5
859
330
9
100
AcDbSymbolTableRecord
100
AcDbRegAppTableRecord
  2
ACAD_DSTYLE_DIMEXT_LENGTH
 70
     0
  0
APPID
  5
86E
330
9
100
AcDbSymbolTableRecord
100
AcDbRegAppTableRecord
  2
ACAD_MLEADERVER
 70
     0
  0
APPID
  5
1121
330
9
100
AcDbSymbolTableRecord
100
AcDbRegAppTableRecord
  2
ACAD_PSEXT
 70
     0
  0
ENDTAB
  0
TABLE
  2
DIMSTYLE
  5
A
330
0
100
AcDbSymbolTable
 70
    10
100
AcDbDimStyleTable
  0
DIMSTYLE
105
D9
102
{ACAD_REACTORS
330
CF8
330
CF5
330
11EA
102
}
330
A
100
AcDbSymbolTableRecord
100
AcDbDimStyleTableRecord
  2
1：1
 70
     0
 41
2.5
 42
0.25
 43
0.2
 44
1.25
 73
     0
 74
     0
 77
     3
 78
     8
 79
     2
140
3.0
141
0.0
143
0.03937007874016
147
0.625
171
     3
172
     1
271
     2
178
     4
179
     1
271
     2
272
     2
274
     3
283
     0
284
     8
288
     1
289
     0
340
11
341
C6
342
C6
1001
ACAD_DSTYLE_DIMJOGGED_JOGANGLE_SYMBOL
1070
   384
1040
1.570796326794897
1001
ACAD_DSTYLE_DIMARC_LENGTH_SYMBOL
1070
   379
1070
     2
  0
DIMSTYLE
105
DA
330
A
100
AcDbSymbolTableRecord
100
AcDbDimStyleTableRecord
  2
2：1
 70
     0
 41
2.5
 42
0.25
 43
0.2
 44
1.25
 73
     0
 74
     0
 77
     3
 78
     8
 79
     2
140
3.0
141
0.0
143
0.03937007874016
144
0.5
147
0.625
171
     3
172
     1
271
     2
178
     4
179
     1
271
     2
272
     2
274
     3
283
     0
284
     8
288
     1
289
     0
340
11
341
C6
342
C6
1001
ACAD_DSTYLE_DIMJOGGED_JOGANGLE_SYMBOL
1070
   384
1040
1.570796326794897
1001
ACAD_DSTYLE_DIMARC_LENGTH_SYMBOL
1070
   379
1070
     2
  0
DIMSTYLE
105
DB
330
A
100
AcDbSymbolTableRecord
100
AcDbDimStyleTableRecord
  2
5：1
 70
     0
 41
2.5
 42
0.25
 43
0.2
 44
1.25
 73
     0
 74
     0
 77
     3
 78
     8
 79
     2
140
3.0
141
0.0
143
0.03937007874016
144
0.2
147
0.625
171
     3
172
     1
271
     2
178
     4
179
     1
271
     2
272
     2
274
     3
283
     0
284
     8
288
     1
289
     0
340
11
341
C6
342
C6
1001
ACAD_DSTYLE_DIMJOGGED_JOGANGLE_SYMBOL
1070
   384
1040
1.570796326794897
1001
ACAD_DSTYLE_DIMARC_LENGTH_SYMBOL
1070
   379
1070
     2
  0
DIMSTYLE
105
127
330
A
100
AcDbSymbolTableRecord
100
AcDbDimStyleTableRecord
  2
10：1
 70
     0
 41
2.5
 42
0.25
 43
0.2
 44
1.25
 73
     0
 74
     0
 77
     3
 78
     8
 79
     2
140
3.0
141
0.0
143
0.03937007874016
144
0.1
147
0.625
171
     3
172
     1
271
     2
178
     4
179
     1
271
     2
272
     2
274
     3
283
     0
284
     8
288
     1
289
     0
340
11
341
C6
342
C6
1001
ACAD_DSTYLE_DIMJOGGED_JOGANGLE_SYMBOL
1070
   384
1040
1.570796326794897
1001
ACAD_DSTYLE_DIMARC_LENGTH_SYMBOL
1070
   379
1070
     2
  0
DIMSTYLE
105
128
330
A
100
AcDbSymbolTableRecord
100
AcDbDimStyleTableRecord
  2
1／2
 70
     0
 41
2.5
 42
0.25
 43
0.2
 44
1.25
 73
     0
 74
     0
 77
     3
 78
     8
 79
     2
140
3.0
141
0.0
143
0.03937007874016
144
2.0
147
0.625
171
     3
172
     1
271
     2
178
     4
179
     1
271
     2
272
     2
274
     3
283
     0
284
     8
288
     1
289
     0
340
11
341
C6
342
C6
1001
ACAD_DSTYLE_DIMJOGGED_JOGANGLE_SYMBOL
1070
   384
1040
1.570796326794897
1001
ACAD_DSTYLE_DIMARC_LENGTH_SYMBOL
1070
   379
1070
     2
  0
DIMSTYLE
105
129
330
A
100
AcDbSymbolTableRecord
100
AcDbDimStyleTableRecord
  2
1／5
 70
     0
 41
2.5
 42
0.25
 43
0.2
 44
1.25
 73
     0
 74
     0
 77
     3
 78
     8
 79
     2
140
3.0
141
0.0
143
0.03937007874016
144
5.0
147
0.625
171
     3
172
     1
271
     2
178
     4
179
     1
271
     2
272
     2
274
     3
283
     0
284
     8
288
     1
289
     0
340
11
341
C6
342
C6
1001
ACAD_DSTYLE_DIMJOGGED_JOGANGLE_SYMBOL
1070
   384
1040
1.570796326794897
1001
ACAD_DSTYLE_DIMARC_LENGTH_SYMBOL
1070
   379
1070
     2
  0
DIMSTYLE
105
12A
330
A
100
AcDbSymbolTableRecord
100
AcDbDimStyleTableRecord
  2
1／10
 70
     0
 41
2.5
 42
0.25
 43
0.2
 44
1.25
 73
     0
 74
     0
 77
     3
 78
     8
 79
     2
140
3.0
141
0.0
143
0.03937007874016
144
10.0
147
0.625
171
     3
172
     1
271
     2
178
     4
179
     1
271
     2
272
     2
274
     3
283
     0
284
     8
288
     1
289
     0
340
11
341
C6
342
C6
1001
ACAD_DSTYLE_DIMJOGGED_JOGANGLE_SYMBOL
1070
   384
1040
1.570796326794897
1001
ACAD_DSTYLE_DIMARC_LENGTH_SYMBOL
1070
   379
1070
     2
  0
DIMSTYLE
105
644
330
A
100
AcDbSymbolTableRecord
100
AcDbDimStyleTableRecord
  2
1／4
 70
     0
 41
2.5
 42
0.25
 43
0.2
 44
1.25
 73
     0
 74
     0
 77
     3
 78
     8
 79
     2
140
3.0
141
0.0
143
0.03937007874016
144
4.0
147
0.625
171
     3
172
     1
271
     2
178
     4
179
     1
271
     2
272
     2
274
     3
283
     0
284
     8
288
     1
289
     0
340
11
341
C6
342
C6
1001
ACAD_DSTYLE_DIMJOGGED_JOGANGLE_SYMBOL
1070
   384
1040
1.570796326794897
1001
ACAD_DSTYLE_DIMARC_LENGTH_SYMBOL
1070
   379
1070
     2
  0
DIMSTYLE
105
645
330
A
100
AcDbSymbolTableRecord
100
AcDbDimStyleTableRecord
  2
1／3
 70
     0
 41
2.5
 42
0.25
 43
0.2
 44
1.25
 73
     0
 74
     0
 77
     3
 78
     8
 79
     2
140
3.0
141
0.0
143
0.03937007874016
144
3.0
147
0.625
171
     3
172
     1
271
     2
178
     4
179
     1
271
     2
272
     2
274
     3
283
     0
284
     8
288
     1
289
     0
340
11
341
C6
342
C6
1001
ACAD_DSTYLE_DIMJOGGED_JOGANGLE_SYMBOL
1070
   384
1040
1.570796326794897
1001
ACAD_DSTYLE_DIMARC_LENGTH_SYMBOL
1070
   379
1070
     2
  0
DIMSTYLE
105
646
330
A
100
AcDbSymbolTableRecord
100
AcDbDimStyleTableRecord
  2
FREE
 70
     0
 41
2.5
 42
0.25
 43
0.2
 44
1.25
 73
     0
 74
     0
 77
     3
 78
     8
 79
     2
140
3.0
141
0.0
143
0.03937007874016
147
0.625
171
     3
172
     1
271
     2
178
     4
179
     1
271
     2
272
     2
274
     3
283
     0
284
     8
288
     1
289
     0
340
11
341
C6
342
C6
1001
ACAD_DSTYLE_DIMBREAK
1070
   391
1040
3.75
1001
ACAD_DSTYLE_DIMJAG
1070
   388
1040
1.5
1001
ACAD_DSTYLE_DIMTALN
1070
   392
1070
     0
1001
ACAD_DSTYLE_DIMJOGGED_JOGANGLE_SYMBOL
1070
   384
1040
1.570796326794897
1001
ACAD_DSTYLE_DIMARC_LENGTH_SYMBOL
1070
   379
1070
     2
  0
ENDTAB
  0
TABLE
  2
BLOCK_RECORD
  5
1
330
0
100
AcDbSymbolTable
 70
     5
  0
BLOCK_RECORD
  5
1F
102
{ACAD_XDICTIONARY
360
31A
102
}
330
1
100
AcDbSymbolTableRecord
100
AcDbBlockTableRecord
  2
*Model_Space
340
22
  0
BLOCK_RECORD
  5
58
330
1
100
AcDbSymbolTableRecord
100
AcDbBlockTableRecord
  2
*Paper_Space
340
59
  0
BLOCK_RECORD
  5
5D
330
1
100
AcDbSymbolTableRecord
100
AcDbBlockTableRecord
  2
*Paper_Space0
340
5E
  0
BLOCK_RECORD
  5
C6
330
1
100
AcDbSymbolTableRecord
100
AcDbBlockTableRecord
  2
_Open30
340
0
102
{BLKREFS
331
CFF
331
D00
331
D0D
331
D0E
331
11EF
331
11F0
331
CFF
331
D00
331
D0D
331
D0E
331
11EF
331
11F0
102
}
  0
BLOCK_RECORD
  5
CFB
330
1
100
AcDbSymbolTableRecord
100
AcDbBlockTableRecord
  2
*D2
340
0
  0
BLOCK_RECORD
  5
D09
330
1
100
AcDbSymbolTableRecord
100
AcDbBlockTableRecord
  2
*D3
340
0
  0
BLOCK_RECORD
  5
11EB
330
1
100
AcDbSymbolTableRecord
100
AcDbBlockTableRecord
  2
*D4
340
0
  0
ENDTAB
  0
ENDSEC
  0
SECTION
  2
BLOCKS
  0
BLOCK
  5
20
330
1F
100
AcDbEntity
  8
0
100
AcDbBlockBegin
  2
*Model_Space
 70
     0
 10
0.0
 20
0.0
 30
0.0
  3
*Model_Space
  1

  0
ENDBLK
  5
21
330
1F
100
AcDbEntity
  8
0
100
AcDbBlockEnd
  0
BLOCK
  5
5A
330
58
100
AcDbEntity
 67
     1
  8
0
100
AcDbBlockBegin
  2
*Paper_Space
 70
     0
 10
0.0
 20
0.0
 30
0.0
  3
*Paper_Space
  1

  0
ENDBLK
  5
5B
330
58
100
AcDbEntity
 67
     1
  8
0
100
AcDbBlockEnd
  0
BLOCK
  5
5F
330
5D
100
AcDbEntity
  8
0
100
AcDbBlockBegin
  2
*Paper_Space0
 70
     0
 10
0.0
 20
0.0
 30
0.0
  3
*Paper_Space0
  1

  0
ENDBLK
  5
60
330
5D
100
AcDbEntity
  8
0
100
AcDbBlockEnd
  0
BLOCK
  5
C7
330
C6
100
AcDbEntity
  8
0
100
AcDbBlockBegin
  2
_Open30
 70
     0
 10
0.0
 20
0.0
 30
0.0
  3
_Open30
  1

  0
LINE
  5
C8
330
C6
100
AcDbEntity
  8
0
  6
ByBlock
 62
     0
370
    -2
100
AcDbLine
 10
-1.0
 20
0.267949
 30
0.0
 11
0.0
 21
0.0
 31
0.0
  0
LINE
  5
C9
330
C6
100
AcDbEntity
  8
0
  6
ByBlock
 62
     0
370
    -2
100
AcDbLine
 10
0.0
 20
0.0
 30
0.0
 11
-1.0
 21
-0.267949
 31
0.0
  0
LINE
  5
CA
330
C6
100
AcDbEntity
  8
0
  6
ByBlock
 62
     0
370
    -2
100
AcDbLine
 10
0.0
 20
0.0
 30
0.0
 11
-1.0
 21
0.0
 31
0.0
  0
ENDBLK
  5
CB
330
C6
100
AcDbEntity
  8
0
100
AcDbBlockEnd
  0
BLOCK
  5
D07
330
CFB
100
AcDbEntity
  8
0
100
AcDbBlockBegin
  2
*D2
 70
     1
 10
0.0
 20
0.0
 30
0.0
  3
*D2
  1
Acad:XRef
  0
LINE
  5
CFC
330
CFB
100
AcDbEntity
  8
0
 62
     0
370
    -2
100
AcDbLine
 10
846.7048140513252
 20
172.6161236254422
 30
0.0
 11
846.7048140513252
 21
217.2104736194311
 31
0.0
  0
LINE
  5
CFD
330
CFB
100
AcDbEntity
  8
0
 62
     0
370
    -2
100
AcDbLine
 10
906.7048140513252
 20
172.6161236254422
 30
0.0
 11
906.7048140513252
 21
217.2104736194311
 31
0.0
  0
LINE
  5
CFE
330
CFB
100
AcDbEntity
  8
0
 62
     0
370
    -2
100
AcDbLine
 10
849.2048140513252
 20
215.9604736194311
 30
0.0
 11
904.2048140513252
 21
215.9604736194311
 31
0.0
  0
INSERT
  5
CFF
330
CFB
100
AcDbEntity
  8
0
  6
ByBlock
 62
     0
370
    -2
100
AcDbBlockReference
  2
_Open30
 10
846.7048140513252
 20
215.9604736194311
 30
0.0
 41
2.5
 42
2.5
 43
2.5
 50
180.0
  0
INSERT
  5
D00
330
CFB
100
AcDbEntity
  8
0
  6
ByBlock
 62
     0
370
    -2
100
AcDbBlockReference
  2
_Open30
 10
906.7048140513252
 20
215.9604736194311
 30
0.0
 41
2.5
 42
2.5
 43
2.5
  0
MTEXT
  5
D01
330
CFB
100
AcDbEntity
  8
0
 62
     4
100
AcDbMText
 10
876.7048140513252
 20
218.0854736194311
 30
0.0
 40
3.0
 41
0.0
 71
     5
 72
     1
  1
%%c60
 73
     1
 44
1.0
  0
POINT
  5
D02
330
CFB
100
AcDbEntity
  8
Defpoints
 62
     0
100
AcDbPoint
 10
846.7048140513252
 20
172.3661236254422
 30
0.0
  0
POINT
  5
D03
330
CFB
100
AcDbEntity
  8
Defpoints
 62
     0
100
AcDbPoint
 10
906.7048140513252
 20
172.3661236254422
 30
0.0
  0
POINT
  5
D04
330
CFB
100
AcDbEntity
  8
Defpoints
 62
     0
100
AcDbPoint
 10
906.7048140513252
 20
215.9604736194311
 30
0.0
  0
ENDBLK
  5
D08
330
CFB
100
AcDbEntity
  8
0
100
AcDbBlockEnd
  0
BLOCK
  5
D13
330
D09
100
AcDbEntity
  8
0
100
AcDbBlockBegin
  2
*D3
 70
     1
 10
0.0
 20
0.0
 30
0.0
  3
*D3
  1
Acad:XRef
  0
LINE
  5
D0A
330
D09
100
AcDbEntity
  8
0
 62
     0
370
    -2
100
AcDbLine
 10
876.4118589849506
 20
202.366092873131
 30
0.0
 11
832.2720572994986
 21
202.366092873131
 31
0.0
  0
LINE
  5
D0B
330
D09
100
AcDbEntity
  8
0
 62
     0
370
    -2
100
AcDbLine
 10
876.4548140513227
 20
86.36612362544219
 30
0.0
 11
832.2720572994986
 21
86.36612362544219
 31
0.0
  0
LINE
  5
D0C
330
D09
100
AcDbEntity
  8
0
 62
     0
370
    -2
100
AcDbLine
 10
833.5220572994986
 20
199.866092873131
 30
0.0
 11
833.5220572994986
 21
88.86612362544219
 31
0.0
  0
INSERT
  5
D0D
330
D09
100
AcDbEntity
  8
0
  6
ByBlock
 62
     0
370
    -2
100
AcDbBlockReference
  2
_Open30
 10
833.5220572994986
 20
202.366092873131
 30
0.0
 41
2.5
 42
2.5
 43
2.5
 50
90.0
  0
INSERT
  5
D0E
330
D09
100
AcDbEntity
  8
0
  6
ByBlock
 62
     0
370
    -2
100
AcDbBlockReference
  2
_Open30
 10
833.5220572994986
 20
86.36612362544219
 30
0.0
 41
2.5
 42
2.5
 43
2.5
 50
270.0
  0
MTEXT
  5
D0F
330
D09
100
AcDbEntity
  8
0
 62
     4
100
AcDbMText
 10
831.3970572994986
 20
144.3661082492866
 30
0.0
 40
3.0
 41
0.0
 71
     5
 72
     1
  1
116
 11
0.0
 21
1.0
 31
0.0
 73
     1
 44
1.0
  0
POINT
  5
D10
330
D09
100
AcDbEntity
  8
Defpoints
 62
     0
100
AcDbPoint
 10
876.6618589849506
 20
202.366092873131
 30
0.0
  0
POINT
  5
D11
330
D09
100
AcDbEntity
  8
Defpoints
 62
     0
100
AcDbPoint
 10
876.7048140513227
 20
86.36612362544219
 30
0.0
  0
POINT
  5
D12
330
D09
100
AcDbEntity
  8
Defpoints
 62
     0
100
AcDbPoint
 10
833.5220572994986
 20
86.36612362544219
 30
0.0
  0
ENDBLK
  5
D14
330
D09
100
AcDbEntity
  8
0
100
AcDbBlockEnd
  0
BLOCK
  5
11F5
330
11EB
100
AcDbEntity
  8
0
100
AcDbBlockBegin
  2
*D4
 70
     1
 10
0.0
 20
0.0
 30
0.0
  3
*D4
  1
Acad:XRef
  0
LINE
  5
11EC
330
11EB
100
AcDbEntity
  8
0
 62
     0
370
    -2
100
AcDbLine
 10
863.2048161768321
 20
106.1076730499828
 30
0.0
 11
863.2048161768321
 21
74.8746016585883
 31
0.0
  0
LINE
  5
11ED
330
11EB
100
AcDbEntity
  8
0
 62
     0
370
    -2
100
AcDbLine
 10
890.2053120564588
 20
107.8303841352867
 30
0.0
 11
890.2053120564588
 21
74.8746016585883
 31
0.0
  0
LINE
  5
11EE
330
11EB
100
AcDbEntity
  8
0
 62
     0
370
    -2
100
AcDbLine
 10
865.7048161768321
 20
76.1246016585883
 30
0.0
 11
887.7053120564588
 21
76.1246016585883
 31
0.0
  0
INSERT
  5
11EF
330
11EB
100
AcDbEntity
  8
0
  6
ByBlock
 62
     0
370
    -2
100
AcDbBlockReference
  2
_Open30
 10
863.2048161768321
 20
76.1246016585883
 30
0.0
 41
2.5
 42
2.5
 43
2.5
 50
180.0
  0
INSERT
  5
11F0
330
11EB
100
AcDbEntity
  8
0
  6
ByBlock
 62
     0
370
    -2
100
AcDbBlockReference
  2
_Open30
 10
890.2053120564588
 20
76.1246016585883
 30
0.0
 41
2.5
 42
2.5
 43
2.5
  0
MTEXT
  5
11F1
330
11EB
100
AcDbEntity
  8
0
 62
     4
100
AcDbMText
 10
876.7372659791838
 20
78.2496016585883
 30
0.0
 40
3.0
 41
0.0
 71
     5
 72
     1
  1
E26
 73
     1
 44
1.0
  0
POINT
  5
11F2
330
11EB
100
AcDbEntity
  8
Defpoints
 62
     0
100
AcDbPoint
 10
863.2048161768321
 20
106.3576730499828
 30
0.0
  0
POINT
  5
11F3
330
11EB
100
AcDbEntity
  8
Defpoints
 62
     0
100
AcDbPoint
 10
890.2053120564588
 20
108.0803841352867
 30
0.0
  0
POINT
  5
11F4
330
11EB
100
AcDbEntity
  8
Defpoints
 62
     0
100
AcDbPoint
 10
890.2053120564588
 20
76.1246016585883
 30
0.0
  0
ENDBLK
  5
11F6
330
11EB
100
AcDbEntity
  8
0
100
AcDbBlockEnd
  0
ENDSEC
  0
SECTION
  2
ENTITIES
  0
LINE
  5
876
330
1F
100
AcDbEntity
  8
0
 62
     3
100
AcDbLine
 10
809.7537139416024
 20
146.3624419978892
 30
0.0
 11
809.2657871116024
 21
146.3624419978892
 31
0.0
  0
LINE
  5
877
330
1F
100
AcDbEntity
  8
0
 62
     3
100
AcDbLine
 10
821.2657871116024
 20
284.8624419978892
 30
0.0
 11
821.2657871116024
 21
7.862441997889164
 31
0.0
  0
LINE
  5
879
330
1F
100
AcDbEntity
  8
0
 62
     3
100
AcDbLine
 10
1001.265787111602
 20
7.862441997889164
 30
0.0
 11
1001.265787111602
 21
284.8624419978892
 31
0.0
  0
LINE
  5
87A
330
1F
100
AcDbEntity
  8
0
 62
     3
100
AcDbLine
 10
821.2657871116024
 20
7.862441997889164
 30
0.0
 11
1001.265787111602
 21
7.862441997889164
 31
0.0
  0
LINE
  5
8F9
330
1F
100
AcDbEntity
  8
0
 62
     3
100
AcDbLine
 10
886.5934497416024
 20
284.8624419978892
 30
0.0
 11
1001.265787111602
 21
284.8624419978892
 31
0.0
  0
LINE
  5
8FB
330
1F
100
AcDbEntity
  8
0
 62
     3
100
AcDbLine
 10
853.1807032216025
 20
284.8624419978892
 30
0.0
 11
821.2657871116024
 21
284.8624419978892
 31
0.0
  0
LINE
  5
8FC
330
1F
100
AcDbEntity
  8
0
 62
     3
100
AcDbLine
 10
949.2657871116024
 20
7.862441997889164
 30
0.0
 11
949.2657871116024
 21
47.86244199788917
 31
0.0
  0
LINE
  5
8FD
330
1F
100
AcDbEntity
  8
0
 62
     3
100
AcDbLine
 10
962.2657871116024
 20
17.86244199788916
 30
0.0
 11
962.2657871116024
 21
45.86244199788916
 31
0.0
  0
LINE
  5
8FE
330
1F
100
AcDbEntity
  8
0
 62
     3
100
AcDbLine
 10
922.2657871116024
 20
17.86244199788916
 30
0.0
 11
922.2657871116024
 21
31.86244199788916
 31
0.0
  0
LINE
  5
8FF
330
1F
100
AcDbEntity
  8
0
 62
     3
100
AcDbLine
 10
932.2657871116024
 20
31.86244199788916
 30
0.0
 11
932.2657871116024
 21
7.862441997889164
 31
0.0
  0
LINE
  5
900
330
1F
100
AcDbEntity
  8
0
 62
     3
100
AcDbLine
 10
903.2657871116024
 20
47.86244199788916
 30
0.0
 11
903.2657871116024
 21
24.86244199788917
 31
0.0
  0
LINE
  5
901
330
1F
100
AcDbEntity
  8
0
 62
     3
100
AcDbLine
 10
962.2657871116024
 20
45.86244199788916
 30
0.0
 11
962.2657871116024
 21
47.86244199788917
 31
0.0
  0
LINE
  5
902
330
1F
100
AcDbEntity
  8
0
 62
     3
100
AcDbLine
 10
975.2657871116024
 20
24.86244199788917
 30
0.0
 11
975.2657871116024
 21
47.86244199788917
 31
0.0
  0
LINE
  5
903
330
1F
100
AcDbEntity
  8
0
 62
     3
100
AcDbLine
 10
1001.265787111602
 20
47.86244199788917
 30
0.0
 11
890.0203524716026
 21
47.86244199788918
 31
0.0
  0
LINE
  5
904
330
1F
100
AcDbEntity
  8
0
 62
     3
100
AcDbLine
 10
1001.265787111602
 20
38.86244199788916
 30
0.0
 11
890.0203524716025
 21
38.86244199788917
 31
0.0
  0
LINE
  5
905
330
1F
100
AcDbEntity
  8
0
 62
     3
100
AcDbLine
 10
1001.265787111602
 20
24.86244199788917
 30
0.0
 11
890.0203524716025
 21
24.86244199788917
 31
0.0
  0
LINE
  5
906
330
1F
100
AcDbEntity
  8
0
 62
     3
100
AcDbLine
 10
1001.265787111602
 20
17.86244199788916
 30
0.0
 11
890.0203524716025
 21
17.86244199788916
 31
0.0
  0
LINE
  5
907
330
1F
100
AcDbEntity
  8
0
 62
     3
100
AcDbLine
 10
988.2657871116024
 20
24.86244199788917
 30
0.0
 11
988.2657871116024
 21
47.86244199788917
 31
0.0
  0
LINE
  5
908
330
1F
100
AcDbEntity
  8
0
 62
     3
100
AcDbLine
 10
890.0203524716025
 20
47.86244199788918
 30
0.0
 11
890.0203524716025
 21
7.862441997889164
 31
0.0
  0
LINE
  5
909
330
1F
100
AcDbEntity
  8
0
 62
     3
100
AcDbLine
 10
949.2657871116024
 20
31.86244199788916
 30
0.0
 11
890.0203524716025
 21
31.86244199788915
 31
0.0
  0
LINE
  5
90A
330
1F
100
AcDbEntity
  8
0
 62
     3
100
AcDbLine
 10
932.5441120416024
 20
12.69530325788915
 30
0.0
 11
949.2657871116024
 21
12.69530325788915
 31
0.0
  0
LINE
  5
90B
330
1F
100
AcDbEntity
  8
0
 62
     3
100
AcDbLine
 10
936.2657871116024
 20
38.86244199788916
 30
0.0
 11
944.2657871116024
 21
38.86244199788916
 31
0.0
  0
TEXT
  5
90C
330
1F
100
AcDbEntity
  8
0
 62
     3
100
AcDbText
 10
933.4301125249182
 20
26.93553885125451
 30
0.0
 40
2.5
  1
交換球
  7
高2.5
100
AcDbText
  0
TEXT
  5
90D
330
1F
100
AcDbEntity
  8
0
 62
     3
100
AcDbText
 10
904.4621558068546
 20
27.16025640287307
 30
0.0
 40
2.5
  1
-
  7
高2.5
100
AcDbText
  0
TEXT
  5
90E
330
1F
100
AcDbEntity
  8
0
 62
     3
100
AcDbText
 10
904.7270635615521
 20
40.17469152164706
 30
0.0
 40
4.5
  1
LEDフロスト電球12W
 41
0.7
  7
高4.5
100
AcDbText
1001
ACAD
1000
ACAD_MTEXT_DEFINED_HEIGHT_BEGIN
1070
    46
1040
0.0
1000
ACAD_MTEXT_DEFINED_HEIGHT_END
  0
TEXT
  5
90F
330
1F
100
AcDbEntity
  8
0
 62
     3
100
AcDbText
 10
991.3313762050765
 20
44.37613409659276
 30
0.0
 40
2.0
  1
DEF
  7
高2
100
AcDbText
  0
TEXT
  5
910
330
1F
100
AcDbEntity
  8
0
 62
     3
100
AcDbText
 10
977.3922778513682
 20
44.37613409659267
 30
0.0
 40
2.0
  1
DESN
  7
高2
100
AcDbText
  0
TEXT
  5
911
330
1F
100
AcDbEntity
  8
0
 62
     3
100
AcDbText
 10
951.1379109113681
 20
44.37613409659276
 30
0.0
 40
2.0
  1
APPD
  7
高2
100
AcDbText
  0
TEXT
  5
912
330
1F
100
AcDbEntity
  8
0
 62
     3
100
AcDbText
 10
964.2506470116024
 20
44.37613409659277
 30
0.0
 40
2.0
  1
CHCK
  7
高2
100
AcDbText
  0
TEXT
  5
913
330
1F
100
AcDbEntity
  8
0
 62
     3
100
AcDbText
 10
923.1929527507551
 20
22.03084082111988
 30
0.0
 40
2.0
  1
SCALE
 41
0.8
  7
高2
100
AcDbText
  0
TEXT
  5
914
330
1F
100
AcDbEntity
  8
0
 62
     3
100
AcDbText
 10
891.7049311746486
 20
22.0308408211199
 30
0.0
 40
2.0
  1
3AD　ANGLE
 41
1.5
  7
高2
100
AcDbText
  0
TEXT
  5
915
330
1F
100
AcDbEntity
  8
0
 62
     3
100
AcDbText
 10
922.4623584416039
 20
28.78237889007699
 30
0.0
 40
2.0
  1
REMARKS
 41
0.7
  7
高2
100
AcDbText
  0
TEXT
  5
916
330
1F
100
AcDbEntity
  8
0
 62
     3
100
AcDbText
 10
891.4880228216024
 20
28.86244199788917
 30
0.0
 40
2.0
  1
MATERIAL
 41
0.7
  7
高2
100
AcDbText
  0
TEXT
  5
917
330
1F
100
AcDbEntity
  8
0
 62
     3
100
AcDbText
 10
892.0645100243565
 20
35.86244199788915
 30
0.0
 40
2.0
  1
MODEL
  7
高2
100
AcDbText
  0
TEXT
  5
918
330
1F
100
AcDbEntity
  8
0
 62
     3
100
AcDbText
 10
891.7014309056877
 20
44.56946334848818
 30
0.0
 40
2.0
  1
CONPONENTS
 41
0.5
  7
高2
100
AcDbText
  0
TEXT
  5
919
330
1F
100
AcDbEntity
  8
0
 62
     3
100
AcDbText
 10
904.4085463768546
 20
32.94992312570111
 30
0.0
 40
4.5
  1
LFC-12WB-50K
 41
0.8
  7
高4.5
100
AcDbText
  0
TEXT
  5
91A
330
1F
100
AcDbEntity
  8
0
 62
     3
100
AcDbText
 10
952.330832842221
 20
9.900903393254751
 30
0.0
 40
6.3
  1
LFC-12WB-50K
 41
0.6
  7
高6.3
100
AcDbText
1001
ACAD
1000
ACAD_MTEXT_DEFINED_HEIGHT_BEGIN
1070
    46
1040
0.0
1000
ACAD_MTEXT_DEFINED_HEIGHT_END
  0
TEXT
  5
91B
330
1F
100
AcDbEntity
  8
0
 62
     3
100
AcDbText
 10
965.829296861932
 20
18.96333115612217
 30
0.0
 40
3.2
  1
2022.10.18
  7
高3.2
100
AcDbText
1001
ACAD
1000
ACAD_MTEXT_DEFINED_HEIGHT_BEGIN
1070
    46
1040
0.0
1000
ACAD_MTEXT_DEFINED_HEIGHT_END
  0
TEXT
  5
91C
330
1F
100
AcDbEntity
  8
0
 62
     3
100
AcDbText
 10
936.0533850062487
 20
18.96335900045704
 30
0.0
 40
3.2
  1
1/1
  7
高3.2
100
AcDbText
  0
TEXT
  5
91D
330
1F
100
AcDbEntity
  8
0
 62
     3
100
AcDbText
 10
933.1307139816024
 20
8.679320171025125
 30
0.0
 40
3.2
  1
ZK-A4Y
 41
0.8
  7
高3.2
100
AcDbText
  0
TEXT
  5
91E
330
1F
100
AcDbEntity
  8
0
 62
     3
100
AcDbText
 10
890.8510535116023
 20
14.38706242007699
 30
0.0
 40
2.0
  1
NICHIDO IND.CO.LTD
 41
1.3
  7
高2
100
AcDbText
  0
TEXT
  5
91F
330
1F
100
AcDbEntity
  8
0
 62
     3
100
AcDbText
 10
892.0325767765596
 20
40.0029702057741
 30
0.0
 40
3.2
  1
品 名
  7
高3.2
100
AcDbText
1001
ACAD
1000
ACAD_MTEXT_DEFINED_HEIGHT_BEGIN
1070
    46
1040
0.0
1000
ACAD_MTEXT_DEFINED_HEIGHT_END
  0
TEXT
  5
920
330
1F
100
AcDbEntity
  8
0
 62
     3
100
AcDbText
 10
892.0325767765596
 20
32.36244199788915
 30
0.0
 40
3.2
  1
型 式
  7
高3.2
100
AcDbText
1001
ACAD
1000
ACAD_MTEXT_DEFINED_HEIGHT_BEGIN
1070
    46
1040
3.064735913775955
1000
ACAD_MTEXT_DEFINED_HEIGHT_END
  0
TEXT
  5
921
330
1F
100
AcDbEntity
  8
0
 62
     3
100
AcDbText
 10
892.0325767765596
 20
25.36244199788917
 30
0.0
 40
3.2
  1
材 質
  7
高3.2
100
AcDbText
1001
ACAD
1000
ACAD_MTEXT_DEFINED_HEIGHT_BEGIN
1070
    46
1040
0.0
1000
ACAD_MTEXT_DEFINED_HEIGHT_END
  0
TEXT
  5
922
330
1F
100
AcDbEntity
  8
0
 62
     3
100
AcDbText
 10
891.7275418265596
 20
18.32988199013541
 30
0.0
 40
3.2
  1
第 三 角 法
  7
高3.2
100
AcDbText
1001
ACAD
1000
ACAD_MTEXT_DEFINED_HEIGHT_BEGIN
1070
    46
1040
0.0
1000
ACAD_MTEXT_DEFINED_HEIGHT_END
  0
TEXT
  5
923
330
1F
100
AcDbEntity
  8
0
 62
     3
100
AcDbText
 10
890.1340744340885
 20
9.002970205774098
 30
0.0
 40
3.2
  1
日動工業株式会社
 41
1.2
  7
高3.2
100
AcDbText
1001
ACAD
1000
ACAD_MTEXT_DEFINED_HEIGHT_BEGIN
1070
    46
1040
0.0
1000
ACAD_MTEXT_DEFINED_HEIGHT_END
  0
TEXT
  5
924
330
1F
100
AcDbEntity
  8
0
 62
     3
100
AcDbText
 10
923.7696986335669
 20
25.24702053105672
 30
0.0
 40
3.2
  1
備考
  7
高3.2
100
AcDbText
1001
ACAD
1000
ACAD_MTEXT_DEFINED_HEIGHT_BEGIN
1070
    46
1040
0.0
1000
ACAD_MTEXT_DEFINED_HEIGHT_END
  0
TEXT
  5
925
330
1F
100
AcDbEntity
  8
0
 62
     3
100
AcDbText
 10
933.4187560806024
 20
14.00867202345946
 30
0.0
 40
2.5
  1
出図コード
  7
高2.5
100
AcDbText
1001
ACAD
1000
ACAD_MTEXT_DEFINED_HEIGHT_BEGIN
1070
    46
1040
0.0
1000
ACAD_MTEXT_DEFINED_HEIGHT_END
  0
TEXT
  5
926
330
1F
100
AcDbEntity
  8
0
 62
     3
100
AcDbText
 10
923.6109325154795
 20
18.31567690830208
 30
0.0
 40
3.2
  1
尺度
  7
高3.2
100
AcDbText
1001
ACAD
1000
ACAD_MTEXT_DEFINED_HEIGHT_BEGIN
1070
    46
1040
0.0
1000
ACAD_MTEXT_DEFINED_HEIGHT_END
  0
TEXT
  5
927
330
1F
100
AcDbEntity
  8
0
 62
     3
100
AcDbText
 10
950.7571939972582
 20
19.44715535641957
 30
0.0
 40
3.2
  1
作成日
  7
高3.2
100
AcDbText
1001
ACAD
1000
ACAD_MTEXT_DEFINED_HEIGHT_BEGIN
1070
    46
1040
0.0
1000
ACAD_MTEXT_DEFINED_HEIGHT_END
  0
TEXT
  5
928
330
1F
100
AcDbEntity
  8
0
 62
     3
100
AcDbText
 10
950.6516680041223
 20
40.0029702057741
 30
0.0
 40
3.2
  1
承 認
  7
高3.2
100
AcDbText
1001
ACAD
1000
ACAD_MTEXT_DEFINED_HEIGHT_BEGIN
1070
    46
1040
0.0
1000
ACAD_MTEXT_DEFINED_HEIGHT_END
  0
TEXT
  5
929
330
1F
100
AcDbEntity
  8
0
 62
     3
100
AcDbText
 10
963.6516680041221
 20
40.0029702057741
 30
0.0
 40
3.2
  1
検 図
  7
高3.2
100
AcDbText
1001
ACAD
1000
ACAD_MTEXT_DEFINED_HEIGHT_BEGIN
1070
    46
1040
0.0
1000
ACAD_MTEXT_DEFINED_HEIGHT_END
  0
TEXT
  5
92A
330
1F
100
AcDbEntity
  8
0
 62
     3
100
AcDbText
 10
976.6516680041221
 20
40.0029702057741
 30
0.0
 40
3.2
  1
設 計
  7
高3.2
100
AcDbText
1001
ACAD
1000
ACAD_MTEXT_DEFINED_HEIGHT_BEGIN
1070
    46
1040
0.0
1000
ACAD_MTEXT_DEFINED_HEIGHT_END
  0
TEXT
  5
92B
330
1F
100
AcDbEntity
  8
0
 62
     3
100
AcDbText
 10
989.9523045241222
 20
40.0029702057741
 30
0.0
 40
3.2
  1
製 図
  7
高3.2
100
AcDbText
1001
ACAD
1000
ACAD_MTEXT_DEFINED_HEIGHT_BEGIN
1070
    46
1040
0.0
1000
ACAD_MTEXT_DEFINED_HEIGHT_END
  0
LINE
  5
9C4
330
1F
100
AcDbEntity
  8
0
 62
     3
100
AcDbLine
 10
860.5187210713361
 20
286.3106225915551
 30
0.0
 11
860.5187210713361
 21
283.1572737978894
 31
0.0
  0
LINE
  5
9C5
330
1F
100
AcDbEntity
  8
0
 62
     3
100
AcDbLine
 10
861.1615501464355
 20
285.0795507718278
 30
0.0
 11
861.1615501464355
 21
283.1572737978894
 31
0.0
  0
LINE
  5
9C6
330
1F
100
AcDbEntity
  8
0
 62
     3
100
AcDbLine
 10
862.9656470343095
 20
286.3106225915551
 30
0.0
 11
862.9656470343095
 21
284.9221556708042
 31
0.0
  0
LINE
  5
9C7
330
1F
100
AcDbEntity
  8
0
 62
     3
100
AcDbLine
 10
863.6084754355534
 20
286.3106225915551
 30
0.0
 11
863.6084754355534
 21
282.7346417993128
 31
0.0
  0
LINE
  5
9C8
330
1F
100
AcDbEntity
  8
0
 62
     3
100
AcDbLine
 10
864.6324215931336
 20
286.2889634872105
 30
0.0
 11
864.6324215931336
 21
283.1356531033026
 31
0.0
  0
LINE
  5
9C9
330
1F
100
AcDbEntity
  8
0
 62
     3
100
AcDbLine
 10
865.6509432474086
 20
286.2889493362471
 30
0.0
 11
865.6509432474086
 21
283.1356389523392
 31
0.0
  0
LINE
  5
9CA
330
1F
100
AcDbEntity
  8
0
 62
     3
100
AcDbLine
 10
869.4217663178356
 20
286.2889021663691
 30
0.0
 11
869.4217110616928
 21
283.1355924563167
 31
0.0
  0
LINE
  5
9CB
330
1F
100
AcDbEntity
  8
0
 62
     3
100
AcDbLine
 10
872.5376305572074
 20
286.2889021663691
 30
0.0
 11
872.53768581335
 21
283.1355924563167
 31
0.0
  0
LINE
  5
9CC
330
1F
100
AcDbEntity
  8
0
 62
     3
100
AcDbLine
 10
871.4972059070351
 20
284.9150720587453
 30
0.0
 11
870.4621909680079
 21
284.9150720587453
 31
0.0
  0
LINE
  5
9CD
330
1F
100
AcDbEntity
  8
0
 62
     3
100
AcDbLine
 10
871.4971991684811
 20
284.509516229841
 30
0.0
 11
870.4621983804172
 21
284.509516229841
 31
0.0
  0
LINE
  5
9CE
330
1F
100
AcDbEntity
  8
0
 62
     3
100
AcDbLine
 10
871.4972301658295
 20
286.2889021663691
 30
0.0
 11
871.4972059070351
 21
284.9150720587453
 31
0.0
  0
LINE
  5
9CF
330
1F
100
AcDbEntity
  8
0
 62
     3
100
AcDbLine
 10
871.4971991684811
 20
284.509516229841
 30
0.0
 11
871.4971749096865
 21
283.1355924563167
 31
0.0
  0
LINE
  5
9D0
330
1F
100
AcDbEntity
  8
0
 62
     3
100
AcDbLine
 10
870.4621667092135
 20
286.2889021663691
 30
0.0
 11
870.4621909680079
 21
284.9150720587453
 31
0.0
  0
LINE
  5
9D1
330
1F
100
AcDbEntity
  8
0
 62
     3
100
AcDbLine
 10
870.4621983804172
 20
284.509516229841
 30
0.0
 11
870.4622219653561
 21
283.1355924563167
 31
0.0
  0
LINE
  5
9D2
330
1F
100
AcDbEntity
  8
0
 62
     3
100
AcDbLine
 10
873.5640516949461
 20
286.2889021663691
 30
0.0
 11
873.5639964388035
 21
283.1355924563167
 31
0.0
  0
LINE
  5
9D3
330
1F
100
AcDbEntity
  8
0
 62
     3
100
AcDbLine
 10
874.5825517858486
 20
286.2889021663691
 30
0.0
 11
874.5826063681359
 21
283.1355924563167
 31
0.0
  0
LINE
  5
9D4
330
1F
100
AcDbEntity
  8
0
 62
     3
100
AcDbLine
 10
875.6207973831727
 20
286.2889021663691
 30
0.0
 11
875.6207428008854
 21
283.1355924563167
 31
0.0
  0
ARC
  5
9D5
330
1F
100
AcDbEntity
  8
0
 62
     3
100
AcDbCircle
 10
867.8927252017106
 20
284.7213332406186
 30
0.0
 40
2.008364022758428
100
AcDbArc
 50
97.70152400000134
 51
266.0248408089547
  0
ARC
  5
9D6
330
1F
100
AcDbEntity
  8
0
 62
     3
100
AcDbCircle
 10
880.0125259071201
 20
284.701159357676
 30
0.0
 40
2.030175374321249
100
AcDbArc
 50
0.3142499999973741
 51
69.00558199999712
  0
ARC
  5
9D7
330
1F
100
AcDbEntity
  8
0
 62
     3
100
AcDbCircle
 10
880.4559948623523
 20
284.701159357676
 30
0.0
 40
2.030175374321249
100
AcDbArc
 50
110.9944180000029
 51
148.1166109999998
  0
ARC
  5
9D8
330
1F
100
AcDbEntity
  8
0
 62
     3
100
AcDbCircle
 10
880.0125259071201
 20
284.7234289309104
 30
0.0
 40
2.030175374321249
100
AcDbArc
 50
290.9944180000028
 51
359.6857499999989
  0
ARC
  5
9D9
330
1F
100
AcDbEntity
  8
0
 62
     3
100
AcDbCircle
 10
880.4559948623523
 20
284.7234289309104
 30
0.0
 40
2.030175374321249
100
AcDbArc
 50
211.883388999998
 51
249.0055819999971
  0
ARC
  5
9DA
330
1F
100
AcDbEntity
  8
0
 62
     3
100
AcDbCircle
 10
880.234260721664
 20
285.5428741584415
 30
0.0
 40
1.168726044333502
100
AcDbArc
 50
64.3651719999999
 51
115.6348280000001
  0
ARC
  5
9DB
330
1F
100
AcDbEntity
  8
0
 62
     3
100
AcDbCircle
 10
880.234260721664
 20
283.8817141301449
 30
0.0
 40
1.168726044333502
100
AcDbArc
 50
244.3651719999999
 51
295.634828
  0
ARC
  5
9DC
330
1F
100
AcDbEntity
  8
0
 62
     3
100
AcDbCircle
 10
880.234260721664
 20
285.565074998425
 30
0.0
 40
0.57360054065768
100
AcDbArc
 50
19.48660599999899
 51
160.513394000001
  0
ARC
  5
9DD
330
1F
100
AcDbEntity
  8
0
 62
     3
100
AcDbCircle
 10
880.234260721664
 20
283.8595139640167
 30
0.0
 40
0.57360054065768
100
AcDbArc
 50
199.486605999999
 51
340.513394000001
  0
LINE
  5
9DE
330
1F
100
AcDbEntity
  8
0
 62
     3
100
AcDbLine
 10
874.9197549025134
 20
282.7129880858114
 30
0.0
 11
873.2268485782813
 21
282.7129880858114
 31
0.0
  0
LINE
  5
9DF
330
1F
100
AcDbEntity
  8
0
 62
     3
100
AcDbLine
 10
874.9197549025134
 20
282.9166474031258
 30
0.0
 11
874.9197549025134
 21
282.7129880858114
 31
0.0
  0
LINE
  5
9E0
330
1F
100
AcDbEntity
  8
0
 62
     3
100
AcDbLine
 10
872.8748343477278
 20
286.7115051891636
 30
0.0
 11
871.1600270491645
 21
286.7115051891636
 31
0.0
  0
LINE
  5
9E1
330
1F
100
AcDbEntity
  8
0
 62
     3
100
AcDbLine
 10
872.8748343477278
 20
286.7115051891636
 30
0.0
 11
872.8748343477278
 21
286.5079408854606
 31
0.0
  0
LINE
  5
9E2
330
1F
100
AcDbEntity
  8
0
 62
     3
100
AcDbLine
 10
872.8748343477278
 20
282.9166474031258
 30
0.0
 11
872.8748343477278
 21
282.7128930722001
 31
0.0
  0
LINE
  5
9E3
330
1F
100
AcDbEntity
  8
0
 62
     3
100
AcDbLine
 10
872.8748343477278
 20
282.7128930722001
 30
0.0
 11
871.1600270491645
 21
282.7128930722001
 31
0.0
  0
LINE
  5
9E4
330
1F
100
AcDbEntity
  8
0
 62
     3
100
AcDbLine
 10
874.9197549025134
 20
286.7116002027749
 30
0.0
 11
874.9197549025134
 21
286.5079408854606
 31
0.0
  0
LINE
  5
9E5
330
1F
100
AcDbEntity
  8
0
 62
     3
100
AcDbLine
 10
874.9197549025134
 20
286.7116002027749
 30
0.0
 11
873.2268485782813
 21
286.7116002027749
 31
0.0
  0
LINE
  5
9E6
330
1F
100
AcDbEntity
  8
0
 62
     3
100
AcDbLine
 10
873.2268485782813
 20
286.7116002027749
 30
0.0
 11
873.2268485782813
 21
286.5079408854606
 31
0.0
  0
LINE
  5
9E7
330
1F
100
AcDbEntity
  8
0
 62
     3
100
AcDbLine
 10
875.2835942665079
 20
282.9166474031258
 30
0.0
 11
875.2835942665079
 21
282.7129880858114
 31
0.0
  0
LINE
  5
9E8
330
1F
100
AcDbEntity
  8
0
 62
     3
100
AcDbLine
 10
877.1115124267837
 20
282.7129880858114
 30
0.0
 11
875.2835942665079
 21
282.7129880858114
 31
0.0
  0
LINE
  5
9E9
330
1F
100
AcDbEntity
  8
0
 62
     3
100
AcDbLine
 10
876.6392974740752
 20
286.068771801531
 30
0.0
 11
876.6392974740752
 21
283.3558164870553
 31
0.0
  0
LINE
  5
9EA
330
1F
100
AcDbEntity
  8
0
 62
     3
100
AcDbLine
 10
876.6392974740752
 20
283.3558164870553
 30
0.0
 11
876.8222478672599
 21
283.3558164870553
 31
0.0
  0
ARC
  5
9EB
330
1F
100
AcDbEntity
  8
0
 62
     3
100
AcDbCircle
 10
875.8867580014246
 20
284.7122941442932
 30
0.0
 40
1.64777793392286
100
AcDbArc
 50
304.5919550000006
 51
55.40804499999938
  0
LINE
  5
9EC
330
1F
100
AcDbEntity
  8
0
 62
     3
100
AcDbLine
 10
877.1115124267837
 20
286.7116002027749
 30
0.0
 11
875.2835942665079
 21
286.7116002027749
 31
0.0
  0
LINE
  5
9ED
330
1F
100
AcDbEntity
  8
0
 62
     3
100
AcDbLine
 10
875.2835942665079
 20
286.7116002027749
 30
0.0
 11
875.2835942665079
 21
286.5079408854606
 31
0.0
  0
LINE
  5
9EE
330
1F
100
AcDbEntity
  8
0
 62
     3
100
AcDbLine
 10
873.2268485782813
 20
282.9166474031258
 30
0.0
 11
873.2268485782813
 21
282.7129880858114
 31
0.0
  0
LINE
  5
9EF
330
1F
100
AcDbEntity
  8
0
 62
     3
100
AcDbLine
 10
876.6392974740752
 20
286.068771801531
 30
0.0
 11
876.8222478672599
 21
286.068771801531
 31
0.0
  0
LINE
  5
9F0
330
1F
100
AcDbEntity
  8
0
 62
     3
100
AcDbLine
 10
865.988087738511
 20
282.9166410287097
 30
0.0
 11
865.9880836953787
 21
282.7129628434441
 31
0.0
  0
LINE
  5
9F1
330
1F
100
AcDbEntity
  8
0
 62
     3
100
AcDbLine
 10
860.1815179546711
 20
282.7346417993128
 30
0.0
 11
861.4987532631003
 21
282.7346417993128
 31
0.0
  0
ARC
  5
9F2
330
1F
100
AcDbEntity
  8
0
 62
     3
100
AcDbCircle
 10
854.8909292088977
 20
284.7593743994723
 30
0.0
 40
14.16402202796531
100
AcDbArc
 50
353.8660059999988
 51
357.694034000001
  0
LINE
  5
9F3
330
1F
100
AcDbEntity
  8
0
 62
     3
100
AcDbLine
 10
868.0952032505102
 20
284.1929820900203
 30
0.0
 11
869.0434822179677
 21
284.1894733249566
 31
0.0
  0
LWPOLYLINE
  5
9F4
330
1F
100
AcDbEntity
  8
0
 62
     3
100
AcDbPolyline
 90
       64
 70
     0
 43
0.0
 10
868.0990327707441
 20
285.2280381342269
 10
868.0811008047147
 20
285.3428509648614
 10
868.0595650600101
 20
285.4527904732485
 10
868.0345926527696
 20
285.5570062538744
 10
868.006374957926
 20
285.6546923756816
 10
867.97513165234
 20
285.7450947944784
 10
867.9411033023889
 20
285.8275140483603
 10
867.9045527116782
 20
285.9013126701196
 10
867.8657635733314
 20
285.965921251944
 10
867.8250350791454
 20
286.0208404669826
 10
867.782681919592
 20
286.0656444386232
 10
867.7390315883952
 20
286.0999881529011
 10
867.6944210132542
 20
286.1236054369339
 10
867.649195881989
 20
286.1363143497637
 10
867.6037052516967
 20
286.1380165085022
 10
867.5583008748954
 20
286.128697762186
 10
867.513333156393
 20
286.1084315610537
 10
867.4691504794305
 20
286.0773742395578
 10
867.4260944886955
 20
286.0357650163651
 10
867.3844967210446
 20
285.9839259943565
 10
867.3446799532139
 20
285.9222581174944
 10
867.3069514632657
 20
285.8512378015462
 10
867.2716030305874
 20
285.7714135648068
 10
867.2389075666158
 20
285.6834033326774
 10
867.2091177671259
 20
285.5878870252557
 10
867.1824647645194
 20
285.4856031880595
 10
867.1591534108379
 20
285.3773415796165
 10
867.1393642993282
 20
285.2639391283326
 10
867.1232510690215
 20
285.1462731939378
 10
867.1109370354557
 20
285.0252528073654
 10
867.1025185599528
 20
284.9018132799097
 10
867.0980603326313
 20
284.7769094646716
 10
867.0975960462613
 20
284.6515056487271
 10
867.1011304178305
 20
284.526571509996
 10
867.1086351454119
 20
284.4030733571205
 10
867.1200529512967
 20
284.281964695491
 10
867.1352955604277
 20
284.1641828579674
 10
867.1542443742544
 20
284.0506375493389
 10
867.1767538400109
 20
283.9422068031907
 10
867.2026494291486
 20
283.8397275479286
 10
867.2317316804692
 20
283.743993585213
 10
867.2637748524141
 20
283.6557434605614
 10
867.298531640052
 20
283.5756604633488
 10
867.3357338489336
 20
283.5043631928315
 10
867.3750930689482
 20
283.4424021888707
 10
867.4163053913107
 20
283.3902565626554
 10
867.4590527562727
 20
283.3483299535696
 10
867.5030043008333
 20
283.3169464860605
 10
867.5478204018709
 20
283.2963480742164
 10
867.5931546977106
 20
283.2866937479114
 10
867.6386567835448
 20
283.2880589789502
 10
867.6839749068549
 20
283.3004323117912
 10
867.7287586628336
 20
283.3237194066784
 10
867.7726623636606
 20
283.3577389965093
 10
867.8153457123597
 20
283.4022289515339
 10
867.8564798674959
 20
283.4568442577873
 10
867.8957460954655
 20
283.5211644295009
 10
867.9328411613385
 20
283.594690813679
 10
867.9674786765706
 20
283.6768560240753
 10
867.9993904467128
 20
283.7670246150485
 10
868.0283298406889
 20
283.8644998201158
 10
868.0540731385063
 20
283.9685275950853
 10
868.0764222266778
 20
284.0783047043212
 10
868.0952032505102
 20
284.1929820900203
  0
LINE
  5
9F5
330
1F
100
AcDbEntity
  8
0
 62
     3
100
AcDbLine
 10
868.0990327707441
 20
285.2280381342269
 30
0.0
 11
869.0473117382016
 21
285.224529369163
 31
0.0
  0
ARC
  5
9F6
330
1F
100
AcDbEntity
  8
0
 62
     3
100
AcDbCircle
 10
854.8909292088977
 20
284.7593743994723
 30
0.0
 40
14.16402202796531
100
AcDbArc
 50
1.881965999999268
 51
5.70999399999911
  0
LINE
  5
9F7
330
1F
100
AcDbEntity
  8
0
 62
     3
100
AcDbLine
 10
865.9881537764943
 20
286.7115826959969
 30
0.0
 11
865.9881504072173
 21
286.5079422466337
 31
0.0
  0
LINE
  5
9F8
330
1F
100
AcDbEntity
  8
0
 62
     3
100
AcDbLine
 10
864.2951814144103
 20
282.9166460419526
 30
0.0
 11
864.2951780451333
 21
282.7130055925895
 31
0.0
  0
LINE
  5
9F9
330
1F
100
AcDbEntity
  8
0
 62
     3
100
AcDbLine
 10
864.2952474522394
 20
286.711618383665
 30
0.0
 11
864.2952440829624
 21
286.5079395245441
 31
0.0
  0
LINE
  5
9FA
330
1F
100
AcDbEntity
  8
0
 62
     3
100
AcDbLine
 10
861.4987532631003
 20
282.9383011166271
 30
0.0
 11
861.4987532631003
 21
282.7346417993128
 31
0.0
  0
LINE
  5
9FB
330
1F
100
AcDbEntity
  8
0
 62
     3
100
AcDbLine
 10
861.1615501464355
 20
285.0795507718278
 30
0.0
 11
862.6271182542575
 21
282.7346417993128
 31
0.0
  0
LINE
  5
9FC
330
1F
100
AcDbEntity
  8
0
 62
     3
100
AcDbLine
 10
862.6271182542575
 20
282.7346417993128
 30
0.0
 11
863.6084754355534
 21
282.7346417993128
 31
0.0
  0
LINE
  5
9FD
330
1F
100
AcDbEntity
  8
0
 62
     3
100
AcDbLine
 10
863.9456785522182
 20
286.7332539162763
 30
0.0
 11
863.9456785522182
 21
286.5295945989619
 31
0.0
  0
LINE
  5
9FE
330
1F
100
AcDbEntity
  8
0
 62
     3
100
AcDbLine
 10
862.6284439176445
 20
286.7332539162763
 30
0.0
 11
863.9456785522182
 21
286.7332539162763
 31
0.0
  0
LINE
  5
9FF
330
1F
100
AcDbEntity
  8
0
 62
     3
100
AcDbLine
 10
862.6284439176445
 20
286.7332539162763
 30
0.0
 11
862.6284439176445
 21
286.5295945989619
 31
0.0
  0
LINE
  5
A00
330
1F
100
AcDbEntity
  8
0
 62
     3
100
AcDbLine
 10
862.9656470343095
 20
284.9221556708042
 30
0.0
 11
861.7771136843705
 21
286.7332539162763
 31
0.0
  0
LINE
  5
A01
330
1F
100
AcDbEntity
  8
0
 62
     3
100
AcDbLine
 10
860.1815179546711
 20
286.7332539162763
 30
0.0
 11
861.7771136843705
 21
286.7332539162763
 31
0.0
  0
LINE
  5
A02
330
1F
100
AcDbEntity
  8
0
 62
     3
100
AcDbLine
 10
869.0845632011706
 20
286.7115051891636
 30
0.0
 11
870.7993698258783
 21
286.7115051891636
 31
0.0
  0
LINE
  5
A03
330
1F
100
AcDbEntity
  8
0
 62
     3
100
AcDbLine
 10
869.0845632011706
 20
286.5079408854606
 30
0.0
 11
869.0845632011706
 21
286.7115051891636
 31
0.0
  0
LINE
  5
A04
330
1F
100
AcDbEntity
  8
0
 62
     3
100
AcDbLine
 10
869.0845632011706
 20
282.7128930722001
 30
0.0
 11
869.0845632011706
 21
282.9166474031258
 31
0.0
  0
LINE
  5
A05
330
1F
100
AcDbEntity
  8
0
 62
     3
100
AcDbLine
 10
869.0845632011706
 20
282.7128930722001
 30
0.0
 11
870.7993698258783
 21
282.7128930722001
 31
0.0
  0
LINE
  5
A06
330
1F
100
AcDbEntity
  8
0
 62
     3
100
AcDbLine
 10
871.1600270491645
 20
282.9166474031258
 30
0.0
 11
871.1600270491645
 21
282.7128930722001
 31
0.0
  0
LINE
  5
A07
330
1F
100
AcDbEntity
  8
0
 62
     3
100
AcDbLine
 10
870.7993698258783
 20
282.9166474031258
 30
0.0
 11
870.7993698258783
 21
282.7128930722001
 31
0.0
  0
LINE
  5
A08
330
1F
100
AcDbEntity
  8
0
 62
     3
100
AcDbLine
 10
870.7993698258783
 20
286.5079408854606
 30
0.0
 11
870.7993698258783
 21
286.7115051891636
 31
0.0
  0
LINE
  5
A09
330
1F
100
AcDbEntity
  8
0
 62
     3
100
AcDbLine
 10
871.1600270491645
 20
286.5079408854606
 30
0.0
 11
871.1600270491645
 21
286.7115051891636
 31
0.0
  0
LINE
  5
A0A
330
1F
100
AcDbEntity
  8
0
 62
     3
100
AcDbLine
 10
860.1815179546711
 20
282.9383011166271
 30
0.0
 11
860.1815179546711
 21
282.7346417993128
 31
0.0
  0
LINE
  5
A0B
330
1F
100
AcDbEntity
  8
0
 62
     3
100
AcDbLine
 10
860.1815179546711
 20
286.7332539162763
 30
0.0
 11
860.1815179546711
 21
286.5295945989619
 31
0.0
  0
ARC
  5
A0C
330
1F
100
AcDbEntity
  8
0
 62
     3
100
AcDbCircle
 10
877.2831116745178
 20
285.1317671087581
 30
0.0
 40
1.579833094016802
100
AcDbArc
 50
17.3087490000024
 51
23.76507099999866
  0
ARC
  5
A0D
330
1F
100
AcDbEntity
  8
0
 62
     3
100
AcDbCircle
 10
875.9370632772941
 20
284.7122941442932
 30
0.0
 40
2.989728616463746
100
AcDbArc
 50
342.6912509999975
 51
17.30856599999803
  0
ARC
  5
A0E
330
1F
100
AcDbEntity
  8
0
 62
     3
100
AcDbCircle
 10
877.2831116745178
 20
284.2928211798283
 30
0.0
 40
1.579833094016802
100
AcDbArc
 50
336.2349290000013
 51
342.6912509999975
  0
ARC
  5
A0F
330
1F
100
AcDbEntity
  8
0
 62
     3
100
AcDbCircle
 10
877.1115124267837
 20
285.1317671087581
 30
0.0
 40
1.579833094016802
100
AcDbArc
 50
17.3087490000024
 51
90.0
  0
ARC
  5
A10
330
1F
100
AcDbEntity
  8
0
 62
     3
100
AcDbCircle
 10
875.765460646893
 20
284.7123031769152
 30
0.0
 40
2.989728616463746
100
AcDbArc
 50
342.6912509999975
 51
17.30856599999803
  0
ARC
  5
A11
330
1F
100
AcDbEntity
  8
0
 62
     3
100
AcDbCircle
 10
877.1115124267837
 20
284.2928211798283
 30
0.0
 40
1.579833094016802
100
AcDbArc
 50
270.0
 51
342.6912509999975
  0
ARC
  5
A12
330
1F
100
AcDbEntity
  8
0
 62
     3
100
AcDbCircle
 10
867.614855536988
 20
284.7122941442932
 30
0.0
 40
1.999306058481752
100
AcDbArc
 50
46.75288000000221
 51
89.74999800000033
  0
ARC
  5
A13
330
1F
100
AcDbEntity
  8
0
 62
     3
100
AcDbCircle
 10
867.614855536988
 20
284.7122941442932
 30
0.0
 40
1.999306058481752
100
AcDbArc
 50
273.9763330000034
 51
312.8231199999951
  0
ARC
  5
A14
330
1F
100
AcDbEntity
  8
0
 62
     3
100
AcDbCircle
 10
878.349601051533
 20
284.6814302192969
 30
0.0
 40
2.652957925148359
100
AcDbArc
 50
0.6665839999993844
 51
23.90392800000343
  0
ARC
  5
A15
330
1F
100
AcDbEntity
  8
0
 62
     3
100
AcDbCircle
 10
882.1189197179394
 20
284.6814302192969
 30
0.0
 40
2.652957925148359
100
AcDbArc
 50
156.0960719999966
 51
179.3334160000006
  0
ARC
  5
A16
330
1F
100
AcDbEntity
  8
0
 62
     3
100
AcDbCircle
 10
878.349601051533
 20
284.7431580692894
 30
0.0
 40
2.652957925148359
100
AcDbArc
 50
336.0960719999966
 51
359.333415999998
  0
ARC
  5
A17
330
1F
100
AcDbEntity
  8
0
 62
     3
100
AcDbCircle
 10
882.1189197179394
 20
284.7431580692894
 30
0.0
 40
2.652957925148359
100
AcDbArc
 50
180.6665839999994
 51
203.9039280000034
  0
LINE
  5
A18
330
1F
100
AcDbEntity
  8
0
  6
Continuous
 62
     3
100
AcDbLine
 10
860.1815179546711
 20
286.5295945989619
 30
0.0
 11
860.5187210713361
 21
286.3106225915551
 31
0.0
  0
LINE
  5
A19
330
1F
100
AcDbEntity
  8
0
  6
Continuous
 62
     3
100
AcDbLine
 10
862.6284439176445
 20
286.5295945989619
 30
0.0
 11
862.9656470343095
 21
286.3106225915551
 31
0.0
  0
LINE
  5
A1A
330
1F
100
AcDbEntity
  8
0
  6
Continuous
 62
     3
100
AcDbLine
 10
863.9456785522182
 20
286.5295945989619
 30
0.0
 11
863.6084754355534
 21
286.3106225915551
 31
0.0
  0
LINE
  5
A1B
330
1F
100
AcDbEntity
  8
0
  6
Continuous
 62
     3
100
AcDbLine
 10
864.2952440829624
 20
286.5079395245441
 30
0.0
 11
864.6324215931336
 21
286.2889634872105
 31
0.0
  0
LINE
  5
A1C
330
1F
100
AcDbEntity
  8
0
  6
Continuous
 62
     3
100
AcDbLine
 10
865.9881504072173
 20
286.5079422466337
 30
0.0
 11
865.6509432474086
 21
286.2889493362471
 31
0.0
  0
LINE
  5
A1D
330
1F
100
AcDbEntity
  8
0
  6
Continuous
 62
     3
100
AcDbLine
 10
869.0845632011706
 20
286.5079408854606
 30
0.0
 11
869.4217663178356
 21
286.2889021663691
 31
0.0
  0
LINE
  5
A1E
330
1F
100
AcDbEntity
  8
0
  6
Continuous
 62
     3
100
AcDbLine
 10
870.7993698258783
 20
286.5079408854606
 30
0.0
 11
870.4621667092135
 21
286.2889021663691
 31
0.0
  0
LINE
  5
A1F
330
1F
100
AcDbEntity
  8
0
  6
Continuous
 62
     3
100
AcDbLine
 10
871.1600270491645
 20
286.5079408854606
 30
0.0
 11
871.4972301658295
 21
286.2889021663691
 31
0.0
  0
LINE
  5
A20
330
1F
100
AcDbEntity
  8
0
  6
Continuous
 62
     3
100
AcDbLine
 10
872.8748343477278
 20
286.5079408854606
 30
0.0
 11
872.5376305572074
 21
286.2889021663691
 31
0.0
  0
LINE
  5
A21
330
1F
100
AcDbEntity
  8
0
  6
Continuous
 62
     3
100
AcDbLine
 10
873.2268485782813
 20
286.5079408854606
 30
0.0
 11
873.5640516949461
 21
286.2889021663691
 31
0.0
  0
LINE
  5
A22
330
1F
100
AcDbEntity
  8
0
  6
Continuous
 62
     3
100
AcDbLine
 10
874.9197549025134
 20
286.5079408854606
 30
0.0
 11
874.5825517858486
 21
286.2889021663691
 31
0.0
  0
LINE
  5
A23
330
1F
100
AcDbEntity
  8
0
  6
Continuous
 62
     3
100
AcDbLine
 10
875.2835942665079
 20
286.5079408854606
 30
0.0
 11
875.6207973831727
 21
286.2889021663691
 31
0.0
  0
LINE
  5
A24
330
1F
100
AcDbEntity
  8
0
  6
Continuous
 62
     3
100
AcDbLine
 10
875.6207428008854
 20
283.1355924563167
 30
0.0
 11
875.2835942665079
 21
282.9166474031258
 31
0.0
  0
LINE
  5
A25
330
1F
100
AcDbEntity
  8
0
  6
Continuous
 62
     3
100
AcDbLine
 10
874.5826063681359
 20
283.1355924563167
 30
0.0
 11
874.9197549025134
 21
282.9166474031258
 31
0.0
  0
LINE
  5
A26
330
1F
100
AcDbEntity
  8
0
  6
Continuous
 62
     3
100
AcDbLine
 10
873.5639964388035
 20
283.1355924563167
 30
0.0
 11
873.2268485782813
 21
282.9166474031258
 31
0.0
  0
LINE
  5
A27
330
1F
100
AcDbEntity
  8
0
  6
Continuous
 62
     3
100
AcDbLine
 10
872.8748343477278
 20
282.9166474031258
 30
0.0
 11
872.53768581335
 21
283.1355924563167
 31
0.0
  0
LINE
  5
A28
330
1F
100
AcDbEntity
  8
0
  6
Continuous
 62
     3
100
AcDbLine
 10
871.1600270491645
 20
282.9166474031258
 30
0.0
 11
871.4971749096865
 21
283.1355924563167
 31
0.0
  0
LINE
  5
A29
330
1F
100
AcDbEntity
  8
0
  6
Continuous
 62
     3
100
AcDbLine
 10
870.7993698258783
 20
282.9166474031258
 30
0.0
 11
870.4622219653561
 21
283.1355924563167
 31
0.0
  0
LINE
  5
A2A
330
1F
100
AcDbEntity
  8
0
  6
Continuous
 62
     3
100
AcDbLine
 10
869.4217110616928
 20
283.1355924563167
 30
0.0
 11
869.0845632011706
 21
282.9166474031258
 31
0.0
  0
LINE
  5
A2B
330
1F
100
AcDbEntity
  8
0
  6
Continuous
 62
     3
100
AcDbLine
 10
865.98808773867
 20
282.9166490362309
 30
0.0
 11
865.6509432474086
 21
283.1356389523392
 31
0.0
  0
LINE
  5
A2C
330
1F
100
AcDbEntity
  8
0
  6
Continuous
 62
     3
100
AcDbLine
 10
864.2951814144103
 20
282.9166460419526
 30
0.0
 11
864.6323555553042
 21
283.1356531033026
 31
0.0
  0
LINE
  5
A2D
330
1F
100
AcDbEntity
  8
0
  6
Continuous
 62
     3
100
AcDbLine
 10
861.4987532631003
 20
282.9383011166271
 30
0.0
 11
861.1615501464355
 21
283.1572737978894
 31
0.0
  0
LINE
  5
A2E
330
1F
100
AcDbEntity
  8
0
  6
Continuous
 62
     3
100
AcDbLine
 10
860.1815179546711
 20
282.9383011166271
 30
0.0
 11
860.5187210713361
 21
283.1572737978894
 31
0.0
  0
LINE
  5
A2F
330
1F
100
AcDbEntity
  8
0
  6
Continuous
 62
     3
100
AcDbLine
 10
865.9880836955376
 20
282.7129708509654
 30
0.0
 11
864.2951780451333
 21
282.7130055925895
 31
0.0
  0
LINE
  5
A30
330
1F
100
AcDbEntity
  8
0
  6
Continuous
 62
     3
100
AcDbLine
 10
864.2952474522394
 20
286.711618383665
 30
0.0
 11
865.9881537764943
 21
286.7115826959969
 31
0.0
  0
ARC
  5
A31
330
1F
100
AcDbEntity
  8
0
  6
Continuous
 62
     3
100
AcDbCircle
 10
883.5095097493404
 20
284.7001478070787
 30
0.0
 40
0.9989999999999999
100
AcDbArc
 50
293.74854309052
 51
66.25145690947996
  0
ARC
  5
A32
330
1F
100
AcDbEntity
  8
0
  6
Continuous
 62
     3
100
AcDbCircle
 10
883.5095097493404
 20
284.7001478070787
 30
0.0
 40
1.4985
100
AcDbArc
 50
293.74854309052
 51
66.25145690947996
  0
ARC
  5
A33
330
1F
100
AcDbEntity
  8
0
  6
Continuous
 62
     3
100
AcDbCircle
 10
875.8654166033475
 20
267.3264262433093
 30
0.0
 40
19.98
100
AcDbArc
 50
66.25145690947996
 51
81.41597019517938
  0
ARC
  5
A34
330
1F
100
AcDbEntity
  8
0
  6
Continuous
 62
     3
100
AcDbCircle
 10
875.8654166033475
 20
267.3264262433093
 30
0.0
 40
20.4795
100
AcDbArc
 50
66.25145690947996
 51
81.41597019517938
  0
ARC
  5
A35
330
1F
100
AcDbEntity
  8
0
  6
Continuous
 62
     3
100
AcDbCircle
 10
857.4853689424872
 20
284.7001478070787
 30
0.0
 40
0.9989999999999999
100
AcDbArc
 50
113.74854309052
 51
246.25145690948
  0
ARC
  5
A36
330
1F
100
AcDbEntity
  8
0
  6
Continuous
 62
     3
100
AcDbCircle
 10
857.4853689424872
 20
284.7001478070787
 30
0.0
 40
1.4985
100
AcDbArc
 50
113.74854309052
 51
246.25145690948
  0
ARC
  5
A37
330
1F
100
AcDbEntity
  8
0
  6
Continuous
 62
     3
100
AcDbCircle
 10
865.1294620884798
 20
267.3264262433093
 30
0.0
 40
19.98
100
AcDbArc
 50
98.58402980482063
 51
113.74854309052
  0
ARC
  5
A38
330
1F
100
AcDbEntity
  8
0
  6
Continuous
 62
     3
100
AcDbCircle
 10
865.1294620884798
 20
267.3264262433093
 30
0.0
 40
20.4795
100
AcDbArc
 50
98.58402980482063
 51
113.74854309052
  0
ARC
  5
A39
330
1F
100
AcDbEntity
  8
0
  6
Continuous
 62
     3
100
AcDbCircle
 10
875.8654166033475
 20
302.073869370848
 30
0.0
 40
19.98
100
AcDbArc
 50
278.5840298048207
 51
293.74854309052
  0
ARC
  5
A3A
330
1F
100
AcDbEntity
  8
0
  6
Continuous
 62
     3
100
AcDbCircle
 10
875.8654166033475
 20
302.073869370848
 30
0.0
 40
20.4795
100
AcDbArc
 50
278.5840298048207
 51
293.74854309052
  0
ARC
  5
A3B
330
1F
100
AcDbEntity
  8
0
  6
Continuous
 62
     3
100
AcDbCircle
 10
865.1294620884798
 20
302.073869370848
 30
0.0
 40
19.98
100
AcDbArc
 50
246.25145690948
 51
261.4159701951793
  0
ARC
  5
A3C
330
1F
100
AcDbEntity
  8
0
  6
Continuous
 62
     3
100
AcDbCircle
 10
865.1294620884798
 20
302.073869370848
 30
0.0
 40
20.4795
100
AcDbArc
 50
246.25145690948
 51
261.4159701951793
  0
ARC
  5
A3D
330
1F
100
AcDbEntity
  8
0
  6
Continuous
 62
     3
100
AcDbCircle
 10
870.4974393459138
 20
231.7652941442942
 30
0.0
 40
56.44349999999904
100
AcDbArc
 50
81.41597019517938
 51
98.58402980482063
  0
ARC
  5
A3E
330
1F
100
AcDbEntity
  8
0
  6
Continuous
 62
     3
100
AcDbCircle
 10
870.4974393459138
 20
231.765294144295
 30
0.0
 40
55.94399999999823
100
AcDbArc
 50
81.41597019517938
 51
98.58402980482063
  0
ARC
  5
A3F
330
1F
100
AcDbEntity
  8
0
  6
Continuous
 62
     3
100
AcDbCircle
 10
870.4974393459138
 20
337.6350014698631
 30
0.0
 40
56.44349999999904
100
AcDbArc
 50
261.4159701951793
 51
278.5840298048207
  0
ARC
  5
A40
330
1F
100
AcDbEntity
  8
0
  6
Continuous
 62
     3
100
AcDbCircle
 10
870.4974393459138
 20
337.6350014698623
 30
0.0
 40
55.94399999999823
100
AcDbArc
 50
261.4159701951793
 51
278.5840298048207
  0
TEXT
  5
A67
330
1F
100
AcDbEntity
  8
0
 62
     3
100
AcDbText
 10
988.7657871116024
 20
275.3624419978892
 30
0.0
 40
3.2
  1
担　当
  7
高3.2
100
AcDbText
  0
TEXT
  5
A68
330
1F
100
AcDbEntity
  8
0
 62
     3
100
AcDbText
 10
944.7657871116024
 20
275.3624419978892
 30
0.0
 40
3.2
  1
変更・追記内容
  7
高3.2
100
AcDbText
  0
TEXT
  5
A69
330
1F
100
AcDbEntity
  8
0
 62
     3
100
AcDbText
 10
919.8793021119417
 20
270.6919034879809
 30
0.0
 40
2.0
  1
1
  7
高2
100
AcDbText
  0
TEXT
  5
A6A
330
1F
100
AcDbEntity
  8
0
 62
     3
100
AcDbText
 10
919.5707906351844
 20
265.522086775708
 30
0.0
 40
2.0
  1
2
  7
高2
100
AcDbText
  0
TEXT
  5
A6B
330
1F
100
AcDbEntity
  8
0
 62
     3
100
AcDbText
 10
926.7657871116024
 20
275.3624419978892
 30
0.0
 40
3.2
  1
日　付
  7
高3.2
100
AcDbText
  0
TEXT
  5
A6C
330
1F
100
AcDbEntity
  8
0
 62
     3
100
AcDbText
 10
926.7657871116024
 20
280.3624419978892
 30
0.0
 40
3.2
  1
図　　　　面　　　　略　　　　歴
  7
高3.2
100
AcDbText
  0
TEXT
  5
A6D
330
1F
100
AcDbEntity
  8
0
 62
     3
100
AcDbText
 10
916.7657871116024
 20
275.3624419978892
 30
0.0
 40
3.2
  1
記号
  7
高3.2
100
AcDbText
  0
LINE
  5
A6E
330
1F
100
AcDbEntity
  8
0
100
AcDbLine
 10
920.2657871116024
 20
268.6533379978893
 30
0.0
 11
918.3657871116025
 21
265.3624419978892
 31
0.0
  0
LINE
  5
A6F
330
1F
100
AcDbEntity
  8
0
100
AcDbLine
 10
920.2657871116024
 20
268.6533379978893
 30
0.0
 11
922.1657871116024
 21
265.3624419978892
 31
0.0
  0
LINE
  5
A70
330
1F
100
AcDbEntity
  8
0
100
AcDbLine
 10
918.3657871116025
 20
265.3624419978892
 30
0.0
 11
922.1657871116024
 21
265.3624419978892
 31
0.0
  0
LINE
  5
A71
330
1F
100
AcDbEntity
  8
0
100
AcDbLine
 10
920.2657871116024
 20
273.6533389978893
 30
0.0
 11
918.3657871116025
 21
270.3624419978892
 31
0.0
  0
LINE
  5
A72
330
1F
100
AcDbEntity
  8
0
100
AcDbLine
 10
920.2657871116024
 20
273.6533389978893
 30
0.0
 11
922.1657871116024
 21
270.3624419978892
 31
0.0
  0
LINE
  5
A73
330
1F
100
AcDbEntity
  8
0
100
AcDbLine
 10
918.3657871116025
 20
270.3624419978892
 30
0.0
 11
922.1657871116024
 21
270.3624419978892
 31
0.0
  0
LINE
  5
A74
330
1F
100
AcDbEntity
  8
0
 62
     3
100
AcDbLine
 10
915.2657871116024
 20
279.8624419978892
 30
0.0
 11
1001.265787111602
 21
279.8624419978892
 31
0.0
  0
LINE
  5
A75
330
1F
100
AcDbEntity
  8
0
 62
     3
100
AcDbLine
 10
915.2657871116024
 20
274.8624419978892
 30
0.0
 11
1001.265787111602
 21
274.8624419978892
 31
0.0
  0
LINE
  5
A76
330
1F
100
AcDbEntity
  8
0
 62
     7
100
AcDbLine
 10
915.2657871116024
 20
269.8624419978892
 30
0.0
 11
1001.265787111602
 21
269.8624419978892
 31
0.0
  0
LINE
  5
A77
330
1F
100
AcDbEntity
  8
0
 62
     3
100
AcDbLine
 10
915.2657871116024
 20
264.8624419978892
 30
0.0
 11
1001.265787111602
 21
264.8624419978892
 31
0.0
  0
LINE
  5
A78
330
1F
100
AcDbEntity
  8
0
 62
     7
100
AcDbLine
 10
987.2657871116024
 20
264.8624419978892
 30
0.0
 11
987.2657871116024
 21
279.8624419978892
 31
0.0
  0
LINE
  5
A79
330
1F
100
AcDbEntity
  8
0
 62
     7
100
AcDbLine
 10
943.2657871116024
 20
264.8624419978892
 30
0.0
 11
943.2657871116024
 21
279.8624419978892
 31
0.0
  0
LINE
  5
A7A
330
1F
100
AcDbEntity
  8
0
 62
     7
100
AcDbLine
 10
925.2657871116024
 20
264.8624419978892
 30
0.0
 11
925.2657871116024
 21
279.8624419978892
 31
0.0
  0
LINE
  5
A7B
330
1F
100
AcDbEntity
  8
0
 62
     3
100
AcDbLine
 10
915.2657871116024
 20
264.8624419978892
 30
0.0
 11
915.2657871116024
 21
284.8624419978892
 31
0.0
  0
LINE
  5
C3C
330
1F
100
AcDbEntity
  8
0
 62
     3
100
AcDbLine
 10
862.4548140513252
 20
111.3661236254422
 30
0.0
 11
862.4548140513252
 21
112.8661236254422
 31
0.0
  0
LINE
  5
C3D
330
1F
100
AcDbEntity
  8
0
 62
     3
100
AcDbLine
 10
890.9548140513252
 20
111.3661236254422
 30
0.0
 11
890.9548140513252
 21
112.8661236254422
 31
0.0
  0
LINE
  5
C3E
330
1F
100
AcDbEntity
  8
0
 62
     3
100
AcDbLine
 10
890.9548140513252
 20
111.3661236254422
 30
0.0
 11
862.4548140513252
 21
111.3661236254422
 31
0.0
  0
LINE
  5
C3F
330
1F
100
AcDbEntity
  8
0
 62
     3
100
AcDbLine
 10
862.4548140513252
 20
112.8661236254422
 30
0.0
 11
890.9548140513252
 21
112.8661236254422
 31
0.0
  0
LINE
  5
C40
330
1F
100
AcDbEntity
  8
0
 62
     3
100
AcDbLine
 10
860.2048140513252
 20
114.3661236254422
 30
0.0
 11
893.2048140513252
 21
114.3661236254422
 31
0.0
  0
ARC
  5
C41
102
{ACAD_REACTORS
330
CF7
330
CFA
102
}
330
1F
100
AcDbEntity
  8
0
 62
     3
100
AcDbCircle
 10
876.7048140513252
 20
172.3661236254422
 30
0.0
 40
30.0
100
AcDbArc
 50
334.1580672368327
 51
205.8419327631671
  0
ARC
  5
C42
330
1F
100
AcDbEntity
  8
0
 62
     3
100
AcDbCircle
 10
1015.591753026802
 20
109.4491593811665
 30
0.0
 40
122.4856700564049
100
AcDbArc
 50
155.9893197805337
 51
177.6993470463022
  0
ARC
  5
C43
330
1F
100
AcDbEntity
  8
0
 62
     3
100
AcDbCircle
 10
737.8178750758486
 20
109.4491593811672
 30
0.0
 40
122.485670056405
100
AcDbArc
 50
2.300652953697483
 51
24.0106802194659
  0
LINE
  5
C44
330
1F
100
AcDbEntity
  8
0
 62
     3
100
AcDbLine
 10
903.7048140513252
 20
159.2894267948201
 30
0.0
 11
849.7048140513255
 21
159.2894267948201
 31
0.0
  0
LINE
  5
C45
330
1F
100
AcDbEntity
  8
0
 62
     3
100
AcDbLine
 10
890.9548140513252
 20
112.8661236254422
 30
0.0
 11
893.2048140513252
 21
114.3661236254422
 31
0.0
  0
LINE
  5
C46
330
1F
100
AcDbEntity
  8
0
 62
     3
100
AcDbLine
 10
862.4548140513252
 20
112.8661236254422
 30
0.0
 11
860.2048140513252
 21
114.3661236254422
 31
0.0
  0
LINE
  5
C47
330
1F
100
AcDbEntity
  8
0
 62
     3
100
AcDbLine
 10
863.2048140513266
 20
109.7661435590991
 30
0.0
 11
863.2048140513266
 21
109.3661236255013
 31
0.0
  0
LINE
  5
C48
330
1F
100
AcDbEntity
  8
0
 62
     3
100
AcDbLine
 10
888.2048140513266
 20
106.1640352276465
 30
0.0
 11
888.2048140513266
 21
106.7633316412659
 31
0.0
  0
LINE
  5
C49
330
1F
100
AcDbEntity
  8
0
 62
     3
100
AcDbLine
 10
890.5048140513268
 20
110.3661235591036
 30
0.0
 11
890.5048140513268
 21
111.3661236254995
 31
0.0
  0
LINE
  5
C4A
330
1F
100
AcDbEntity
  8
0
 62
     3
100
AcDbLine
 10
862.904814051326
 20
111.3661236254995
 30
0.0
 11
862.904814051326
 21
110.3661235591036
 31
0.0
  0
ARC
  5
C4B
330
1F
100
AcDbEntity
  8
0
 62
     3
100
AcDbCircle
 10
890.9548140513266
 20
109.7661235591005
 30
0.0
 40
0.7499999999999771
100
AcDbArc
 50
126.8698976457411
 51
180.0
  0
ARC
  5
C4C
330
1F
100
AcDbEntity
  8
0
 62
     3
100
AcDbCircle
 10
862.4548140513266
 20
109.7661235591005
 30
0.0
 40
0.7500000000000113
100
AcDbArc
 50
0.0
 51
53.13010235434771
  0
LINE
  5
C4D
330
1F
100
AcDbEntity
  8
0
 62
     3
100
AcDbLine
 10
890.2053120564588
 20
108.0803841352867
 30
0.0
 11
890.2048140513266
 21
109.7661235591005
 31
0.0
  0
LINE
  5
C4E
330
1F
100
AcDbEntity
  8
0
 62
     3
100
AcDbLine
 10
890.2048140513266
 20
104.6076730497491
 30
0.0
 11
890.2048140513266
 21
104.6208191089465
 31
0.0
  0
LINE
  5
C4F
330
1F
100
AcDbEntity
  8
0
 62
     3
100
AcDbLine
 10
890.2048140513266
 20
101.1076730497481
 30
0.0
 11
890.2048140513266
 21
101.1205596547481
 31
0.0
  0
LINE
  5
C50
330
1F
100
AcDbEntity
  8
0
 62
     3
100
AcDbLine
 10
890.2048140513266
 20
97.60767304974723
 30
0.0
 11
890.2048140513266
 21
97.62055965474718
 31
0.0
  0
LINE
  5
C51
330
1F
100
AcDbEntity
  8
0
 62
     3
100
AcDbLine
 10
890.2048140513261
 20
94.10776961784649
 30
0.0
 11
890.2048140513261
 21
94.1205495306487
 31
0.0
  0
LINE
  5
C52
330
1F
100
AcDbEntity
  8
0
 62
     3
100
AcDbLine
 10
863.2048140513266
 20
95.87055965474809
 30
0.0
 11
863.2048140513266
 21
95.85767304974814
 31
0.0
  0
LINE
  5
C53
330
1F
100
AcDbEntity
  8
0
 62
     3
100
AcDbLine
 10
863.2048140513266
 20
99.37055965474627
 30
0.0
 11
863.2048140513266
 21
99.35767304974905
 31
0.0
  0
LINE
  5
C54
330
1F
100
AcDbEntity
  8
0
 62
     3
100
AcDbLine
 10
863.2048140513266
 20
102.8705596547472
 30
0.0
 11
863.2048140513266
 21
102.8576730497472
 31
0.0
  0
LINE
  5
C55
330
1F
100
AcDbEntity
  8
0
 62
     3
100
AcDbLine
 10
863.2048140513266
 20
109.7661235591005
 30
0.0
 11
863.2048161768321
 21
106.3576730499828
 31
0.0
  0
ARC
  5
C56
330
1F
100
AcDbEntity
  8
0
 62
     3
100
AcDbCircle
 10
886.2048140513266
 20
93.36612362544673
 30
0.0
 40
3.999999999999999
100
AcDbArc
 50
270.0
 51
316.5980767938934
  0
ARC
  5
C57
330
1F
100
AcDbEntity
  8
0
 62
     3
100
AcDbCircle
 10
867.2048140513266
 20
93.36612362544673
 30
0.0
 40
3.999999999999999
100
AcDbArc
 50
245.2952061018942
 51
270.0
  0
LINE
  5
C58
330
1F
100
AcDbEntity
  8
0
 62
     3
100
AcDbLine
 10
889.8027207362265
 20
94.80555827655115
 30
0.0
 11
888.2628158483267
 21
95.69753077824606
 31
0.0
  0
LINE
  5
C59
330
1F
100
AcDbEntity
  8
0
 62
     3
100
AcDbLine
 10
888.9306655270893
 20
91.81170757753279
 30
0.0
 11
888.2630324165266
 21
92.19710475694882
 31
0.0
  0
LINE
  5
C5A
330
1F
100
AcDbEntity
  8
0
 62
     3
100
AcDbLine
 10
865.0988332119264
 20
97.83561126714557
 30
0.0
 11
865.0988332119264
 21
97.42054298804777
 31
0.0
  0
LINE
  5
C5B
330
1F
100
AcDbEntity
  8
0
 62
     3
100
AcDbLine
 10
865.0949239270267
 20
101.3355103479491
 30
0.0
 11
865.0949239270267
 21
100.9184308986489
 31
0.0
  0
LINE
  5
C5C
330
1F
100
AcDbEntity
  8
0
 62
     3
100
AcDbLine
 10
865.0979782687264
 20
104.8352705418449
 30
0.0
 11
865.0979782687264
 21
104.4201963771449
 31
0.0
  0
LINE
  5
C5D
330
1F
100
AcDbEntity
  8
0
 62
     3
100
AcDbLine
 10
888.3139237772266
 20
102.6420693611464
 30
0.0
 11
888.3139237772266
 21
103.0593379610456
 31
0.0
  0
LINE
  5
C5E
330
1F
100
AcDbEntity
  8
0
 62
     3
100
AcDbLine
 10
888.3128425901264
 20
99.14361665294672
 30
0.0
 11
888.3128425901264
 21
99.55877399714808
 31
0.0
  0
LINE
  5
C5F
330
1F
100
AcDbEntity
  8
0
 62
     3
100
AcDbLine
 10
865.0948978291267
 20
90.83302097604627
 30
0.0
 11
865.0948978291267
 21
90.41436138024636
 31
0.0
  0
LINE
  5
C60
330
1F
100
AcDbEntity
  8
0
 62
     3
100
AcDbLine
 10
865.0951134732259
 20
94.33292959434692
 30
0.0
 11
865.0951134732259
 21
93.89438442494719
 31
0.0
  0
LINE
  5
C61
330
1F
100
AcDbEntity
  8
0
 62
     3
100
AcDbLine
 10
888.3142097888262
 20
95.6391969343469
 30
0.0
 11
888.3142097888262
 21
96.07734268714756
 31
0.0
  0
LINE
  5
C62
330
1F
100
AcDbEntity
  8
0
 62
     3
100
AcDbLine
 10
888.3145724063261
 20
92.16735283724773
 30
0.0
 11
888.3145724063261
 21
92.56016366924649
 31
0.0
  0
LINE
  5
C63
330
1F
100
AcDbEntity
  8
0
 62
     3
100
AcDbLine
 10
868.7035600577265
 20
89.36706412074562
 30
0.0
 11
872.7089631757262
 21
86.36301178224602
 31
0.0
  0
LINE
  5
C64
330
1F
100
AcDbEntity
  8
0
 62
     3
100
AcDbLine
 10
880.700664926926
 20
86.36301178224602
 30
0.0
 11
884.7060680449267
 21
89.36706412074562
 31
0.0
  0
LINE
  5
C65
330
1F
100
AcDbEntity
  8
0
 62
     3
100
AcDbLine
 10
889.6914582364261
 20
105.3511661763488
 30
0.0
 11
888.2048140513266
 21
106.2175548680472
 31
0.0
  0
LINE
  5
C66
330
1F
100
AcDbEntity
  8
0
 62
     3
100
AcDbLine
 10
889.8294820391479
 20
105.2698716329461
 30
0.0
 11
889.6914582364261
 21
105.3511661763488
 31
0.0
  0
LINE
  5
C67
330
1F
100
AcDbEntity
  8
0
 62
     3
100
AcDbLine
 10
863.2048140513266
 20
109.3661236255013
 30
0.0
 11
890.2048140513266
 21
109.3661236255013
 31
0.0
  0
LINE
  5
C68
330
1F
100
AcDbEntity
  8
0
 62
     3
100
AcDbLine
 10
862.904814051326
 20
110.3661235591036
 30
0.0
 11
890.5048140513268
 21
110.3661235591036
 31
0.0
  0
SPLINE
  5
C69
330
1F
100
AcDbEntity
  8
0
 62
     3
100
AcDbSpline
210
0.0
220
0.0
230
1.0
 70
     8
 71
     3
 72
    11
 73
     7
 74
     0
 42
0.000000001
 43
0.00000001
 40
0.0
 40
0.0
 40
0.0
 40
0.0
 40
0.2456628213197084
 40
0.4999999170583962
 40
0.754337056411995
 40
1.0
 40
1.0
 40
1.0
 40
1.0
 10
890.2048120712475
 20
97.6205596547581
 30
0.0
 10
890.2000202537697
 20
97.68487422508514
 30
0.0
 10
890.1902674212952
 20
97.81577429232328
 30
0.0
 10
890.1110348652528
 20
97.99927884863172
 30
0.0
 10
889.9915028918431
 20
98.1595258503632
 30
0.0
 10
889.8828728415087
 20
98.23336194961502
 30
0.0
 10
889.8295000945077
 20
98.26963953056674
 30
0.0
  0
LINE
  5
C6A
330
1F
100
AcDbEntity
  8
0
 62
     3
100
AcDbLine
 10
888.2048140513266
 20
106.6015349504461
 30
0.0
 11
888.2950506921156
 21
106.5536236254786
 31
0.0
  0
LINE
  5
C6B
330
1F
100
AcDbEntity
  8
0
 62
     3
100
AcDbLine
 10
888.2987324207265
 20
106.116123902547
 30
0.0
 11
888.2048140513266
 21
106.1640352276465
 31
0.0
  0
ARC
  5
C6C
330
1F
100
AcDbEntity
  8
0
 62
     3
100
AcDbCircle
 10
889.4806556810395
 20
108.0805055212597
 30
0.0
 40
0.7246563855856372
100
AcDbArc
 50
293.6220258568092
 51
2.124309473974748
  0
ARC
  5
C6D
330
1F
100
AcDbEntity
  8
0
 62
     3
100
AcDbCircle
 10
885.5405912132178
 20
115.3553217379896
 30
0.0
 40
8.995575420909756
100
AcDbArc
 50
287.2277307323497
 51
298.0524445775304
  0
LINE
  5
C6E
330
1F
100
AcDbEntity
  8
0
 62
     3
100
AcDbLine
 10
888.2702551754523
 20
103.0340443081597
 30
0.0
 11
889.8295011425894
 21
103.9585931461781
 31
0.0
  0
ARC
  5
C6F
330
1F
100
AcDbEntity
  8
0
 62
     3
100
AcDbCircle
 10
887.1175452926818
 20
109.7892249733961
 30
0.0
 40
3.443201279090498
100
AcDbArc
 50
286.2826374216988
 51
289.9975422000832
  0
ARC
  5
C70
330
1F
100
AcDbEntity
  8
0
 62
     3
100
AcDbCircle
 10
887.0717284111456
 20
110.2193332605131
 30
0.0
 40
3.869662474790169
100
AcDbArc
 50
277.5902923815406
 51
285.1482034630166
  0
ARC
  5
C71
330
1F
100
AcDbEntity
  8
0
 62
     3
100
AcDbCircle
 10
882.6687301364618
 20
147.0492462469949
 30
0.0
 40
40.96151103022692
100
AcDbArc
 50
273.6332228455332
 51
276.8903479535454
  0
ARC
  5
C72
330
1F
100
AcDbEntity
  8
0
 62
     3
100
AcDbCircle
 10
857.0684745153017
 20
548.7821412977833
 30
0.0
 40
443.5092613453815
100
AcDbArc
 50
272.5376841157399
 51
273.6450183832826
  0
ARC
  5
C73
330
1F
100
AcDbEntity
  8
0
 62
     3
100
AcDbCircle
 10
887.5785129671667
 20
-164.9079674160528
 30
0.0
 40
270.8342624242904
100
AcDbArc
 50
92.29737067367849
 51
94.50436899297009
  0
ARC
  5
C74
330
1F
100
AcDbEntity
  8
0
 62
     3
100
AcDbCircle
 10
867.2178598780879
 20
95.0983575175116
 30
0.0
 40
10.0327204229741
100
AcDbArc
 50
95.20031642400289
 51
100.5451792396968
  0
ARC
  5
C75
330
1F
100
AcDbEntity
  8
0
 62
     3
100
AcDbCircle
 10
865.4508372291712
 20
104.5293455346902
 30
0.0
 40
0.4377725157590214
100
AcDbArc
 50
99.07828914647193
 51
121.5476935570236
  0
ARC
  5
C76
102
{ACAD_REACTORS
330
11F8
102
}
330
1F
100
AcDbEntity
  8
0
 62
     3
100
AcDbCircle
 10
864.0228319958119
 20
106.3762856013747
 30
0.0
 40
0.8182275399731245
100
AcDbArc
 50
181.3034425987057
 51
239.6892659683288
  0
ARC
  5
C77
330
1F
100
AcDbEntity
  8
0
 62
     3
100
AcDbCircle
 10
889.455298961575
 20
104.6203191301985
 30
0.0
 40
0.7496208570803088
100
AcDbArc
 50
359.0333761425324
 51
60.05535283606854
  0
ARC
  5
C78
330
1F
100
AcDbEntity
  8
0
 62
     3
100
AcDbCircle
 10
889.4556553023276
 20
104.6078066216707
 30
0.0
 40
0.749158760906655
100
AcDbArc
 50
299.9352409501747
 51
359.989784398229
  0
ARC
  5
C79
330
1F
100
AcDbEntity
  8
0
 62
     3
100
AcDbCircle
 10
889.383849002536
 20
101.1277518170611
 30
0.0
 40
0.8210782771680618
100
AcDbArc
 50
300.8700465064899
 51
359.048457959013
  0
ARC
  5
C7A
330
1F
100
AcDbEntity
  8
0
 62
     3
100
AcDbCircle
 10
889.3867308715276
 20
101.1019252077569
 30
0.0
 40
0.818295381683747
100
AcDbArc
 50
1.304868009933765
 51
59.55025459280611
  0
LINE
  5
C7B
330
1F
100
AcDbEntity
  8
0
 62
     3
100
AcDbLine
 10
889.8014285901631
 20
101.8073563765058
 30
0.0
 11
888.3139237772698
 21
102.6688113178481
 31
0.0
  0
LINE
  5
C7C
330
1F
100
AcDbEntity
  8
0
 62
     3
100
AcDbLine
 10
888.2681240453499
 20
99.53287183197716
 30
0.0
 11
889.8051381878217
 21
100.422993021729
 31
0.0
  0
LINE
  5
C7D
330
1F
100
AcDbEntity
  8
0
 62
     3
100
AcDbLine
 10
889.8295000945077
 20
98.26963953056674
 30
0.0
 11
888.3128425901264
 21
99.16945047555708
 31
0.0
  0
ARC
  5
C7E
330
1F
100
AcDbEntity
  8
0
 62
     3
100
AcDbCircle
 10
889.0981100267754
 20
93.93144204430172
 30
0.0
 40
1.122744601122567
100
AcDbArc
 50
9.696735533971173
 51
51.12828416791515
  0
ARC
  5
C7F
330
1F
100
AcDbEntity
  8
0
 62
     3
100
AcDbCircle
 10
988.9082804250402
 20
-70.83095508329899
 30
0.0
 40
194.8845983344169
100
AcDbArc
 50
120.6385314349962
 51
121.1020409174013
  0
ARC
  5
C80
330
1F
100
AcDbEntity
  8
0
 62
     3
100
AcDbCircle
 10
889.1394033075567
 20
97.83639145277738
 30
0.0
 40
1.087052628892494
100
AcDbArc
 50
294.5559374232239
 51
348.5479547445527
  0
ARC
  5
C81
330
1F
100
AcDbEntity
  8
0
 62
     3
100
AcDbCircle
 10
889.4049670357281
 20
94.11530546642115
 30
0.0
 40
0.7998825147325872
100
AcDbArc
 50
299.1123367002738
 51
359.4601973440414
  0
ARC
  5
C82
330
1F
100
AcDbEntity
  8
0
 62
     3
100
AcDbCircle
 10
1441.591100971717
 20
-861.7546149609323
 30
0.0
 40
1103.100950976193
100
AcDbArc
 50
120.0147849679879
 51
120.1102919647661
  0
ARC
  5
C83
330
1F
100
AcDbEntity
  8
0
 62
     3
100
AcDbCircle
 10
888.5547793117039
 20
91.14429425335874
 30
0.0
 40
0.765983676198877
100
AcDbArc
 50
316.5670055006322
 51
60.6118516376039
  0
LINE
  5
C84
102
{ACAD_REACTORS
330
CFA
102
}
330
1F
100
AcDbEntity
  8
0
 62
     3
100
AcDbLine
 10
880.7048140512284
 20
86.36612362544219
 30
0.0
 11
872.7048140514171
 21
86.36612362544219
 31
0.0
  0
LINE
  5
C85
330
1F
100
AcDbEntity
  8
0
 62
     3
100
AcDbLine
 10
886.204814051323
 20
89.36612362547766
 30
0.0
 11
867.2048140513225
 21
89.36612362547766
 31
0.0
  0
ARC
  5
C86
330
1F
100
AcDbEntity
  8
0
 62
     3
100
AcDbCircle
 10
865.8441777658554
 20
90.41362069258793
 30
0.0
 40
0.7490646588853779
100
AcDbArc
 50
179.9433404007078
 51
245.4576267740231
  0
LINE
  5
C87
330
1F
100
AcDbEntity
  8
0
 62
     3
100
AcDbLine
 10
865.0951134732313
 20
90.41436143993468
 30
0.0
 11
868.7111281078874
 21
90.41436143227855
 31
0.0
  0
LINE
  5
C88
330
1F
100
AcDbEntity
  8
0
 62
     3
100
AcDbLine
 10
865.0948978291317
 20
90.81008453494286
 30
0.0
 11
863.8390402660034
 21
91.53744813638986
 31
0.0
  0
ARC
  5
C89
330
1F
100
AcDbEntity
  8
0
 62
     3
100
AcDbCircle
 10
864.3463871190506
 20
92.37591553697092
 30
0.0
 40
0.9800144953688457
100
AcDbArc
 50
188.1390921493507
 51
238.8223563881651
  0
ARC
  5
C8A
330
1F
100
AcDbEntity
  8
0
 62
     3
100
AcDbCircle
 10
864.1135501714143
 20
92.47088499848377
 30
0.0
 40
0.7734622375171458
100
AcDbArc
 50
130.9179036968796
 51
197.587952040066
  0
ARC
  5
C8B
330
1F
100
AcDbEntity
  8
0
 62
     3
100
AcDbCircle
 10
869.5404655899197
 20
90.38297117169549
 30
0.0
 40
0.8299313277564504
100
AcDbArc
 50
177.8324048541241
 51
231.5304084732354
  0
ARC
  5
C8C
330
1F
100
AcDbEntity
  8
0
 62
     3
100
AcDbCircle
 10
879.8830997340301
 20
2.957610127983742
 30
0.0
 40
88.36993451980854
100
AcDbArc
 50
92.06068416378055
 51
96.54687133841644
  0
ARC
  5
C8D
330
1F
100
AcDbEntity
  8
0
 62
     3
100
AcDbCircle
 10
868.8588702956395
 20
90.36805735229808
 30
0.0
 40
0.1548283625961711
100
AcDbArc
 50
107.0218404044732
 51
162.5984162865992
  0
ARC
  5
C8E
330
1F
100
AcDbEntity
  8
0
 62
     3
100
AcDbCircle
 10
870.2804998859433
 20
86.53408640889592
 30
0.0
 40
4.24363170665656
100
AcDbArc
 50
96.39934002675753
 51
110.2235246950671
  0
ARC
  5
C8F
330
1F
100
AcDbEntity
  8
0
 62
     3
100
AcDbCircle
 10
859.6985151978133
 20
482.487530763768
 30
0.0
 40
391.5866237148906
100
AcDbArc
 50
272.4891933842548
 51
273.8226636592104
  0
ARC
  5
C90
330
1F
100
AcDbEntity
  8
0
 62
     3
100
AcDbCircle
 10
882.8074913029027
 20
132.1209081963272
 30
0.0
 40
40.45998162382389
100
AcDbArc
 50
274.2487508137917
 51
276.461407738126
  0
ARC
  5
C91
330
1F
100
AcDbEntity
  8
0
 62
     3
100
AcDbCircle
 10
886.2831654109441
 20
101.527694620416
 30
0.0
 40
9.669974519444898
100
AcDbArc
 50
276.3972927976259
 51
279.7997174523829
  0
ARC
  5
C92
330
1F
100
AcDbEntity
  8
0
 62
     3
100
AcDbCircle
 10
887.9349034920574
 20
92.42580422640111
 30
0.0
 40
0.4270272505250604
100
AcDbArc
 50
269.2132414813996
 51
319.004081238634
  0
ARC
  5
C93
330
1F
100
AcDbEntity
  8
0
 62
     3
100
AcDbCircle
 10
887.1956512559955
 20
95.25168880723794
 30
0.0
 40
2.893774464923004
100
AcDbArc
 50
285.0052079736637
 51
289.9283558615637
  0
ARC
  5
C94
330
1F
100
AcDbEntity
  8
0
 62
     3
100
AcDbCircle
 10
886.5843153473625
 20
98.36255660286696
 30
0.0
 40
6.060660256959114
100
AcDbArc
 50
275.1093854710867
 51
282.9728542621693
  0
ARC
  5
C95
330
1F
100
AcDbEntity
  8
0
 62
     3
100
AcDbCircle
 10
868.1815801986454
 20
323.5165822522899
 30
0.0
 40
231.9653269812289
100
AcDbArc
 50
272.1058940143437
 51
274.6840369357418
  0
ARC
  5
C96
330
1F
100
AcDbEntity
  8
0
 62
     3
100
AcDbCircle
 10
905.9053743656973
 20
-543.5364058183793
 30
0.0
 40
635.9150241026325
100
AcDbArc
 50
92.63425668715458
 51
93.2655697059781
  0
ARC
  5
C97
330
1F
100
AcDbEntity
  8
0
 62
     3
100
AcDbCircle
 10
876.802192459485
 20
-29.04524247037699
 30
0.0
 40
120.6017033121789
100
AcDbArc
 50
93.38509893145954
 51
94.43234836436251
  0
ARC
  5
C98
330
1F
100
AcDbEntity
  8
0
 62
     3
100
AcDbCircle
 10
871.236243978185
 20
42.55713623193077
 30
0.0
 40
48.78332261135102
100
AcDbArc
 50
94.4138715155257
 51
95.94408256639008
  0
ARC
  5
C99
330
1F
100
AcDbEntity
  8
0
 62
     3
100
AcDbCircle
 10
867.0153718722604
 20
82.4545338441896
 30
0.0
 40
8.663586782423046
100
AcDbArc
 50
95.50434702699377
 51
100.1926698029954
  0
ARC
  5
C9A
330
1F
100
AcDbEntity
  8
0
 62
     3
100
AcDbCircle
 10
865.6042128833465
 20
90.20617087913087
 30
0.0
 40
0.7847548775169285
100
AcDbArc
 50
98.93912637394058
 51
114.8835220069924
  0
ARC
  5
C9B
330
1F
100
AcDbEntity
  8
0
 62
     3
100
AcDbCircle
 10
865.3042556111509
 20
90.84745214248795
 30
0.0
 40
0.0768261286843134
100
AcDbArc
 50
113.1861080305774
 51
191.0609840657694
  0
ARC
  5
C9C
330
1F
100
AcDbEntity
  8
0
 62
     3
100
AcDbCircle
 10
864.0226791967011
 20
99.35239042548272
 30
0.0
 40
0.8178804298497895
100
AcDbArc
 50
120.433026582105
 51
179.6299285714139
  0
ARC
  5
C9D
330
1F
100
AcDbEntity
  8
0
 62
     3
100
AcDbCircle
 10
864.023240903472
 20
99.37613733413053
 30
0.0
 40
0.81851512894899
100
AcDbArc
 50
180.8414948788119
 51
239.1809346875032
  0
ARC
  5
C9E
330
1F
100
AcDbEntity
  8
0
 62
     3
100
AcDbCircle
 10
864.0227949261662
 20
102.8523606930277
 30
0.0
 40
0.8179961997374574
100
AcDbArc
 50
120.9410464815883
 51
179.6278983218857
  0
ARC
  5
C9F
330
1F
100
AcDbEntity
  8
0
 62
     3
100
AcDbCircle
 10
864.0227941548337
 20
102.876279711357
 30
0.0
 40
0.8181916997808967
100
AcDbArc
 50
181.3030871526938
 51
239.7365331812461
  0
LINE
  5
CA0
330
1F
100
AcDbEntity
  8
0
 62
     3
100
AcDbLine
 10
863.6098812565174
 20
105.6699089355063
 30
0.0
 11
865.0979782687264
 21
104.8080966062309
 31
0.0
  0
LINE
  5
CA1
330
1F
100
AcDbEntity
  8
0
 62
     3
100
AcDbLine
 10
863.6022174073041
 20
103.5539534049432
 30
0.0
 11
865.1400902298142
 21
104.4445889501141
 31
0.0
  0
ARC
  5
CA2
330
1F
100
AcDbEntity
  8
0
 62
     3
100
AcDbCircle
 10
887.3038461563274
 20
108.8216458761637
 30
0.0
 40
2.882645977014049
100
AcDbArc
 50
282.8230435871689
 51
290.1897032372052
  0
ARC
  5
CA3
330
1F
100
AcDbEntity
  8
0
 62
     3
100
AcDbCircle
 10
886.5237144408115
 20
112.8648718705837
 30
0.0
 40
6.999512191610592
100
AcDbArc
 50
275.7513364450764
 51
281.7041458869048
  0
ARC
  5
CA4
330
1F
100
AcDbEntity
  8
0
 62
     3
100
AcDbCircle
 10
881.196944153628
 20
164.3428564975722
 30
0.0
 40
58.75233824891355
100
AcDbArc
 50
273.673177461245
 51
275.8891160770503
  0
ARC
  5
CA5
330
1F
100
AcDbEntity
  8
0
 62
     3
100
AcDbCircle
 10
855.4438182030376
 20
580.9138383238301
 30
0.0
 40
476.1184677730812
100
AcDbArc
 50
272.5594673417089
 51
273.5543477534933
  0
ARC
  5
CA6
330
1F
100
AcDbEntity
  8
0
 62
     3
100
AcDbCircle
 10
913.4372103602509
 20
-682.6680124292614
 30
0.0
 40
788.794059223849
100
AcDbArc
 50
92.66905351350073
 51
93.10972293427783
  0
ARC
  5
CA7
330
1F
100
AcDbEntity
  8
0
 62
     3
100
AcDbCircle
 10
878.0042729975985
 20
-32.12909339497384
 30
0.0
 40
137.2909268226617
100
AcDbArc
 50
93.07209782417712
 51
94.4196609488932
  0
ARC
  5
CA8
330
1F
100
AcDbEntity
  8
0
 62
     3
100
AcDbCircle
 10
870.657084053274
 20
63.23804322072664
 30
0.0
 40
41.64120089410992
100
AcDbArc
 50
94.45235481995836
 51
96.72407661283225
  0
ARC
  5
CA9
330
1F
100
AcDbEntity
  8
0
 62
     3
100
AcDbCircle
 10
866.5921948250998
 20
98.07629053724139
 30
0.0
 40
6.566772885403369
100
AcDbArc
 50
97.09240263507226
 51
99.71875212397397
  0
ARC
  5
CAA
330
1F
100
AcDbEntity
  8
0
 62
     3
100
AcDbCircle
 10
865.7642088062707
 20
102.8658984494497
 30
0.0
 40
1.706146914150326
100
AcDbArc
 50
99.46487815089488
 51
104.3858723020274
  0
ARC
  5
CAB
330
1F
100
AcDbEntity
  8
0
 62
     3
100
AcDbCircle
 10
865.4491688318581
 20
104.077191191209
 30
0.0
 40
0.4545824463357588
100
AcDbArc
 50
103.8546333675993
 51
113.2144096335391
  0
ARC
  5
CAC
330
1F
100
AcDbEntity
  8
0
 62
     3
100
AcDbCircle
 10
865.3091230993041
 20
104.4052440499992
 30
0.0
 40
0.0978895817583414
100
AcDbArc
 50
113.5670583183951
 51
129.4599013566727
  0
ARC
  5
CAD
330
1F
100
AcDbEntity
  8
0
 62
     3
100
AcDbCircle
 10
865.2714457203883
 20
104.4519285129238
 30
0.0
 40
0.0379049622894906
100
AcDbArc
 50
130.3369373532383
 51
199.410589635761
  0
ARC
  5
CAE
330
1F
100
AcDbEntity
  8
0
 62
     3
100
AcDbCircle
 10
865.1611935100996
 20
101.3310915969307
 30
0.0
 40
0.0751161667967439
100
AcDbArc
 50
96.99586177349381
 51
158.8392588948211
  0
ARC
  5
CAF
330
1F
100
AcDbEntity
  8
0
 62
     3
100
AcDbCircle
 10
865.4982950290087
 20
100.4014656285455
 30
0.0
 40
1.062201809001678
100
AcDbArc
 50
101.9223660369078
 51
109.0246131492518
  0
ARC
  5
CB0
330
1F
100
AcDbEntity
  8
0
 62
     3
100
AcDbCircle
 10
866.53433955728
 20
95.3668537987025
 30
0.0
 40
6.202297655406984
100
AcDbArc
 50
97.60903747332685
 51
101.6786193560742
  0
ARC
  5
CB1
330
1F
100
AcDbEntity
  8
0
 62
     3
100
AcDbCircle
 10
868.4734449040134
 20
81.71609316818393
 30
0.0
 40
19.98994893612424
100
AcDbArc
 50
95.96484190494648
 51
97.93721194422591
  0
ARC
  5
CB2
330
1F
100
AcDbEntity
  8
0
 62
     3
100
AcDbCircle
 10
887.7416886879128
 20
-171.7086519804714
 30
0.0
 40
274.1387552580231
100
AcDbArc
 50
92.30721910197245
 51
94.46580368876909
  0
ARC
  5
CB3
330
1F
100
AcDbEntity
  8
0
 62
     3
100
AcDbCircle
 10
804.9805128828611
 20
1609.704018851203
 30
0.0
 40
1509.201484186881
100
AcDbArc
 50
272.7240149467655
 51
272.8508362824754
  0
ARC
  5
CB4
330
1F
100
AcDbEntity
  8
0
 62
     3
100
AcDbCircle
 10
855.2552657017363
 20
599.1006614208995
 30
0.0
 40
497.3483876390158
100
AcDbArc
 50
272.8566870598284
 51
273.1359754791333
  0
ARC
  5
CB5
330
1F
100
AcDbEntity
  8
0
 62
     3
100
AcDbCircle
 10
874.5517604333945
 20
252.5594758130796
 30
0.0
 40
150.270830900231
100
AcDbArc
 50
273.0178557743807
 51
274.3140281157955
  0
ARC
  5
CB6
330
1F
100
AcDbEntity
  8
0
 62
     3
100
AcDbCircle
 10
880.8824303270994
 20
165.9306380305526
 30
0.0
 40
63.41155073492614
100
AcDbArc
 50
274.4981154192902
 51
275.1830386403353
  0
ARC
  5
CB7
330
1F
100
AcDbEntity
  8
0
 62
     3
100
AcDbCircle
 10
883.9064820828507
 20
133.4508377539143
 30
0.0
 40
30.79146589731318
100
AcDbArc
 50
275.0387648182327
 51
276.844750162393
  0
ARC
  5
CB8
330
1F
100
AcDbEntity
  8
0
 62
     3
100
AcDbCircle
 10
886.747654892461
 20
109.6151659516765
 30
0.0
 40
6.787096823657821
100
AcDbArc
 50
277.01189829523
 51
279.598357310573
  0
ARC
  5
CB9
330
1F
100
AcDbEntity
  8
0
 62
     3
100
AcDbCircle
 10
887.522852157133
 20
105.0203674527785
 30
0.0
 40
2.127365739208154
100
AcDbArc
 50
279.6466681824214
 51
283.4054025526874
  0
ARC
  5
CBA
330
1F
100
AcDbEntity
  8
0
 62
     3
100
AcDbCircle
 10
887.9536433493104
 20
103.2849288830741
 30
0.0
 40
0.3397476200708718
100
AcDbArc
 50
280.586181269656
 51
302.1675367826095
  0
ARC
  5
CBB
330
1F
100
AcDbEntity
  8
0
 62
     3
100
AcDbCircle
 10
888.0902218847059
 20
103.0506255887641
 30
0.0
 40
0.0693010433710008
100
AcDbArc
 50
309.7373142688836
 51
350.5687445423483
  0
ARC
  5
CBC
330
1F
100
AcDbEntity
  8
0
 62
     3
100
AcDbCircle
 10
888.1316719774359
 20
102.6341892300272
 30
0.0
 40
0.0738649564104126
100
AcDbArc
 50
301.1032285636171
 51
8.217662288400907
  0
ARC
  5
CBD
330
1F
100
AcDbEntity
  8
0
 62
     3
100
AcDbCircle
 10
887.8887629851938
 20
103.0972153369323
 30
0.0
 40
0.5966243016751476
100
AcDbArc
 50
279.2988732399219
 51
298.1053490548199
  0
ARC
  5
CBE
330
1F
100
AcDbEntity
  8
0
 62
     3
100
AcDbCircle
 10
870.2860858453914
 20
286.4316566869515
 30
0.0
 40
184.7728614756591
100
AcDbArc
 50
271.9909804524908
 51
275.4966942562868
  0
ARC
  5
CBF
330
1F
100
AcDbEntity
  8
0
 62
     3
100
AcDbCircle
 10
920.9044680106058
 20
-838.4566630375409
 30
0.0
 40
941.2653294034674
100
AcDbArc
 50
92.68970934919831
 51
93.01793965389928
  0
ARC
  5
CC0
330
1F
100
AcDbEntity
  8
0
 62
     3
100
AcDbCircle
 10
881.5335851019831
 20
-92.21881478733013
 30
0.0
 40
193.9896180285087
100
AcDbArc
 50
93.0097055780423
 51
93.93868198754456
  0
ARC
  5
CC1
330
1F
100
AcDbEntity
  8
0
 62
     3
100
AcDbCircle
 10
873.2401168370989
 20
28.56680442087617
 30
0.0
 40
72.91961329062246
100
AcDbArc
 50
93.95655271682921
 51
95.20009529979973
  0
ARC
  5
CC2
330
1F
100
AcDbEntity
  8
0
 62
     3
100
AcDbCircle
 10
866.8971854408783
 20
95.41294797222344
 30
0.0
 40
5.779479026180697
100
AcDbArc
 50
92.63877965085722
 51
106.9111803579834
  0
ARC
  5
CC3
330
1F
100
AcDbEntity
  8
0
 62
     3
100
AcDbCircle
 10
887.3470119191688
 20
101.8817798119746
 30
0.0
 40
2.502831844025352
100
AcDbArc
 50
281.9422958810691
 51
290.5829903494727
  0
ARC
  5
CC4
330
1F
100
AcDbEntity
  8
0
 62
     3
100
AcDbCircle
 10
885.5754415362894
 20
112.6267354579806
 30
0.0
 40
13.39078883954209
100
AcDbArc
 50
274.2623425131648
 51
279.8444360633621
  0
ARC
  5
CC5
330
1F
100
AcDbEntity
  8
0
 62
     3
100
AcDbCircle
 10
863.2565528114383
 20
419.8680297396635
 30
0.0
 40
321.4416479306862
100
AcDbArc
 50
272.3947187635618
 51
274.159310405178
  0
ARC
  5
CC6
330
1F
100
AcDbEntity
  8
0
 62
     3
100
AcDbCircle
 10
911.2134869525585
 20
-643.7432367297358
 30
0.0
 40
743.252680005875
100
AcDbArc
 50
92.66249130895577
 51
93.15047704430224
  0
ARC
  5
CC7
330
1F
100
AcDbEntity
  8
0
 62
     3
100
AcDbCircle
 10
875.8744892204113
 20
-5.866562751437243
 30
0.0
 40
104.398140132873
100
AcDbArc
 50
93.02488123122122
 51
95.09906931685333
  0
ARC
  5
CC8
330
1F
100
AcDbEntity
  8
0
 62
     3
100
AcDbCircle
 10
868.6230080005289
 20
76.17917040176161
 30
0.0
 40
22.03271315406764
100
AcDbArc
 50
95.27924895991165
 51
97.63859332876194
  0
ARC
  5
CC9
330
1F
100
AcDbEntity
  8
0
 62
     3
100
AcDbCircle
 10
865.8680413577395
 20
96.20262501746691
 30
0.0
 40
1.822044812978397
100
AcDbArc
 50
95.47077840761645
 51
110.4425241578407
  0
ARC
  5
CCA
330
1F
100
AcDbEntity
  8
0
 62
     3
100
AcDbCircle
 10
865.2571350911544
 20
97.86504638678451
 30
0.0
 40
0.0516030925288641
100
AcDbArc
 50
119.582130545854
 51
218.4818715941525
  0
ARC
  5
CCB
330
1F
100
AcDbEntity
  8
0
 62
     3
100
AcDbCircle
 10
888.2058654839798
 20
99.00229026182132
 30
0.0
 40
0.1495863258863655
100
AcDbArc
 50
45.28931853711734
 51
74.13886626737914
  0
ARC
  5
CCC
330
1F
100
AcDbEntity
  8
0
 62
     3
100
AcDbCircle
 10
888.285198936946
 20
99.10607044425359
 30
0.0
 40
0.0260274702262401
100
AcDbArc
 50
285.6599563860834
 51
5.569578011675033
  0
ARC
  5
CCD
330
1F
100
AcDbEntity
  8
0
 62
     3
100
AcDbCircle
 10
887.8683861738136
 20
100.1663275108805
 30
0.0
 40
1.165141604685218
100
AcDbArc
 50
277.7275493129417
 51
291.3316279469141
  0
ARC
  5
CCE
330
1F
100
AcDbEntity
  8
0
 62
     3
100
AcDbCircle
 10
885.2837049054283
 20
116.2601738090618
 30
0.0
 40
17.46489436380433
100
AcDbArc
 50
275.9177028184967
 51
279.030685169176
  0
ARC
  5
CCF
330
1F
100
AcDbEntity
  8
0
 62
     3
100
AcDbCircle
 10
867.0172781417223
 20
350.4650466497109
 30
0.0
 40
252.3757538808126
100
AcDbArc
 50
272.2000149635271
 51
274.5605511404967
  0
ARC
  5
CD0
330
1F
100
AcDbEntity
  8
0
 62
     3
100
AcDbCircle
 10
935.8745055339846
 20
-1149.835413873938
 30
0.0
 40
1249.50748817873
100
AcDbArc
 50
92.71418072896115
 51
92.90315158124734
  0
ARC
  5
CD1
330
1F
100
AcDbEntity
  8
0
 62
     3
100
AcDbCircle
 10
884.0928641907699
 20
-136.3443540062843
 30
0.0
 40
234.6948543886765
100
AcDbArc
 50
92.80940244839968
 51
93.91874396440126
  0
ARC
  5
CD2
330
1F
100
AcDbEntity
  8
0
 62
     3
100
AcDbCircle
 10
872.9118453677197
 20
30.33811372059898
 30
0.0
 40
67.63837836055812
100
AcDbArc
 50
94.11906538774552
 51
95.25244220449152
  0
ARC
  5
CD3
330
1F
100
AcDbEntity
  8
0
 62
     3
100
AcDbCircle
 10
869.269644677353
 20
69.22653998558525
 30
0.0
 40
28.57990002055897
100
AcDbArc
 50
95.11831858328105
 51
97.11560772998254
  0
ARC
  5
CD4
330
1F
100
AcDbEntity
  8
0
 62
     3
100
AcDbCircle
 10
866.4600293625363
 20
91.96386560570971
 30
0.0
 40
5.669731763698971
100
AcDbArc
 50
97.40399020634939
 51
99.97026256294801
  0
ARC
  5
CD5
330
1F
100
AcDbEntity
  8
0
 62
     3
100
AcDbCircle
 10
865.6606263227754
 20
96.381918637365
 30
0.0
 40
1.180207650203423
100
AcDbArc
 50
98.88265722747076
 51
107.2415641899074
  0
ARC
  5
CD6
330
1F
100
AcDbEntity
  8
0
 62
     3
100
AcDbCircle
 10
865.3505578156196
 20
97.39840803058922
 30
0.0
 40
0.1176039929337585
100
AcDbArc
 50
109.7530126939119
 51
157.0210243855495
  0
LINE
  5
CD7
330
1F
100
AcDbEntity
  8
0
 62
     3
100
AcDbLine
 10
863.6038921462728
 20
98.6732051637511
 30
0.0
 11
865.0988332119259
 21
97.80746690934592
 31
0.0
  0
LINE
  5
CD8
330
1F
100
AcDbEntity
  8
0
 62
     3
100
AcDbLine
 10
863.608397525411
 20
100.0575847918564
 30
0.0
 11
865.1464456595395
 21
100.9482733237739
 31
0.0
  0
LINE
  5
CD9
330
1F
100
AcDbEntity
  8
0
 62
     3
100
AcDbLine
 10
865.094923927034
 20
101.3099145716998
 30
0.0
 11
863.6104443571194
 21
102.169593570333
 31
0.0
  0
LINE
  5
CDA
330
1F
100
AcDbEntity
  8
0
 62
     3
100
AcDbLine
 10
865.1489401413196
 20
97.44956801284224
 30
0.0
 11
863.5801280048754
 21
96.51963953613375
 31
0.0
  0
ARC
  5
CDB
330
1F
100
AcDbEntity
  8
0
 62
     3
100
AcDbCircle
 10
863.9539768257482
 20
95.8704231312542
 30
0.0
 40
0.749162786861295
100
AcDbArc
 50
119.935326704968
 51
179.9895587178365
  0
ARC
  5
CDC
330
1F
100
AcDbEntity
  8
0
 62
     3
100
AcDbCircle
 10
864.0053537424574
 20
95.86621455246603
 30
0.0
 40
0.8005866367252872
100
AcDbArc
 50
180.6260733890304
 51
239.2356729686339
  0
LINE
  5
CDD
330
1F
100
AcDbEntity
  8
0
 62
     3
100
AcDbLine
 10
863.5958472987081
 20
95.1782876410627
 30
0.0
 11
865.0951134732695
 21
94.30992191843524
 31
0.0
  0
ARC
  5
CDE
330
1F
100
AcDbEntity
  8
0
 62
     3
100
AcDbCircle
 10
865.1377202133594
 20
94.35169683688508
 30
0.0
 40
0.049106906470527
100
AcDbArc
 50
105.9753144537867
 51
161.5773472508164
  0
ARC
  5
CDF
330
1F
100
AcDbEntity
  8
0
 62
     3
100
AcDbCircle
 10
865.7430170551179
 20
92.57298555284359
 30
0.0
 40
1.927931169077804
100
AcDbArc
 50
97.10555941607767
 51
108.7217262080096
  0
ARC
  5
CE0
330
1F
100
AcDbEntity
  8
0
 62
     3
100
AcDbCircle
 10
869.3676995873693
 20
67.23516482966824
 30
0.0
 40
27.52340910158738
100
AcDbArc
 50
94.51996134520397
 51
98.06863133212619
  0
ARC
  5
CE1
330
1F
100
AcDbEntity
  8
0
 62
     3
100
AcDbCircle
 10
891.6080872602006
 20
-254.3945475376921
 30
0.0
 40
349.9199253181473
100
AcDbArc
 50
92.44088385864288
 51
94.00003752263406
  0
ARC
  5
CE2
330
1F
100
AcDbEntity
  8
0
 62
     3
100
AcDbCircle
 10
642.2344629365912
 20
4985.634817516856
 30
0.0
 40
4896.044542557357
100
AcDbArc
 50
272.744938472279
 51
272.7572620031653
  0
ARC
  5
CE3
330
1F
100
AcDbEntity
  8
0
 62
     3
100
AcDbCircle
 10
816.1373055043669
 20
1377.520601746422
 30
0.0
 40
1283.741907943546
100
AcDbArc
 50
272.751273560953
 51
272.8446766720628
  0
ARC
  5
CE4
330
1F
100
AcDbEntity
  8
0
 62
     3
100
AcDbCircle
 10
864.038057734248
 20
423.2544606233946
 30
0.0
 40
328.2747769457955
100
AcDbArc
 50
272.7604012795124
 51
273.5736711686375
  0
ARC
  5
CE5
330
1F
100
AcDbEntity
  8
0
 62
     3
100
AcDbCircle
 10
879.8308314374672
 20
171.1182765152582
 30
0.0
 40
75.64449792186404
100
AcDbArc
 50
273.5388759997763
 51
275.4719959798678
  0
ARC
  5
CE6
330
1F
100
AcDbEntity
  8
0
 62
     3
100
AcDbCircle
 10
888.0897436201144
 20
96.07637844144045
 30
0.0
 40
0.0883814086207728
100
AcDbArc
 50
324.3143354309603
 51
0.6251123021231206
  0
ARC
  5
CE7
330
1F
100
AcDbEntity
  8
0
 62
     3
100
AcDbCircle
 10
888.0613095790818
 20
96.11000299650931
 30
0.0
 40
0.1315287844703487
100
AcDbArc
 50
295.1777873517952
 51
319.6375326796846
  0
ARC
  5
CE8
330
1F
100
AcDbEntity
  8
0
 62
     3
100
AcDbCircle
 10
885.2588959445588
 20
113.9137695666761
 30
0.0
 40
18.18313349581846
100
AcDbArc
 50
275.6347450813822
 51
277.3435259869406
  0
ARC
  5
CE9
330
1F
100
AcDbEntity
  8
0
 62
     3
100
AcDbCircle
 10
886.7374369243234
 20
102.4043670986668
 30
0.0
 40
6.579152814915828
100
AcDbArc
 50
277.3844250943297
 51
279.6552788936629
  0
ARC
  5
CEA
330
1F
100
AcDbEntity
  8
0
 62
     3
100
AcDbCircle
 10
887.6833065654796
 20
97.08125023958218
 30
0.0
 40
1.173469399538228
100
AcDbArc
 50
277.7175846115335
 51
291.7038150955609
  0
ARC
  5
CEB
330
1F
100
AcDbEntity
  8
0
 62
     3
100
AcDbCircle
 10
888.1946864076931
 20
95.6117011763883
 30
0.0
 40
0.0409318728725826
100
AcDbArc
 50
295.6880274808261
 51
42.20184455188787
  0
ARC
  5
CEC
330
1F
100
AcDbEntity
  8
0
 62
     3
100
AcDbCircle
 10
887.9964436389282
 20
96.01107522995989
 30
0.0
 40
0.48679873172517
100
AcDbArc
 50
280.6741043500367
 51
296.3392682224971
  0
ARC
  5
CED
330
1F
100
AcDbEntity
  8
0
 62
     3
100
AcDbCircle
 10
887.3691280090247
 20
98.7045522585151
 30
0.0
 40
3.251988349947132
100
AcDbArc
 50
280.0704232505369
 51
282.7459575697885
  0
ARC
  5
CEE
330
1F
100
AcDbEntity
  8
0
 62
     3
100
AcDbCircle
 10
886.0509221672241
 20
106.2226216249357
 30
0.0
 40
10.88474344258982
100
AcDbArc
 50
276.344481643747
 51
279.9825101000256
  0
ARC
  5
CEF
330
1F
100
AcDbEntity
  8
0
 62
     3
100
AcDbCircle
 10
866.9437355790528
 20
344.7215235819698
 30
0.0
 40
250.1428670498722
100
AcDbArc
 50
272.2298401880048
 51
274.6571807547268
  0
ARC
  5
CF0
330
1F
100
AcDbEntity
  8
0
 62
     3
100
AcDbCircle
 10
1003.039416364117
 20
-2560.594105106361
 30
0.0
 40
2658.367157074969
100
AcDbArc
 50
92.72390056278437
 51
92.77408065604189
  0
ARC
  5
CF1
330
1F
100
AcDbEntity
  8
0
 62
     3
100
AcDbCircle
 10
898.0591179335152
 20
-395.8837619767854
 30
0.0
 40
491.1127444418697
100
AcDbArc
 50
92.76360617213942
 51
93.27299581907229
  0
ARC
  5
CF2
330
1F
100
AcDbEntity
  8
0
 62
     3
100
AcDbCircle
 10
873.6273175853635
 20
22.46205972478509
 30
0.0
 40
72.05620105973455
100
AcDbArc
 50
92.86974999927409
 51
96.1927283694086
  0
ARC
  5
CF3
330
1F
100
AcDbEntity
  8
0
 62
     3
100
AcDbCircle
 10
866.1000155561214
 20
91.24423629168922
 30
0.0
 40
2.86410446749605
100
AcDbArc
 50
94.91981265654749
 51
109.6855544282355
  0
LINE
  5
CF4
330
1F
100
AcDbEntity
  8
0
 62
     3
100
AcDbLine
 10
865.0951134732259
 20
93.91735605426328
 30
0.0
 11
863.6069502189257
 21
93.05535084094771
 31
0.0
  0
DIMENSION
  5
CF5
102
{ACAD_REACTORS
330
CF7
102
}
102
{ACAD_XDICTIONARY
360
CF6
102
}
330
1F
100
AcDbEntity
  8
0
100
AcDbDimension
  2
*D2
 10
906.7048140513252
 20
215.9604736194311
 30
0.0
 11
876.7048140513252
 21
215.9604736194311
 31
0.0
 70
   160
  1
%%c<>
 71
     5
 42
60.0
 51
360.0
  3
1：1
100
AcDbAlignedDimension
 13
846.7048140513252
 23
172.3661236254422
 33
0.0
 14
906.7048140513252
 24
172.3661236254422
 34
0.0
100
AcDbRotatedDimension
1001
ACAD
1000
DSTYLE
1002
{
1070
   340
1005
11
1002
}
  0
DIMENSION
  5
CF8
102
{ACAD_REACTORS
330
CFA
102
}
102
{ACAD_XDICTIONARY
360
CF9
102
}
330
1F
100
AcDbEntity
  8
0
100
AcDbDimension
  2
*D3
 10
833.5220572994986
 20
86.36612362544219
 30
0.0
 11
833.5220572994986
 21
144.3661082492866
 31
0.0
 70
   160
 71
     5
 42
115.9999692476888
 51
360.0
  3
1：1
100
AcDbAlignedDimension
 13
876.6618589849506
 23
202.366092873131
 33
0.0
 14
876.7048140513227
 24
86.36612362544219
 34
0.0
 50
90.0
100
AcDbRotatedDimension
  0
LINE
  5
1199
330
1F
100
AcDbEntity
  8
0
 62
     7
100
AcDbLine
 10
921.5054332412992
 20
93.32470189918868
 30
0.0
 11
990.2383724034387
 21
93.32470189918868
 31
0.0
  0
LINE
  5
119A
330
1F
100
AcDbEntity
  8
0
 62
     7
100
AcDbLine
 10
921.5054332412992
 20
98.82470189918878
 30
0.0
 11
990.2383724034387
 21
98.82470189918878
 31
0.0
  0
LINE
  5
119B
330
1F
100
AcDbEntity
  8
0
 62
     7
100
AcDbLine
 10
921.5054332412992
 20
104.3247018991888
 30
0.0
 11
990.2383724034387
 21
104.3247018991888
 31
0.0
  0
LINE
  5
119C
330
1F
100
AcDbEntity
  8
0
 62
     7
100
AcDbLine
 10
931.8964237109681
 20
109.8247018991888
 30
0.0
 11
990.2383724034387
 21
109.8247018991888
 31
0.0
  0
LINE
  5
119D
330
1F
100
AcDbEntity
  8
0
 62
     7
100
AcDbLine
 10
931.8964237109681
 20
115.3247018991889
 30
0.0
 11
990.2383724034387
 21
115.3247018991889
 31
0.0
  0
LINE
  5
119E
330
1F
100
AcDbEntity
  8
0
 62
     7
100
AcDbLine
 10
931.8964237109681
 20
120.8247018991888
 30
0.0
 11
990.2383724034387
 21
120.8247018991888
 31
0.0
  0
LINE
  5
119F
330
1F
100
AcDbEntity
  8
0
 62
     7
100
AcDbLine
 10
931.8964237109681
 20
126.3247018991889
 30
0.0
 11
990.2383724034387
 21
126.3247018991889
 31
0.0
  0
LINE
  5
11A0
330
1F
100
AcDbEntity
  8
0
 62
     7
100
AcDbLine
 10
921.5054332412992
 20
131.8247018991889
 30
0.0
 11
990.2383724034387
 21
131.8247018991889
 31
0.0
  0
LINE
  5
11A1
330
1F
100
AcDbEntity
  8
0
 62
     7
100
AcDbLine
 10
921.5054332412992
 20
137.3247018991888
 30
0.0
 11
990.2383724034387
 21
137.3247018991888
 31
0.0
  0
LINE
  5
11A2
330
1F
100
AcDbEntity
  8
0
 62
     7
100
AcDbLine
 10
921.5054332412992
 20
142.8247018991889
 30
0.0
 11
990.2383724034387
 21
142.8247018991889
 31
0.0
  0
LINE
  5
11A3
330
1F
100
AcDbEntity
  8
0
 62
     7
100
AcDbLine
 10
921.5054332412992
 20
148.3247018991889
 30
0.0
 11
990.2383724034387
 21
148.3247018991889
 31
0.0
  0
LINE
  5
11A4
330
1F
100
AcDbEntity
  8
0
 62
     7
100
AcDbLine
 10
921.5054332412992
 20
153.8247018991888
 30
0.0
 11
990.2383724034387
 21
153.8247018991888
 31
0.0
  0
LINE
  5
11A5
330
1F
100
AcDbEntity
  8
0
 62
     7
100
AcDbLine
 10
921.5054332412992
 20
159.3247018991888
 30
0.0
 11
990.2383724034387
 21
159.3247018991888
 31
0.0
  0
LINE
  5
11A6
330
1F
100
AcDbEntity
  8
0
 62
     7
100
AcDbLine
 10
921.5054332412992
 20
164.8247018991888
 30
0.0
 11
990.2383724034387
 21
164.8247018991888
 31
0.0
  0
LINE
  5
11A7
330
1F
100
AcDbEntity
  8
0
 62
     7
100
AcDbLine
 10
921.5054332412992
 20
170.3247018991888
 30
0.0
 11
990.2383724034387
 21
170.3247018991888
 31
0.0
  0
TEXT
  5
11A8
330
1F
100
AcDbEntity
  8
0
 62
     3
100
AcDbText
 10
923.0054332412992
 20
99.82470189918868
 30
0.0
 40
3.2
  1
球　寿　命
 41
0.8000000000000002
  7
高3.2
100
AcDbText
  0
TEXT
  5
11A9
330
1F
100
AcDbEntity
  8
0
 62
     3
100
AcDbText
 10
923.0054332412992
 20
94.32470189918868
 30
0.0
 40
3.2
  1
使用環境温度
 41
0.8000000000000002
  7
高3.2
100
AcDbText
  0
TEXT
  5
11AA
330
1F
100
AcDbEntity
  8
0
 62
     3
100
AcDbText
 10
923.0054332412992
 20
132.8247018991888
 30
0.0
 40
3.2
  1
エネルギー消費効率
 41
0.6
  7
高3.2
100
AcDbText
  0
TEXT
  5
11AB
330
1F
100
AcDbEntity
  8
0
 62
     3
100
AcDbText
 10
923.0054332412992
 20
138.3247018991889
 30
0.0
 40
3.2
  1
定格消費電力
 41
0.8000000000000002
  7
高3.2
100
AcDbText
  0
TEXT
  5
11AC
330
1F
100
AcDbEntity
  8
0
 62
     3
100
AcDbText
 10
923.0054332412992
 20
143.8247018991888
 30
0.0
 40
3.2
  1
定格　電流
 41
0.8000000000000002
  7
高3.2
100
AcDbText
  0
TEXT
  5
11AD
330
1F
100
AcDbEntity
  8
0
 62
     3
100
AcDbText
 10
923.0054332412992
 20
149.3247018991889
 30
0.0
 40
3.2
  1
入力電圧範囲
 41
0.8000000000000002
  7
高3.2
100
AcDbText
  0
TEXT
  5
11AE
330
1F
100
AcDbEntity
  8
0
 62
     3
100
AcDbText
 10
923.005433241299
 20
154.8247018991888
 30
0.0
 40
3.2
  1
定格　電圧
 41
0.8000000000000002
  7
高3.2
100
AcDbText
  0
TEXT
  5
11AF
330
1F
100
AcDbEntity
  8
0
 62
     3
100
AcDbText
 10
923.005433241299
 20
160.3247018991888
 30
0.0
 40
3.2
  1
照射　角度
 41
0.8000000000000002
  7
高3.2
100
AcDbText
  0
TEXT
  5
11B0
330
1F
100
AcDbEntity
  8
0
 62
     3
100
AcDbText
 10
923.005433241299
 20
171.3247018991888
 30
0.0
 40
3.2
  1
光源色[色温度]
 41
0.8000000000000002
  7
高3.2
100
AcDbText
  0
TEXT
  5
11B1
330
1F
100
AcDbEntity
  8
0
 62
     3
100
AcDbText
 10
923.005433241299
 20
176.8247018991888
 30
0.0
 40
3.2
  1
全　光　束
 41
0.8000000000000002
  7
高3.2
100
AcDbText
  0
TEXT
  5
11B2
330
1F
100
AcDbEntity
  8
0
 62
     3
100
AcDbText
 10
923.005433241299
 20
182.3247018991888
 30
0.0
 40
3.2
  1
光　　　源
 41
0.8000000000000002
  7
高3.2
100
AcDbText
  0
TEXT
  5
11B3
330
1F
100
AcDbEntity
  8
0
 62
     3
100
AcDbText
 10
923.005433241299
 20
198.8247018991889
 30
0.0
 40
3.2
  1
本　体　色
 41
0.8000000000000002
  7
高3.2
100
AcDbText
  0
TEXT
  5
11B4
330
1F
100
AcDbEntity
  8
0
 62
     3
100
AcDbText
 10
923.005433241299
 20
165.8247018991888
 30
0.0
 40
3.2
  1
平均演色評価数
 41
0.6
  7
高3.2
100
AcDbText
  0
TEXT
  5
11B5
330
1F
100
AcDbEntity
  8
0
 62
     3
100
AcDbText
 10
923.0054332412992
 20
127.3247018991888
 30
0.0
 40
3.2
  1
照度
 41
0.8000000000000002
  7
高3.2
100
AcDbText
  0
LINE
  5
11B6
330
1F
100
AcDbEntity
  8
0
 62
     7
100
AcDbLine
 10
921.5054332412992
 20
175.8247018991888
 30
0.0
 11
990.2383724034387
 21
175.8247018991888
 31
0.0
  0
LINE
  5
11B7
330
1F
100
AcDbEntity
  8
0
 62
     7
100
AcDbLine
 10
921.5054332412992
 20
181.324701899189
 30
0.0
 11
990.2383724034387
 21
181.324701899189
 31
0.0
  0
LINE
  5
11B8
330
1F
100
AcDbEntity
  8
0
 62
     7
100
AcDbLine
 10
921.5054332412992
 20
186.8247018991888
 30
0.0
 11
990.2383724034387
 21
186.8247018991888
 31
0.0
  0
LINE
  5
11B9
330
1F
100
AcDbEntity
  8
0
 62
     7
100
AcDbLine
 10
921.5054332412992
 20
197.8247018991891
 30
0.0
 11
990.2383724034387
 21
197.8247018991891
 31
0.0
  0
LINE
  5
11BA
330
1F
100
AcDbEntity
  8
0
 62
     7
100
AcDbLine
 10
921.5054332412992
 20
203.3247018991888
 30
0.0
 11
990.2383724034387
 21
203.3247018991888
 31
0.0
  0
LINE
  5
11BB
330
1F
100
AcDbEntity
  8
0
100
AcDbLine
 10
931.8964237109681
 20
131.8247018991889
 30
0.0
 11
931.8964237109681
 21
104.3247018991888
 31
0.0
  0
TEXT
  5
11BC
330
1F
100
AcDbEntity
  8
0
 62
     3
100
AcDbText
 10
933.3964237109672
 20
127.3247018991888
 30
0.0
 40
3.2
  1
1m
 41
0.8000000000000002
  7
高3.2
100
AcDbText
  0
TEXT
  5
11BD
330
1F
100
AcDbEntity
  8
0
 62
     3
100
AcDbText
 10
933.3964237109672
 20
121.8247018991889
 30
0.0
 40
3.2
  1
2m
 41
0.8000000000000002
  7
高3.2
100
AcDbText
  0
TEXT
  5
11BE
330
1F
100
AcDbEntity
  8
0
 62
     3
100
AcDbText
 10
933.3964237109672
 20
116.3247018991888
 30
0.0
 40
3.2
  1
3m
 41
0.8000000000000002
  7
高3.2
100
AcDbText
  0
TEXT
  5
11BF
330
1F
100
AcDbEntity
  8
0
 62
     3
100
AcDbText
 10
933.3964237109672
 20
110.8247018991889
 30
0.0
 40
3.2
  1
4m
 41
0.8000000000000002
  7
高3.2
100
AcDbText
  0
TEXT
  5
11C0
330
1F
100
AcDbEntity
  8
0
 62
     3
100
AcDbText
 10
933.3964237109672
 20
105.3247018991889
 30
0.0
 40
3.2
  1
5m
 41
0.8000000000000002
  7
高3.2
100
AcDbText
  0
LINE
  5
11C1
330
1F
100
AcDbEntity
  8
0
 62
     3
100
AcDbLine
 10
921.5054332412992
 20
87.824701899189
 30
0.0
 11
990.2383724034387
 21
87.824701899189
 31
0.0
  0
TEXT
  5
11C2
330
1F
100
AcDbEntity
  8
0
 62
     3
100
AcDbText
 10
947.8674247652044
 20
198.8247018991889
 30
0.0
 40
3.2
  1
白
  7
高3.2
100
AcDbText
  0
TEXT
  5
11C3
330
1F
100
AcDbEntity
  8
0
 62
     3
100
AcDbText
 10
947.8674247652044
 20
182.3247018991888
 30
0.0
 40
3.2
  1
LED
  7
高3.2
100
AcDbText
  0
TEXT
  5
11C4
330
1F
100
AcDbEntity
  8
0
 62
     3
100
AcDbText
 10
947.8674247652044
 20
176.8247018991888
 30
0.0
 40
3.2
  1
1400Lm
  7
高3.2
100
AcDbText
  0
TEXT
  5
11C5
330
1F
100
AcDbEntity
  8
0
 62
     3
100
AcDbText
 10
947.8674247652044
 20
171.3247018991888
 30
0.0
 40
3.2
  1
昼白色[5000K]
  7
高3.2
100
AcDbText
  0
TEXT
  5
11C6
330
1F
100
AcDbEntity
  8
0
 62
     3
100
AcDbText
 10
947.8674247652044
 20
165.8247018991888
 30
0.0
 40
3.2
  1
Ra83
  7
高3.2
100
AcDbText
  0
TEXT
  5
11C7
330
1F
100
AcDbEntity
  8
0
 62
     3
100
AcDbText
 10
947.8674247652044
 20
160.3247018991888
 30
0.0
 40
3.2
  1
230°
  7
高3.2
100
AcDbText
  0
TEXT
  5
11C8
330
1F
100
AcDbEntity
  8
0
 62
     3
100
AcDbText
 10
947.8674247652044
 20
154.8247018991888
 30
0.0
 40
3.2
  1
AC100V
  7
高3.2
100
AcDbText
  0
TEXT
  5
11C9
330
1F
100
AcDbEntity
  8
0
 62
     3
100
AcDbText
 10
947.8674247652044
 20
149.3247018991889
 30
0.0
 40
3.2
  1
AC90～110V
  7
高3.2
100
AcDbText
  0
TEXT
  5
11CA
330
1F
100
AcDbEntity
  8
0
 62
     3
100
AcDbText
 10
947.8674247652044
 20
143.8247018991888
 30
0.0
 40
3.2
  1
0.18A
  7
高3.2
100
AcDbText
  0
TEXT
  5
11CB
330
1F
100
AcDbEntity
  8
0
 62
     3
100
AcDbText
 10
947.8674247652044
 20
138.3247018991889
 30
0.0
 40
3.2
  1
11.5W
  7
高3.2
100
AcDbText
  0
TEXT
  5
11CC
330
1F
100
AcDbEntity
  8
0
 62
     3
100
AcDbText
 10
947.8674247652044
 20
132.8247018991888
 30
0.0
 40
3.2
  1
121.7Lm/W
  7
高3.2
100
AcDbText
  0
TEXT
  5
11CD
330
1F
100
AcDbEntity
  8
0
 62
     3
100
AcDbText
 10
947.8674247652044
 20
127.3247018991888
 30
0.0
 40
3.2
  1
265Lx
  7
高3.2
100
AcDbText
  0
TEXT
  5
11CE
330
1F
100
AcDbEntity
  8
0
 62
     3
100
AcDbText
 10
947.8674247652044
 20
121.8247018991889
 30
0.0
 40
3.2
  1
70Lx
  7
高3.2
100
AcDbText
  0
TEXT
  5
11CF
330
1F
100
AcDbEntity
  8
0
 62
     3
100
AcDbText
 10
947.8674247652044
 20
116.3247018991888
 30
0.0
 40
3.2
  1
30Lx
  7
高3.2
100
AcDbText
  0
TEXT
  5
11D0
330
1F
100
AcDbEntity
  8
0
 62
     3
100
AcDbText
 10
947.8674247652044
 20
110.8247018991889
 30
0.0
 40
3.2
  1
20Lx
  7
高3.2
100
AcDbText
  0
TEXT
  5
11D1
330
1F
100
AcDbEntity
  8
0
 62
     3
100
AcDbText
 10
947.8674247652044
 20
105.3247018991889
 30
0.0
 40
3.2
  1
10Lx
  7
高3.2
100
AcDbText
  0
TEXT
  5
11D2
330
1F
100
AcDbEntity
  8
0
 62
     3
100
AcDbText
 10
947.8674247652044
 20
99.82470189918868
 30
0.0
 40
3.2
  1
15000時間
  7
高3.2
100
AcDbText
  0
TEXT
  5
11D3
330
1F
100
AcDbEntity
  8
0
 62
     3
100
AcDbText
 10
947.8674247652044
 20
94.32470189918868
 30
0.0
 40
3.2
  1
-10～40℃
  7
高3.2
100
AcDbText
  0
LINE
  5
11D4
330
1F
100
AcDbEntity
  8
0
 62
     3
100
AcDbLine
 10
921.5054332412992
 20
208.8247018991889
 30
0.0
 11
921.5054332412992
 21
87.824701899189
 31
0.0
  0
LINE
  5
11D5
330
1F
100
AcDbEntity
  8
0
 62
     7
100
AcDbLine
 10
946.3674247652044
 20
87.824701899189
 30
0.0
 11
946.3674247652042
 21
208.8247018991889
 31
0.0
  0
LINE
  5
11D6
330
1F
100
AcDbEntity
  8
0
 62
     3
100
AcDbLine
 10
990.2383724034387
 20
87.824701899189
 30
0.0
 11
990.2383724034387
 21
208.8247018991889
 31
0.0
  0
TEXT
  5
11D7
330
1F
100
AcDbEntity
  8
0
 62
     3
100
AcDbText
 10
938.7171110009963
 20
213.5585137762189
 30
0.0
 40
4.5
  1
主　　仕　　様
  7
高4.5
100
AcDbText
  0
LINE
  5
11D8
330
1F
100
AcDbEntity
  8
0
100
AcDbLine
 10
937.6161966332425
 20
212.6927606923761
 30
0.0
 11
976.2084169129282
 21
212.6927606923761
 31
0.0
  0
TEXT
  5
11D9
330
1F
100
AcDbEntity
  8
0
 62
     7
100
AcDbText
 10
920.3755229052222
 20
77.54883785875307
 30
0.0
 40
2.0
  1
注３）照度は当社実測値の為、使用環境下により異なります。
  7
高2
100
AcDbText
  0
TEXT
  5
11DA
330
1F
100
AcDbEntity
  8
0
 62
     7
100
AcDbText
 10
920.3755229052222
 20
74.54883785875307
 30
0.0
 40
2.0
  1
注４）球寿命は光束が70%%%に低下するまでの時間です。
  7
高2
100
AcDbText
  0
TEXT
  5
11DB
330
1F
100
AcDbEntity
  8
0
 62
     7
100
AcDbText
 10
920.3755229052222
 20
71.54883785875307
 30
0.0
 40
2.0
  1
　　　表示は設計値であり、製品の寿命を保証するものではありません。
  7
高2
100
AcDbText
  0
TEXT
  5
11DC
330
1F
100
AcDbEntity
  8
0
 62
     7
100
AcDbText
 10
920.3755229052222
 20
80.54883785875309
 30
0.0
 40
2.0
  1
注２）LEDの光源色、明るさにはバラツキがあります。
  7
高2
100
AcDbText
  0
TEXT
  5
11DD
330
1F
100
AcDbEntity
  8
0
 62
     7
100
AcDbText
 10
920.3755229052222
 20
83.54883785875309
 30
0.0
 40
2.0
  1
注１）当器具のLED素子交換はできません。
  7
高2
100
AcDbText
  0
TEXT
  5
11DE
330
1F
100
AcDbEntity
  8
0
 62
     7
100
AcDbText
 10
920.3755229052222
 20
68.54883785875307
 30
0.0
 40
2.0
  1
注５）安全にご使用いただくため、取扱説明書をご参照ください。
  7
高2
100
AcDbText
  0
TEXT
  5
11DF
330
1F
100
AcDbEntity
  8
0
 62
     3
100
AcDbText
 10
923.005433241299
 20
204.324701899189
 30
0.0
 40
3.2
  1
型　　　式
 41
0.8000000000000002
  7
高3.2
100
AcDbText
  0
LINE
  5
11E0
330
1F
100
AcDbEntity
  8
0
 62
     3
100
AcDbLine
 10
921.5054332412992
 20
208.8247018991889
 30
0.0
 11
990.2383724034387
 21
208.8247018991889
 31
0.0
  0
TEXT
  5
11E1
330
1F
100
AcDbEntity
  8
0
 62
     3
100
AcDbText
 10
947.8674247652044
 20
204.324701899189
 30
0.0
 40
3.2
  1
LFC-12WB-50K
  7
高3.2
100
AcDbText
  0
TEXT
  5
11E2
330
1F
100
AcDbEntity
  8
0
 62
     7
100
AcDbText
 10
920.3755229052222
 20
65.54883785875307
 30
0.0
 40
2.0
  1
注６）仕様変更は予告なく行う場合があります。予めご了承ください。
  7
高2
100
AcDbText
  0
TEXT
  5
11E3
330
1F
100
AcDbEntity
  8
0
 62
     3
100
AcDbText
 10
923.005433241299
 20
187.8247018991889
 30
0.0
 40
3.2
  1
口金サイズ
 41
0.8000000000000002
  7
高3.2
100
AcDbText
  0
LINE
  5
11E4
330
1F
100
AcDbEntity
  8
0
 62
     7
100
AcDbLine
 10
921.5054332412992
 20
192.3247018991889
 30
0.0
 11
990.2383724034387
 21
192.3247018991889
 31
0.0
  0
TEXT
  5
11E5
330
1F
100
AcDbEntity
  8
0
 62
     3
100
AcDbText
 10
947.8674247652044
 20
187.8247018991889
 30
0.0
 40
3.2
  1
E26
  7
高3.2
100
AcDbText
  0
TEXT
  5
11E6
330
1F
100
AcDbEntity
  8
0
 62
     3
100
AcDbText
 10
947.8674247652044
 20
88.82470189918878
 30
0.0
 40
3.2
  1
44g
  7
高3.2
100
AcDbText
  0
TEXT
  5
11E7
330
1F
100
AcDbEntity
  8
0
 62
     3
100
AcDbText
 10
923.0054332412992
 20
88.82470189918878
 30
0.0
 40
3.2
  1
質　　　量
 41
0.8000000000000002
  7
高3.2
100
AcDbText
  0
TEXT
  5
11E8
330
1F
100
AcDbEntity
  8
0
 62
     3
100
AcDbText
 10
923.005433241299
 20
193.3247018991889
 30
0.0
 40
3.2
  1
使用　場所
 41
0.8000000000000002
  7
高3.2
100
AcDbText
  0
TEXT
  5
11E9
330
1F
100
AcDbEntity
  8
0
 62
     3
100
AcDbText
 10
947.8674247652044
 20
193.3247018991889
 30
0.0
 40
3.2
  1
屋内型
  7
高3.2
100
AcDbText
  0
DIMENSION
  5
11EA
102
{ACAD_REACTORS
330
11F8
102
}
102
{ACAD_XDICTIONARY
360
11F7
102
}
330
1F
100
AcDbEntity
  8
0
100
AcDbDimension
  2
*D4
 10
890.2053120564588
 20
76.1246016585883
 30
0.0
 11
876.7372659791838
 21
76.1246016585883
 31
0.0
 70
   160
  1
E26
 71
     5
 42
27.00049587962667
  3
1：1
100
AcDbAlignedDimension
 13
863.2048161768321
 23
106.3576730499828
 33
0.0
 14
890.2053120564588
 24
108.0803841352867
 34
0.0
100
AcDbRotatedDimension
1001
ACAD
1000
DSTYLE
1002
{
1070
   340
1005
11
1002
}
  0
TEXT
  5
1242
330
1F
100
AcDbEntity
  8
0
100
AcDbText
 10
993.482312910407
 20
29.95190512430596
 30
0.0
 40
3.2
  1
N
  7
高3.2
100
AcDbText
  0
LINE
  5
12C1
330
1F
100
AcDbEntity
  8
0
 62
     3
100
AcDbLine
 10
1000.865151111603
 20
53.86244199788916
 30
0.0
 11
949.2657871116024
 21
53.86244199788916
 31
0.0
  0
TEXT
  5
12C2
330
1F
100
AcDbEntity
  8
0
 62
     3
100
AcDbText
 10
955.5238590557086
 20
48.36856385363743
 30
0.0
 40
4.5
  1
コード
  7
高4.5
100
AcDbText
  0
LINE
  5
12C3
330
1F
100
AcDbEntity
  8
0
 62
     3
100
AcDbLine
 10
975.2657871116024
 20
47.86244199788917
 30
0.0
 11
975.2657871116024
 21
53.86244199788916
 31
0.0
  0
LINE
  5
12C4
330
1F
100
AcDbEntity
  8
0
 62
     3
100
AcDbLine
 10
949.2657871116024
 20
47.86244199788917
 30
0.0
 11
949.2657871116024
 21
53.86244199788916
 31
0.0
  0
TEXT
  5
12C5
330
1F
100
AcDbEntity
  8
0
 62
     3
100
AcDbText
 10
979.1001309823201
 20
48.67027625631754
 30
0.0
 40
4.5
  1
13117
  7
高4.5
100
AcDbText
  0
ENDSEC
  0
SECTION
  2
OBJECTS
  0
DICTIONARY
  5
C
330
0
100
AcDbDictionary
281
     1
  3
ACAD_COLOR
350
73
  3
ACAD_DGNDEFINITIONS
350
B1D
  3
ACAD_DWFDEFINITIONS
350
B1C
  3
ACAD_GROUP
350
D
  3
ACAD_LAYOUT
350
1A
  3
ACAD_MATERIAL
350
72
  3
ACAD_MLEADERSTYLE
350
168
  3
ACAD_MLINESTYLE
350
17
  3
ACAD_PDFDEFINITIONS
350
B1B
  3
ACAD_PLOTSETTINGS
350
19
  3
ACAD_PLOTSTYLENAME
350
E
  3
ACAD_SCALELIST
350
156
  3
ACAD_TABLESTYLE
350
86
  3
ACAD_VISUALSTYLE
350
99
  3
ACDBHEADERROUNDTRIPXREC
350
14E9
  3
AcDbVariableDictionary
350
66
  3
DWGPROPS
350
14EC
  0
DICTIONARY
  5
14ED
330
8
100
AcDbDictionary
280
     1
281
     1
  3
ACAD_XREC_ROUNDTRIP
360
14EE
  0
DICTIONARY
  5
DD
330
2
100
AcDbDictionary
280
     1
281
     1
  3
ACAD_LAYERSTATES
360
DE
  0
DICTIONARY
  5
81D
330
10
100
AcDbDictionary
280
     1
281
     1
  3
ADSK_XREC_LAYER_RECONCILED
360
81E
  0
DICTIONARY
  5
31A
330
1F
100
AcDbDictionary
280
     1
281
     1
  3
ACAD_SORTENTS
360
31B
  0
DICTIONARY
  5
CF6
330
CF5
100
AcDbDictionary
280
     1
281
     1
  3
ACAD_DIMASSOC
360
CF7
  0
DICTIONARY
  5
CF9
330
CF8
100
AcDbDictionary
280
     1
281
     1
  3
ACAD_DIMASSOC
360
CFA
  0
DICTIONARY
  5
11F7
330
11EA
100
AcDbDictionary
280
     1
281
     1
  3
ACAD_DIMASSOC
360
11F8
  0
DICTIONARY
  5
73
102
{ACAD_REACTORS
330
C
102
}
330
C
100
AcDbDictionary
281
     1
  0
DICTIONARY
  5
B1D
102
{ACAD_REACTORS
330
C
102
}
330
C
100
AcDbDictionary
281
     1
  0
DICTIONARY
  5
B1C
102
{ACAD_REACTORS
330
C
102
}
330
C
100
AcDbDictionary
281
     1
  0
DICTIONARY
  5
D
102
{ACAD_REACTORS
330
C
102
}
330
C
100
AcDbDictionary
281
     1
  0
DICTIONARY
  5
1A
102
{ACAD_REACTORS
330
C
102
}
330
C
100
AcDbDictionary
281
     1
  3
Model
350
22
  3
レイアウト1
350
59
  3
レイアウト2
350
5E
  0
DICTIONARY
  5
72
102
{ACAD_REACTORS
330
C
102
}
330
C
100
AcDbDictionary
281
     1
  3
ByBlock
350
97
  3
ByLayer
350
96
  3
Global
350
98
  0
DICTIONARY
  5
168
102
{ACAD_REACTORS
330
C
102
}
330
C
100
AcDbDictionary
281
     1
  3
Standard
350
169
  0
DICTIONARY
  5
17
102
{ACAD_REACTORS
330
C
102
}
330
C
100
AcDbDictionary
281
     1
  3
Standard
350
18
  0
DICTIONARY
  5
B1B
102
{ACAD_REACTORS
330
C
102
}
330
C
100
AcDbDictionary
281
     1
  0
DICTIONARY
  5
19
102
{ACAD_REACTORS
330
C
102
}
330
C
100
AcDbDictionary
281
     1
  0
ACDBDICTIONARYWDFLT
  5
E
102
{ACAD_REACTORS
330
C
102
}
330
C
100
AcDbDictionary
281
     1
  3
Normal
350
F
100
AcDbDictionaryWithDefault
340
F
  0
DICTIONARY
  5
156
102
{ACAD_REACTORS
330
C
102
}
330
C
100
AcDbDictionary
281
     1
  3
A0
350
157
  3
A1
350
158
  3
A2
350
159
  3
A3
350
15A
  3
A4
350
15B
  3
A5
350
15C
  3
A6
350
15D
  3
A7
350
15E
  3
A8
350
15F
  3
A9
350
160
  3
B0
350
161
  3
B1
350
162
  3
B2
350
163
  3
B3
350
164
  3
B4
350
165
  3
B5
350
166
  3
B6
350
167
  0
DICTIONARY
  5
86
102
{ACAD_REACTORS
330
C
102
}
330
C
100
AcDbDictionary
281
     1
  3
Standard
350
87
  0
DICTIONARY
  5
99
102
{ACAD_REACTORS
330
C
102
}
330
C
100
AcDbDictionary
281
     1
  3
2dWireframe
350
9F
  3
3D Hidden
350
A1
  3
3dWireframe
350
A0
  3
Basic
350
9E
  3
Brighten
350
A5
  3
ColorChange
350
A9
  3
Conceptual
350
A2
  3
Dim
350
A4
  3
EdgeColorOff
350
155
  3
Facepattern
350
A8
  3
Flat
350
9A
  3
FlatWithEdges
350
9B
  3
Gouraud
350
9C
  3
GouraudWithEdges
350
9D
  3
Hidden
350
14D
  3
JitterOff
350
153
  3
Linepattern
350
A7
  3
OverhangOff
350
154
  3
Realistic
350
A3
  3
Shaded
350
152
  3
Shaded with edges
350
151
  3
Shades of Gray
350
14E
  3
Sketchy
350
14F
  3
Thicken
350
A6
  3
Wireframe
350
14C
  3
X-Ray
350
150
  0
DICTIONARY
  5
14E9
102
{ACAD_REACTORS
330
C
102
}
330
C
100
AcDbDictionary
281
     1
  3
COLORDICT
350
14EA
  3
MATERIALDICT
350
14EB
  0
DICTIONARY
  5
66
102
{ACAD_REACTORS
330
C
102
}
330
C
100
AcDbDictionary
281
     1
  3
CANNOSCALE
350
14A4
  3
CMLEADERSTYLE
350
243
  3
CTABLESTYLE
350
89
  3
DIMASSOC
350
67
  3
HIDETEXT
350
6B
  3
INDEXCTL
350
870
  3
LAYEREVAL
350
247
  3
LAYERNOTIFY
350
248
  3
LIGHTINGUNITS
350
246
  3
MSLTSCALE
350
244
  3
SORTENTS
350
86F
  3
XCLIPFRAME
350
B19
  0
XRECORD
  5
14EC
102
{ACAD_REACTORS
330
C
102
}
330
C
100
AcDbXrecord
280
     1
  1
DWGPROPS COOKIE
  2

  3

  4

  6

  7

  8
nakashinde
  9

300
=
301
=
302
=
303
=
304
=
305
=
306
=
307
=
308
=
309
=
 40
0.0
 41
2459872.046470451
 42
2459881.073631169
  1

 90
        0
  0
XRECORD
  5
14EE
102
{ACAD_REACTORS
330
14ED
102
}
330
14ED
100
AcDbXrecord
280
     1
102
VTR_0.000_0.000_1.000_1.000_VISUALSTYLE
340
9F
102
VTR_0.000_0.000_1.000_1.000_GRIDDISPLAY
 70
     2
102
VTR_0.000_0.000_1.000_1.000_GRIDMAJOR
 70
     5
102
VTR_0.000_0.000_1.000_1.000_DEFAULTLIGHTING
280
     1
102
VTR_0.000_0.000_1.000_1.000_DEFAULTLIGHTINGTYPE
 70
     1
102
VTR_0.000_0.000_1.000_1.000_BRIGHTNESS
141
0.0
102
VTR_0.000_0.000_1.000_1.000_CONTRAST
142
0.0
  0
DICTIONARY
  5
DE
102
{ACAD_REACTORS
330
DD
102
}
330
DD
100
AcDbDictionary
281
     1
  0
XRECORD
  5
81E
102
{ACAD_REACTORS
330
81D
102
}
330
81D
100
AcDbXrecord
280
     1
290
     1
  0
SORTENTSTABLE
  5
31B
102
{ACAD_REACTORS
330
31A
102
}
330
31A
100
AcDbSortentsTable
330
1F
331
0
  5
878
331
876
  5
876
331
877
  5
877
331
879
  5
879
331
87A
  5
87A
331
8F9
  5
8F9
331
8FB
  5
8FB
331
8FC
  5
8FC
331
8FD
  5
8FD
331
8FE
  5
8FE
331
8FF
  5
8FF
331
900
  5
900
331
901
  5
901
331
902
  5
902
331
903
  5
903
331
904
  5
904
331
905
  5
905
331
906
  5
906
331
907
  5
907
331
908
  5
908
331
909
  5
909
331
90A
  5
90A
331
90B
  5
90B
331
90C
  5
90C
331
90D
  5
90D
331
90E
  5
90E
331
90F
  5
90F
331
910
  5
910
331
911
  5
911
331
912
  5
912
331
913
  5
913
331
914
  5
914
331
915
  5
915
331
916
  5
916
331
917
  5
917
331
918
  5
918
331
919
  5
919
331
91A
  5
91A
331
91B
  5
91B
331
91C
  5
91C
331
91D
  5
91D
331
91E
  5
91E
331
91F
  5
91F
331
920
  5
920
331
921
  5
921
331
922
  5
922
331
923
  5
923
331
924
  5
924
331
925
  5
925
331
926
  5
926
331
927
  5
927
331
928
  5
928
331
929
  5
929
331
92A
  5
92A
331
92B
  5
92B
  0
DIMASSOC
  5
CF7
102
{ACAD_REACTORS
330
CF6
102
}
330
CF6
100
AcDbDimAssoc
330
CF5
 90
        3
 70
     0
 71
     0
  1
AcDbOsnapPointRef
 72
     5
331
C41
 73
     2
 91
        0
 40
9.42477796076938
 10
0.0
 20
0.0
 30
0.0
 75
     0
  1
AcDbOsnapPointRef
 72
     5
331
C41
 73
     2
 91
        0
 40
6.283185307179586
 10
0.0
 20
0.0
 30
0.0
 75
     0
  0
DIMASSOC
  5
CFA
102
{ACAD_REACTORS
330
CF9
102
}
330
CF9
100
AcDbDimAssoc
330
CF8
 90
        3
 70
     0
 71
     0
  1
AcDbOsnapPointRef
 72
     9
331
C41
 73
     2
 91
        0
 40
7.85541347000955
 10
0.0
 20
0.0
 30
0.0
 75
     1
  1
AcDbOsnapPointRef
 72
     0
 40
0.0
 10
0.0
 20
0.0
 30
0.0
 75
     0
  1
AcDbOsnapPointRef
 72
     2
331
C84
 73
     2
 91
        0
 40
0.5
 10
0.0
 20
0.0
 30
0.0
 75
     0
  0
DIMASSOC
  5
11F8
102
{ACAD_REACTORS
330
11F7
102
}
330
11F7
100
AcDbDimAssoc
330
11EA
 90
        1
 70
     0
 71
     0
  1
AcDbOsnapPointRef
 72
    13
331
C76
 73
     2
 91
        0
 40
3.164342018547959
 10
0.0
 20
0.0
 30
2.000000000000000E+50
 75
     0
  0
LAYOUT
  5
22
102
{ACAD_REACTORS
330
1A
102
}
330
1A
100
AcDbPlotSettings
  1

  2
none_device
  4
ANSI_A_(8.50_x_11.00_Inches)
  6

 40
6.349999904632568
 41
19.04999923706055
 42
6.350006103515625
 43
19.04998779296875
 44
215.8999938964844
 45
279.3999938964844
 46
0.0
 47
0.0
 48
0.0
 49
0.0
140
0.0
141
0.0
142
1.0
143
2.584895464708374
 70
 11952
 72
     0
 73
     1
 74
     0
  7

 75
     0
147
0.3868628397755418
148
0.0
149
0.0
100
AcDbLayout
  1
Model
 70
     1
 71
     0
 10
0.0
 20
0.0
 11
12.0
 21
9.0
 12
0.0
 22
0.0
 32
0.0
 14
809.2657871116024
 24
7.862441997889164
 34
0.0
 15
1001.265787111602
 25
288.2087941442932
 35
0.0
146
0.0
 13
0.0
 23
0.0
 33
0.0
 16
1.0
 26
0.0
 36
0.0
 17
0.0
 27
1.0
 37
0.0
 76
     0
330
1F
331
94
  0
LAYOUT
  5
59
102
{ACAD_REACTORS
330
1A
102
}
330
1A
100
AcDbPlotSettings
  1

  2
None
  4

  6

 40
0.0
 41
0.0
 42
0.0
 43
0.0
 44
0.0
 45
0.0
 46
0.0
 47
0.0
 48
0.0
 49
0.0
140
0.0
141
0.0
142
1.0
143
1.0
 70
   688
 72
     0
 73
     0
 74
     5
  7

 75
    16
147
1.0
148
0.0
149
0.0
100
AcDbLayout
  1
レイアウト1
 70
     1
 71
     1
 10
0.0
 20
0.0
 11
12.0
 21
9.0
 12
0.0
 22
0.0
 32
0.0
 14
0.0
 24
0.0
 34
0.0
 15
0.0
 25
0.0
 35
0.0
146
0.0
 13
0.0
 23
0.0
 33
0.0
 16
1.0
 26
0.0
 36
0.0
 17
0.0
 27
1.0
 37
0.0
 76
     0
330
58
  0
LAYOUT
  5
5E
102
{ACAD_REACTORS
330
1A
102
}
330
1A
100
AcDbPlotSettings
  1

  2
None
  4

  6

 40
0.0
 41
0.0
 42
0.0
 43
0.0
 44
0.0
 45
0.0
 46
0.0
 47
0.0
 48
0.0
 49
0.0
140
0.0
141
0.0
142
1.0
143
1.0
 70
   688
 72
     0
 73
     0
 74
     5
  7

 75
    16
147
1.0
148
0.0
149
0.0
100
AcDbLayout
  1
レイアウト2
 70
     1
 71
     2
 10
0.0
 20
0.0
 11
12.0
 21
9.0
 12
0.0
 22
0.0
 32
0.0
 14
0.0
 24
0.0
 34
0.0
 15
0.0
 25
0.0
 35
0.0
146
0.0
 13
0.0
 23
0.0
 33
0.0
 16
1.0
 26
0.0
 36
0.0
 17
0.0
 27
1.0
 37
0.0
 76
     0
330
5D
  0
MATERIAL
  5
97
102
{ACAD_REACTORS
330
72
102
}
102
{ACAD_XDICTIONARY
360
14EF
102
}
330
72
100
AcDbMaterial
  1
ByBlock
  0
MATERIAL
  5
96
102
{ACAD_REACTORS
330
72
102
}
102
{ACAD_XDICTIONARY
360
14F1
102
}
330
72
100
AcDbMaterial
  1
ByLayer
  0
MATERIAL
  5
98
102
{ACAD_REACTORS
330
72
102
}
102
{ACAD_XDICTIONARY
360
14F3
102
}
330
72
100
AcDbMaterial
  1
Global
  0
MLEADERSTYLE
  5
169
102
{ACAD_REACTORS
330
168
102
}
102
{ACAD_XDICTIONARY
360
14F5
102
}
330
168
100
AcDbMLeaderStyle
170
     2
171
     1
172
     0
 90
        2
 40
0.0
 41
0.0
173
     1
 91
-1056964608
340
14
 92
       -2
290
     1
 42
2.0
291
     1
 43
0.36
  3
Standard
341
0
 44
4.0
300

342
11
174
     1
178
     6
175
     1
176
     0
 93
-1056964608
 45
4.0
292
     0
297
     0
 46
4.0
343
0
 94
-1056964608
 47
1.0
 49
1.0
140
1.0
293
     1
141
0.0
294
     1
177
     0
142
1.0
295
     0
296
     0
143
0.125
1001
ACAD_MLEADERVER
1070
     2
  0
MLINESTYLE
  5
18
102
{ACAD_REACTORS
330
17
102
}
330
17
100
AcDbMlineStyle
  2
STANDARD
 70
     0
  3

 62
   256
 51
90.0
 52
90.0
 71
     2
 49
0.5
 62
   256
  6
BYLAYER
 49
-0.5
 62
   256
  6
BYLAYER
  0
ACDBPLACEHOLDER
  5
F
102
{ACAD_REACTORS
330
E
102
}
330
E
  0
SCALE
  5
157
102
{ACAD_REACTORS
330
156
102
}
330
156
100
AcDbScale
 70
     0
300
1:1
140
1.0
141
1.0
290
     1
  0
SCALE
  5
158
102
{ACAD_REACTORS
330
156
102
}
330
156
100
AcDbScale
 70
     0
300
1:2
140
1.0
141
2.0
290
     0
  0
SCALE
  5
159
102
{ACAD_REACTORS
330
156
102
}
330
156
100
AcDbScale
 70
     0
300
1:4
140
1.0
141
4.0
290
     0
  0
SCALE
  5
15A
102
{ACAD_REACTORS
330
156
102
}
330
156
100
AcDbScale
 70
     0
300
1:5
140
1.0
141
5.0
290
     0
  0
SCALE
  5
15B
102
{ACAD_REACTORS
330
156
102
}
330
156
100
AcDbScale
 70
     0
300
1:8
140
1.0
141
8.0
290
     0
  0
SCALE
  5
15C
102
{ACAD_REACTORS
330
156
102
}
330
156
100
AcDbScale
 70
     0
300
1:10
140
1.0
141
10.0
290
     0
  0
SCALE
  5
15D
102
{ACAD_REACTORS
330
156
102
}
330
156
100
AcDbScale
 70
     0
300
1:16
140
1.0
141
16.0
290
     0
  0
SCALE
  5
15E
102
{ACAD_REACTORS
330
156
102
}
330
156
100
AcDbScale
 70
     0
300
1:20
140
1.0
141
20.0
290
     0
  0
SCALE
  5
15F
102
{ACAD_REACTORS
330
156
102
}
330
156
100
AcDbScale
 70
     0
300
1:30
140
1.0
141
30.0
290
     0
  0
SCALE
  5
160
102
{ACAD_REACTORS
330
156
102
}
330
156
100
AcDbScale
 70
     0
300
1:40
140
1.0
141
40.0
290
     0
  0
SCALE
  5
161
102
{ACAD_REACTORS
330
156
102
}
330
156
100
AcDbScale
 70
     0
300
1:50
140
1.0
141
50.0
290
     0
  0
SCALE
  5
162
102
{ACAD_REACTORS
330
156
102
}
330
156
100
AcDbScale
 70
     0
300
1:100
140
1.0
141
100.0
290
     0
  0
SCALE
  5
163
102
{ACAD_REACTORS
330
156
102
}
330
156
100
AcDbScale
 70
     0
300
2:1
140
2.0
141
1.0
290
     0
  0
SCALE
  5
164
102
{ACAD_REACTORS
330
156
102
}
330
156
100
AcDbScale
 70
     0
300
4:1
140
4.0
141
1.0
290
     0
  0
SCALE
  5
165
102
{ACAD_REACTORS
330
156
102
}
330
156
100
AcDbScale
 70
     0
300
8:1
140
8.0
141
1.0
290
     0
  0
SCALE
  5
166
102
{ACAD_REACTORS
330
156
102
}
330
156
100
AcDbScale
 70
     0
300
10:1
140
10.0
141
1.0
290
     0
  0
SCALE
  5
167
102
{ACAD_REACTORS
330
156
102
}
330
156
100
AcDbScale
 70
     0
300
100:1
140
100.0
141
1.0
290
     0
  0
TABLESTYLE
  5
87
102
{ACAD_REACTORS
330
86
102
}
330
86
100
AcDbTableStyle
  3
Standard
 70
     0
 71
     0
 40
0.06
 41
0.06
280
     0
281
     0
  7
Standard
140
0.18
170
     2
 62
     0
 63
   257
283
     0
274
    -2
284
     1
 64
     0
275
    -2
285
     1
 65
     0
276
    -2
286
     1
 66
     0
277
    -2
287
     1
 67
     0
278
    -2
288
     1
 68
     0
279
    -2
289
     1
 69
     0
  7
Standard
140
0.25
170
     5
 62
     0
 63
   257
283
     0
274
    -2
284
     1
 64
     0
275
    -2
285
     1
 65
     0
276
    -2
286
     1
 66
     0
277
    -2
287
     1
 67
     0
278
    -2
288
     1
 68
     0
279
    -2
289
     1
 69
     0
  7
Standard
140
0.18
170
     5
 62
     0
 63
   257
283
     0
274
    -2
284
     1
 64
     0
275
    -2
285
     1
 65
     0
276
    -2
286
     1
 66
     0
277
    -2
287
     1
 67
     0
278
    -2
288
     1
 68
     0
279
    -2
289
     1
 69
     0
  0
VISUALSTYLE
  5
9F
102
{ACAD_REACTORS
330
99
102
}
102
{ACAD_XDICTIONARY
360
14F7
102
}
330
99
100
AcDbVisualStyle
  2
2dWireframe
 70
     4
 71
     0
 72
     2
 73
     1
 90
        0
 40
-0.6
 41
-30.0
 62
     5
 63
     7
 74
     1
 91
        4
 64
     7
 65
   257
 75
     1
175
     1
 42
1.0
 92
        0
 66
   257
 43
1.0
 76
     1
 77
     6
 78
     2
 67
     7
 79
     5
170
     0
171
     0
290
     0
174
     0
 93
        1
 44
0.0
173
     0
291
     0
 45
0.0
1001
ACAD
1000
AcDbSavedByObjectVersion
1070
     0
  0
VISUALSTYLE
  5
A1
102
{ACAD_REACTORS
330
99
102
}
102
{ACAD_XDICTIONARY
360
14F9
102
}
330
99
100
AcDbVisualStyle
  2
3D Hidden
 70
     6
 71
     1
 72
     2
 73
     2
 90
        0
 40
-0.6
 41
-30.0
 62
     5
 63
     7
 74
     2
 91
        2
 64
     7
 65
   257
 75
     2
175
     1
 42
40.0
 92
        0
 66
   257
 43
1.0
 76
     1
 77
     6
 78
     2
 67
     7
 79
     3
170
     0
171
     0
290
     0
174
     0
 93
        1
 44
0.0
173
     0
291
     0
 45
0.0
1001
ACAD
1000
AcDbSavedByObjectVersion
1070
     0
  0
VISUALSTYLE
  5
A0
102
{ACAD_REACTORS
330
99
102
}
102
{ACAD_XDICTIONARY
360
14FB
102
}
330
99
100
AcDbVisualStyle
  2
3dWireframe
 70
     5
 71
     0
 72
     2
 73
     1
 90
        0
 40
-0.6
 41
-30.0
 62
     5
 63
     7
 74
     1
 91
        4
 64
     7
 65
   257
 75
     1
175
     1
 42
1.0
 92
        0
 66
   257
 43
1.0
 76
     1
 77
     6
 78
     2
 67
     7
 79
     5
170
     0
171
     0
290
     0
174
     0
 93
        1
 44
0.0
173
     0
291
     0
 45
0.0
1001
ACAD
1000
AcDbSavedByObjectVersion
1070
     0
  0
VISUALSTYLE
  5
9E
102
{ACAD_REACTORS
330
99
102
}
102
{ACAD_XDICTIONARY
360
14FD
102
}
330
99
100
AcDbVisualStyle
  2
Basic
 70
     7
 71
     1
 72
     0
 73
     1
 90
        0
 40
-0.6
 41
-30.0
 62
     5
 63
     7
 74
     0
 91
        4
 64
     7
 65
   257
 75
     1
175
     1
 42
1.0
 92
        8
 66
     7
 43
1.0
 76
     1
 77
     6
 78
     2
 67
     7
 79
     5
170
     0
171
     0
290
     0
174
     0
 93
        1
 44
0.0
173
     0
291
     1
 45
0.0
1001
ACAD
1000
AcDbSavedByObjectVersion
1070
     0
  0
VISUALSTYLE
  5
A5
102
{ACAD_REACTORS
330
99
102
}
102
{ACAD_XDICTIONARY
360
14FF
102
}
330
99
100
AcDbVisualStyle
  2
Brighten
 70
    12
 71
     2
 72
     2
 73
     1
 90
        0
 40
-0.6
 41
-30.0
 62
     5
 63
     7
 74
     1
 91
        4
 64
     7
 65
   257
 75
     1
175
     1
 42
1.0
 92
        8
 66
     7
 43
1.0
 76
     1
 77
     6
 78
     2
 67
     7
 79
     5
170
     0
171
     0
290
     0
174
     0
 93
        1
 44
50.0
173
     0
291
     1
 45
0.0
1001
ACAD
1000
AcDbSavedByObjectVersion
1070
     0
  0
VISUALSTYLE
  5
A9
102
{ACAD_REACTORS
330
99
102
}
102
{ACAD_XDICTIONARY
360
1501
102
}
330
99
100
AcDbVisualStyle
  2
ColorChange
 70
    16
 71
     2
 72
     2
 73
     3
 90
        0
 40
-0.6
 41
-30.0
 62
     5
 63
     8
 74
     1
 91
        4
 64
     7
 65
   257
 75
     1
175
     1
 42
1.0
 92
        8
 66
     8
 43
1.0
 76
     1
 77
     6
 78
     2
 67
     7
 79
     5
170
     0
171
     0
290
     0
174
     0
 93
        1
 44
0.0
173
     0
291
     1
 45
0.0
1001
ACAD
1000
AcDbSavedByObjectVersion
1070
     0
  0
VISUALSTYLE
  5
A2
102
{ACAD_REACTORS
330
99
102
}
102
{ACAD_XDICTIONARY
360
1503
102
}
330
99
100
AcDbVisualStyle
  2
Conceptual
 70
     9
 71
     3
 72
     2
 73
     1
 90
        0
 40
-0.6
 41
-30.0
 62
     5
 63
     7
 74
     2
 91
        2
 64
     7
 65
   257
 75
     1
175
     1
 42
40.0
 92
        8
 66
     7
 43
1.0
 76
     1
 77
     6
 78
     2
 67
     7
 79
     3
170
     0
171
     0
290
     0
174
     0
 93
        1
 44
0.0
173
     0
291
     0
 45
0.0
1001
ACAD
1000
AcDbSavedByObjectVersion
1070
     0
  0
VISUALSTYLE
  5
A4
102
{ACAD_REACTORS
330
99
102
}
102
{ACAD_XDICTIONARY
360
1505
102
}
330
99
100
AcDbVisualStyle
  2
Dim
 70
    11
 71
     2
 72
     2
 73
     1
 90
        0
 40
-0.6
 41
-30.0
 62
     5
 63
     7
 74
     1
 91
        4
 64
     7
 65
   257
 75
     1
175
     1
 42
1.0
 92
        8
 66
     7
 43
1.0
 76
     1
 77
     6
 78
     2
 67
     7
 79
     5
170
     0
171
     0
290
     0
174
     0
 93
        1
 44
-50.0
173
     0
291
     1
 45
0.0
1001
ACAD
1000
AcDbSavedByObjectVersion
1070
     0
  0
VISUALSTYLE
  5
155
102
{ACAD_REACTORS
330
99
102
}
102
{ACAD_XDICTIONARY
360
1507
102
}
330
99
100
AcDbVisualStyle
  2
EdgeColorOff
 70
    22
 71
     2
 72
     2
 73
     0
 90
        0
 40
-0.6
 41
-30.0
 62
     5
 63
     7
 74
     1
 91
        4
 64
     7
 65
   257
 75
     1
175
     1
 42
1.0
 92
        8
 66
     7
 43
1.0
 76
     1
 77
     6
 78
     2
 67
     7
 79
     5
170
     0
171
     0
290
     0
174
     0
 93
        1
 44
0.0
173
     0
291
     1
 45
0.0
1001
ACAD
1000
AcDbSavedByObjectVersion
1070
     0
  0
VISUALSTYLE
  5
A8
102
{ACAD_REACTORS
330
99
102
}
102
{ACAD_XDICTIONARY
360
1509
102
}
330
99
100
AcDbVisualStyle
  2
Facepattern
 70
    15
 71
     2
 72
     2
 73
     1
 90
        0
 40
-0.6
 41
-30.0
 62
     5
 63
     7
 74
     1
 91
        4
 64
     7
 65
   257
 75
     1
175
     1
 42
1.0
 92
        8
 66
     7
 43
1.0
 76
     1
 77
     6
 78
     2
 67
     7
 79
     5
170
     0
171
     0
290
     0
174
     0
 93
        1
 44
0.0
173
     0
291
     1
 45
0.0
1001
ACAD
1000
AcDbSavedByObjectVersion
1070
     0
  0
VISUALSTYLE
  5
9A
102
{ACAD_REACTORS
330
99
102
}
102
{ACAD_XDICTIONARY
360
150B
102
}
330
99
100
AcDbVisualStyle
  2
Flat
 70
     0
 71
     2
 72
     1
 73
     1
 90
        2
 40
-0.6
 41
30.0
 62
     5
 63
     7
 74
     0
 91
        4
 64
     7
 65
   257
 75
     1
175
     1
 42
1.0
 92
        8
 66
     7
 43
1.0
 76
     1
 77
     6
 78
     2
 67
     7
 79
     5
170
     0
171
     0
290
     0
174
     0
 93
        1
 44
0.0
173
     0
291
     1
 45
0.0
1001
ACAD
1000
AcDbSavedByObjectVersion
1070
     0
  0
VISUALSTYLE
  5
9B
102
{ACAD_REACTORS
330
99
102
}
102
{ACAD_XDICTIONARY
360
150D
102
}
330
99
100
AcDbVisualStyle
  2
FlatWithEdges
 70
     1
 71
     2
 72
     1
 73
     1
 90
        2
 40
-0.6
 41
30.0
 62
     5
 63
     7
 74
     1
 91
        4
 64
     7
 65
   257
 75
     1
175
     1
 42
1.0
 92
        0
 66
   257
 43
1.0
 76
     1
 77
     6
 78
     2
 67
     7
 79
     5
170
     0
171
     0
290
     0
174
     0
 93
        1
 44
0.0
173
     0
291
     1
 45
0.0
1001
ACAD
1000
AcDbSavedByObjectVersion
1070
     0
  0
VISUALSTYLE
  5
9C
102
{ACAD_REACTORS
330
99
102
}
102
{ACAD_XDICTIONARY
360
150F
102
}
330
99
100
AcDbVisualStyle
  2
Gouraud
 70
     2
 71
     2
 72
     2
 73
     1
 90
        2
 40
-0.6
 41
30.0
 62
     5
 63
     7
 74
     0
 91
        4
 64
     7
 65
   257
 75
     1
175
     1
 42
1.0
 92
        0
 66
     7
 43
1.0
 76
     1
 77
     6
 78
     2
 67
     7
 79
     5
170
     0
171
     0
290
     0
174
     0
 93
        1
 44
0.0
173
     0
291
     1
 45
0.0
1001
ACAD
1000
AcDbSavedByObjectVersion
1070
     0
  0
VISUALSTYLE
  5
9D
102
{ACAD_REACTORS
330
99
102
}
102
{ACAD_XDICTIONARY
360
1511
102
}
330
99
100
AcDbVisualStyle
  2
GouraudWithEdges
 70
     3
 71
     2
 72
     2
 73
     1
 90
        2
 40
-0.6
 41
30.0
 62
     5
 63
     7
 74
     1
 91
        4
 64
     7
 65
   257
 75
     1
175
     1
 42
1.0
 92
        0
 66
   257
 43
1.0
 76
     1
 77
     6
 78
     2
 67
     7
 79
     5
170
     0
171
     0
290
     0
174
     0
 93
        1
 44
0.0
173
     0
291
     1
 45
0.0
1001
ACAD
1000
AcDbSavedByObjectVersion
1070
     0
  0
VISUALSTYLE
  5
14D
102
{ACAD_REACTORS
330
99
102
}
102
{ACAD_XDICTIONARY
360
1513
102
}
330
99
100
AcDbVisualStyle
  2
Hidden
 70
     6
 71
     1
 72
     2
 73
     2
 90
        0
 40
-0.6
 41
-30.0
 62
     5
 63
     7
 74
     2
 91
        2
 64
     7
 65
   257
 75
     2
175
     1
 42
40.0
 92
        0
 66
   257
 43
1.0
 76
     1
 77
     6
 78
     2
 67
     7
 79
     3
170
     0
171
     0
290
     0
174
     0
 93
        1
 44
0.0
173
     0
291
     0
 45
0.0
1001
ACAD
1000
AcDbSavedByObjectVersion
1070
     0
  0
VISUALSTYLE
  5
153
102
{ACAD_REACTORS
330
99
102
}
102
{ACAD_XDICTIONARY
360
1515
102
}
330
99
100
AcDbVisualStyle
  2
JitterOff
 70
    20
 71
     2
 72
     2
 73
     0
 90
        0
 40
-0.6
 41
-30.0
 62
     5
 63
     7
 74
     1
 91
        4
 64
     7
 65
   257
 75
     1
175
     1
 42
1.0
 92
       10
 66
     7
 43
1.0
 76
     1
 77
     6
 78
     2
 67
     7
 79
     5
170
     0
171
     0
290
     0
174
     0
 93
        1
 44
0.0
173
     0
291
     1
 45
0.0
1001
ACAD
1000
AcDbSavedByObjectVersion
1070
     0
  0
VISUALSTYLE
  5
A7
102
{ACAD_REACTORS
330
99
102
}
102
{ACAD_XDICTIONARY
360
1517
102
}
330
99
100
AcDbVisualStyle
  2
Linepattern
 70
    14
 71
     2
 72
     2
 73
     1
 90
        0
 40
-0.6
 41
-30.0
 62
     5
 63
     7
 74
     1
 91
        4
 64
     7
 65
   257
 75
     7
175
     7
 42
1.0
 92
        8
 66
     7
 43
1.0
 76
     1
 77
     6
 78
     2
 67
     7
 79
     5
170
     0
171
     0
290
     0
174
     0
 93
        1
 44
0.0
173
     0
291
     1
 45
0.0
1001
ACAD
1000
AcDbSavedByObjectVersion
1070
     0
  0
VISUALSTYLE
  5
154
102
{ACAD_REACTORS
330
99
102
}
102
{ACAD_XDICTIONARY
360
1519
102
}
330
99
100
AcDbVisualStyle
  2
OverhangOff
 70
    21
 71
     2
 72
     2
 73
     0
 90
        0
 40
-0.6
 41
-30.0
 62
     5
 63
     7
 74
     1
 91
        4
 64
     7
 65
   257
 75
     1
175
     1
 42
1.0
 92
        9
 66
     7
 43
1.0
 76
     1
 77
     6
 78
     2
 67
     7
 79
     5
170
     0
171
     0
290
     0
174
     0
 93
        1
 44
0.0
173
     0
291
     1
 45
0.0
1001
ACAD
1000
AcDbSavedByObjectVersion
1070
     0
  0
VISUALSTYLE
  5
A3
102
{ACAD_REACTORS
330
99
102
}
102
{ACAD_XDICTIONARY
360
151B
102
}
330
99
100
AcDbVisualStyle
  2
Realistic
 70
     8
 71
     2
 72
     2
 73
     1
 90
        0
 40
-0.6
 41
-30.0
 62
     5
 63
     7
 74
     1
 91
        0
 64
     7
 65
   257
 75
     1
175
     1
 42
1.0
 92
        8
 66
     8
 43
1.0
 76
     1
 77
     6
 78
     2
 67
     7
 79
     5
170
     0
171
     0
290
     0
174
     0
 93
       13
 44
0.0
173
     0
291
     0
 45
0.0
1001
ACAD
1000
AcDbSavedByObjectVersion
1070
     0
  0
VISUALSTYLE
  5
152
102
{ACAD_REACTORS
330
99
102
}
102
{ACAD_XDICTIONARY
360
151D
102
}
330
99
100
AcDbVisualStyle
  2
Shaded
 70
    27
 71
     2
 72
     2
 73
     1
 90
        2
 40
-0.6
 41
30.0
 62
     5
 63
     7
 74
     0
 91
        4
 64
     7
 65
   257
 75
     1
175
     1
 42
1.0
 92
        8
 66
   257
 43
1.0
 76
     1
 77
     6
 78
     2
 67
     8
 79
     3
170
     0
171
     0
290
     0
174
     0
 93
        5
 44
0.0
173
     0
291
     0
 45
0.0
1001
ACAD
1000
AcDbSavedByObjectVersion
1070
     0
  0
VISUALSTYLE
  5
151
102
{ACAD_REACTORS
330
99
102
}
102
{ACAD_XDICTIONARY
360
151F
102
}
330
99
100
AcDbVisualStyle
  2
Shaded with edges
 70
    26
 71
     2
 72
     2
 73
     1
 90
        2
 40
-0.6
 41
30.0
 62
     5
 63
     7
 74
     1
 91
       10
 64
     7
 65
   257
 75
     2
175
     1
 42
1.0
 92
        8
 66
   257
 43
1.0
 76
     1
 77
     6
 78
     2
 67
     7
 79
     3
170
     0
171
     0
290
     0
174
     0
 93
        5
 44
0.0
173
     0
291
     0
 45
0.0
1001
ACAD
1000
AcDbSavedByObjectVersion
1070
     0
  0
VISUALSTYLE
  5
14E
102
{ACAD_REACTORS
330
99
102
}
102
{ACAD_XDICTIONARY
360
1521
102
}
330
99
100
AcDbVisualStyle
  2
Shades of Gray
 70
    23
 71
     2
 72
     2
 73
     3
 90
        0
 40
-0.6
 41
-30.0
 62
     5
 63
     7
 74
     2
 91
        2
 64
     7
 65
     7
 75
     1
175
     1
 42
40.0
 92
        8
 66
     7
 43
1.0
 76
     1
 77
     6
 78
     2
 67
     7
 79
     3
170
     0
171
     0
290
     0
174
     0
 93
        1
 44
0.0
173
     0
291
     0
 45
0.0
1001
ACAD
1000
AcDbSavedByObjectVersion
1070
     0
  0
VISUALSTYLE
  5
14F
102
{ACAD_REACTORS
330
99
102
}
102
{ACAD_XDICTIONARY
360
1523
102
}
330
99
100
AcDbVisualStyle
  2
Sketchy
 70
    24
 71
     1
 72
     2
 73
     2
 90
        0
 40
-0.6
 41
-30.0
 62
     5
 63
     7
 74
     2
 91
        2
 64
     7
 65
     7
 75
     1
175
     1
 42
40.0
 92
       11
 66
     7
 43
1.0
 76
     1
 77
     6
 78
     2
 67
     7
 79
     6
170
     0
171
     0
290
     0
174
     0
 93
        1
 44
0.0
173
     0
291
     0
 45
0.0
1001
ACAD
1000
AcDbSavedByObjectVersion
1070
     0
  0
VISUALSTYLE
  5
A6
102
{ACAD_REACTORS
330
99
102
}
102
{ACAD_XDICTIONARY
360
1525
102
}
330
99
100
AcDbVisualStyle
  2
Thicken
 70
    13
 71
     2
 72
     2
 73
     1
 90
        0
 40
-0.6
 41
-30.0
 62
     5
 63
     7
 74
     1
 91
        4
 64
     7
 65
   257
 75
     1
175
     1
 42
1.0
 92
       12
 66
     7
 43
1.0
 76
     1
 77
     6
 78
     2
 67
     7
 79
     5
170
     0
171
     0
290
     0
174
     0
 93
        1
 44
0.0
173
     0
291
     1
 45
0.0
1001
ACAD
1000
AcDbSavedByObjectVersion
1070
     0
  0
VISUALSTYLE
  5
14C
102
{ACAD_REACTORS
330
99
102
}
102
{ACAD_XDICTIONARY
360
1527
102
}
330
99
100
AcDbVisualStyle
  2
Wireframe
 70
     5
 71
     0
 72
     2
 73
     0
 90
        0
 40
-0.6
 41
-30.0
 62
     5
 63
     7
 74
     1
 91
        4
 64
     7
 65
   257
 75
     1
175
     1
 42
1.0
 92
        0
 66
   257
 43
1.0
 76
     1
 77
     6
 78
     2
 67
     7
 79
     3
170
     0
171
     0
290
     0
174
     0
 93
        1
 44
0.0
173
     0
291
     0
 45
0.0
1001
ACAD
1000
AcDbSavedByObjectVersion
1070
     0
  0
VISUALSTYLE
  5
150
102
{ACAD_REACTORS
330
99
102
}
102
{ACAD_XDICTIONARY
360
1529
102
}
330
99
100
AcDbVisualStyle
  2
X-Ray
 70
    25
 71
     2
 72
     2
 73
     1
 90
        1
 40
0.5
 41
-30.0
 62
     5
 63
     7
 74
     1
 91
        0
 64
     7
 65
   257
 75
     1
175
     1
 42
1.0
 92
        8
 66
     7
 43
1.0
 76
     1
 77
     6
 78
     2
 67
     7
 79
     3
170
     0
171
     0
290
     0
174
     0
 93
       13
 44
0.0
173
     0
291
     0
 45
0.0
1001
ACAD
1000
AcDbSavedByObjectVersion
1070
     0
  0
XRECORD
  5
14EA
102
{ACAD_REACTORS
330
14E9
102
}
330
14E9
100
AcDbXrecord
280
     1
340
73
  0
XRECORD
  5
14EB
102
{ACAD_REACTORS
330
14E9
102
}
330
14E9
100
AcDbXrecord
280
     1
340
72
  0
DICTIONARYVAR
  5
14A4
102
{ACAD_REACTORS
330
66
102
}
330
66
100
DictionaryVariables
280
     0
  1
1:1
  0
DICTIONARYVAR
  5
243
102
{ACAD_REACTORS
330
66
102
}
330
66
100
DictionaryVariables
280
     0
  1
Standard
  0
DICTIONARYVAR
  5
89
102
{ACAD_REACTORS
330
66
102
}
330
66
100
DictionaryVariables
280
     0
  1
Standard
  0
DICTIONARYVAR
  5
67
102
{ACAD_REACTORS
330
66
102
}
330
66
100
DictionaryVariables
280
     0
  1
2
  0
DICTIONARYVAR
  5
6B
102
{ACAD_REACTORS
330
66
102
}
330
66
100
DictionaryVariables
280
     0
  1
1
  0
DICTIONARYVAR
  5
870
102
{ACAD_REACTORS
330
66
102
}
330
66
100
DictionaryVariables
280
     0
  1
0
  0
DICTIONARYVAR
  5
247
102
{ACAD_REACTORS
330
66
102
}
330
66
100
DictionaryVariables
280
     0
  1
1
  0
DICTIONARYVAR
  5
248
102
{ACAD_REACTORS
330
66
102
}
330
66
100
DictionaryVariables
280
     0
  1
15
  0
DICTIONARYVAR
  5
246
102
{ACAD_REACTORS
330
66
102
}
330
66
100
DictionaryVariables
280
     0
  1
0
  0
DICTIONARYVAR
  5
244
102
{ACAD_REACTORS
330
66
102
}
330
66
100
DictionaryVariables
280
     0
  1
0
  0
DICTIONARYVAR
  5
86F
102
{ACAD_REACTORS
330
66
102
}
330
66
100
DictionaryVariables
280
     0
  1
127
  0
DICTIONARYVAR
  5
B19
102
{ACAD_REACTORS
330
66
102
}
330
66
100
DictionaryVariables
280
     0
  1
2
  0
DICTIONARY
  5
14EF
330
97
100
AcDbDictionary
280
     1
281
     1
  3
ACAD_XREC_ROUNDTRIP
360
14F0
  0
DICTIONARY
  5
14F1
330
96
100
AcDbDictionary
280
     1
281
     1
  3
ACAD_XREC_ROUNDTRIP
360
14F2
  0
DICTIONARY
  5
14F3
330
98
100
AcDbDictionary
280
     1
281
     1
  3
ACAD_XREC_ROUNDTRIP
360
14F4
  0
DICTIONARY
  5
14F5
330
169
100
AcDbDictionary
280
     1
281
     1
  3
ACAD_XREC_ROUNDTRIP
360
14F6
  0
DICTIONARY
  5
14F7
330
9F
100
AcDbDictionary
280
     1
281
     1
  3
ACAD_XREC_ROUNDTRIP
360
14F8
  0
DICTIONARY
  5
14F9
330
A1
100
AcDbDictionary
280
     1
281
     1
  3
ACAD_XREC_ROUNDTRIP
360
14FA
  0
DICTIONARY
  5
14FB
330
A0
100
AcDbDictionary
280
     1
281
     1
  3
ACAD_XREC_ROUNDTRIP
360
14FC
  0
DICTIONARY
  5
14FD
330
9E
100
AcDbDictionary
280
     1
281
     1
  3
ACAD_XREC_ROUNDTRIP
360
14FE
  0
DICTIONARY
  5
14FF
330
A5
100
AcDbDictionary
280
     1
281
     1
  3
ACAD_XREC_ROUNDTRIP
360
1500
  0
DICTIONARY
  5
1501
330
A9
100
AcDbDictionary
280
     1
281
     1
  3
ACAD_XREC_ROUNDTRIP
360
1502
  0
DICTIONARY
  5
1503
330
A2
100
AcDbDictionary
280
     1
281
     1
  3
ACAD_XREC_ROUNDTRIP
360
1504
  0
DICTIONARY
  5
1505
330
A4
100
AcDbDictionary
280
     1
281
     1
  3
ACAD_XREC_ROUNDTRIP
360
1506
  0
DICTIONARY
  5
1507
330
155
100
AcDbDictionary
280
     1
281
     1
  3
ACAD_XREC_ROUNDTRIP
360
1508
  0
DICTIONARY
  5
1509
330
A8
100
AcDbDictionary
280
     1
281
     1
  3
ACAD_XREC_ROUNDTRIP
360
150A
  0
DICTIONARY
  5
150B
330
9A
100
AcDbDictionary
280
     1
281
     1
  3
ACAD_XREC_ROUNDTRIP
360
150C
  0
DICTIONARY
  5
150D
330
9B
100
AcDbDictionary
280
     1
281
     1
  3
ACAD_XREC_ROUNDTRIP
360
150E
  0
DICTIONARY
  5
150F
330
9C
100
AcDbDictionary
280
     1
281
     1
  3
ACAD_XREC_ROUNDTRIP
360
1510
  0
DICTIONARY
  5
1511
330
9D
100
AcDbDictionary
280
     1
281
     1
  3
ACAD_XREC_ROUNDTRIP
360
1512
  0
DICTIONARY
  5
1513
330
14D
100
AcDbDictionary
280
     1
281
     1
  3
ACAD_XREC_ROUNDTRIP
360
1514
  0
DICTIONARY
  5
1515
330
153
100
AcDbDictionary
280
     1
281
     1
  3
ACAD_XREC_ROUNDTRIP
360
1516
  0
DICTIONARY
  5
1517
330
A7
100
AcDbDictionary
280
     1
281
     1
  3
ACAD_XREC_ROUNDTRIP
360
1518
  0
DICTIONARY
  5
1519
330
154
100
AcDbDictionary
280
     1
281
     1
  3
ACAD_XREC_ROUNDTRIP
360
151A
  0
DICTIONARY
  5
151B
330
A3
100
AcDbDictionary
280
     1
281
     1
  3
ACAD_XREC_ROUNDTRIP
360
151C
  0
DICTIONARY
  5
151D
330
152
100
AcDbDictionary
280
     1
281
     1
  3
ACAD_XREC_ROUNDTRIP
360
151E
  0
DICTIONARY
  5
151F
330
151
100
AcDbDictionary
280
     1
281
     1
  3
ACAD_XREC_ROUNDTRIP
360
1520
  0
DICTIONARY
  5
1521
330
14E
100
AcDbDictionary
280
     1
281
     1
  3
ACAD_XREC_ROUNDTRIP
360
1522
  0
DICTIONARY
  5
1523
330
14F
100
AcDbDictionary
280
     1
281
     1
  3
ACAD_XREC_ROUNDTRIP
360
1524
  0
DICTIONARY
  5
1525
330
A6
100
AcDbDictionary
280
     1
281
     1
  3
ACAD_XREC_ROUNDTRIP
360
1526
  0
DICTIONARY
  5
1527
330
14C
100
AcDbDictionary
280
     1
281
     1
  3
ACAD_XREC_ROUNDTRIP
360
1528
  0
DICTIONARY
  5
1529
330
150
100
AcDbDictionary
280
     1
281
     1
  3
ACAD_XREC_ROUNDTRIP
360
152A
  0
XRECORD
  5
14F0
102
{ACAD_REACTORS
330
14EF
102
}
330
14EF
100
AcDbXrecord
280
     1
102
MATERIAL
148
0.0
149
0.0
149
0.0
 93
        0
 94
       63
282
     0
 72
     1
 77
     1
171
     1
175
     1
179
     1
273
     0
  0
XRECORD
  5
14F2
102
{ACAD_REACTORS
330
14F1
102
}
330
14F1
100
AcDbXrecord
280
     1
102
MATERIAL
148
0.0
149
0.0
149
0.0
 93
        0
 94
       63
282
     0
 72
     1
 77
     1
171
     1
175
     1
179
     1
273
     0
  0
XRECORD
  5
14F4
102
{ACAD_REACTORS
330
14F3
102
}
330
14F3
100
AcDbXrecord
280
     1
102
MATERIAL
148
0.0
149
0.0
149
0.0
 93
        0
 94
       63
282
     0
 72
     1
 77
     1
171
     1
175
     1
179
     1
273
     0
  0
XRECORD
  5
14F6
102
{ACAD_REACTORS
330
14F5
102
}
330
14F5
100
AcDbXrecord
280
     1
102
ACAD_ROUNDTRIP_2010_MLEADER_STYLE
  0
XRECORD
  5
14F8
102
{ACAD_REACTORS
330
14F7
102
}
330
14F7
100
AcDbXrecord
280
     1
102
RTVSPropertyOp0
 70
     1
102
RTVSPropertyOp1
 70
     1
102
RTVSPropertyOp2
 70
     1
102
RTVSPropertyOp3
 70
     1
102
RTVSPropertyOp4
 70
     1
102
RTVSPropertyOp5
 70
     1
102
RTVSPropertyOp6
 70
     1
102
RTVSPropertyOp7
 70
     1
102
RTVSPropertyOp8
 70
     1
102
RTVSPropertyOp9
 70
     1
102
RTVSPropertyOp10
 70
     1
102
RTVSPropertyOp11
 70
     1
102
RTVSPropertyOp12
 70
     1
102
RTVSPropertyOp13
 70
     1
102
RTVSPropertyOp14
 70
     1
102
RTVSPropertyOp15
 70
     1
102
RTVSPropertyOp16
 70
     1
102
RTVSPropertyOp17
 70
     1
102
RTVSPropertyOp18
 70
     1
102
RTVSPropertyOp19
 70
     1
102
RTVSPropertyOp20
 70
     1
102
RTVSPropertyOp21
 70
     1
102
RTVSPropertyOp22
 70
     1
102
RTVSPropertyOp23
 70
     1
102
RTVSPropertyOp24
 70
     1
102
RTVSPropertyOp25
 70
     1
102
RTVSPropertyOp26
 70
     1
102
RTVSPropertyOp27
 70
     1
102
RTVSPropertyOp28
 70
     1
102
RTVSPropertyOp29
 70
     1
102
RTVSPropertyOp30
 70
     1
102
RTVSPropertyOp31
 70
     1
102
RTVSPropertyOp32
 70
     1
102
RTVSPropertyOp33
 70
     1
102
RTVSPropertyOp34
 70
     1
102
RTVSPropertyOp35
 70
     1
102
RTVSPropertyOp36
 70
     1
102
RTVSPropertyOp37
 70
     1
102
RTVSPropertyOp38
 70
     1
102
RTVSPropertyOp39
 70
     1
102
RTVSPropertyOp40
 70
     1
102
RTVSPropertyOp41
 70
     1
102
RTVSPropertyOp42
 70
     1
102
RTVSPropertyOp43
 70
     1
102
RTVSPropertyOp44
 70
     1
102
RTVSPropertyOp45
 70
     1
102
RTVSPropertyOp46
 70
     1
102
RTVSPropertyOp47
 70
     1
102
RTVSPropertyOp48
 70
     1
102
RTVSPropertyOp49
 70
     1
102
RTVSPropertyOp50
 70
     1
102
RTVSPropertyOp51
 70
     0
102
RTVSPropertyOp52
 70
     0
102
RTVSPropertyOp53
 70
     1
102
RTVSPropertyOp54
 70
     1
102
RTVSPropertyOp55
 70
     1
102
RTVSPropertyOp56
 70
     1
102
RTVSPropertyOp57
 70
     1
102
RTVSPost2010Prop28
280
     1
102
RTVSPost2010PropOp28
 70
     1
102
RTVSPost2010Prop29
280
     1
102
RTVSPost2010PropOp29
 70
     1
102
RTVSPost2010Prop30
280
     0
102
RTVSPost2010PropOp30
 70
     1
102
RTVSPost2010Prop31
280
     0
102
RTVSPost2010PropOp31
 70
     1
102
RTVSPost2010Prop32
280
     0
102
RTVSPost2010PropOp32
 70
     1
102
RTVSPost2010Prop33
280
     0
102
RTVSPost2010PropOp33
 70
     1
102
RTVSPost2010Prop34
280
     0
102
RTVSPost2010PropOp34
 70
     1
102
RTVSPost2010Prop35
280
     0
102
RTVSPost2010PropOp35
 70
     1
102
RTVSPost2010Prop36
280
     0
102
RTVSPost2010PropOp36
 70
     1
102
RTVSPost2010Prop37
 90
       50
102
RTVSPost2010PropOp37
 70
     1
102
RTVSPost2010Prop38
140
0.0
102
RTVSPost2010PropOp38
 70
     1
102
RTVSPost2010Prop39
140
1.0
102
RTVSPost2010PropOp39
 70
     1
102
RTVSPost2010Prop40
 90
        0
102
RTVSPost2010PropOp40
 70
     1
102
RTVSPost2010Prop41ColorIndex
 90
       18
102
RTVSPost2010Prop41ColorRGB
 90
        0
102
RTVSPost2010PropOp41
 70
     1
102
RTVSPost2010Prop42
 90
       50
102
RTVSPost2010PropOp42
 70
     1
102
RTVSPost2010Prop43
 90
        3
102
RTVSPost2010PropOp43
 70
     1
102
RTVSPost2010Prop44ColorIndex
 90
        5
102
RTVSPost2010Prop44ColorRGB
 90
      255
102
RTVSPost2010PropOp44
 70
     1
102
RTVSPost2010Prop45
280
     0
102
RTVSPost2010PropOp45
 70
     1
102
RTVSPost2010Prop46
 90
       50
102
RTVSPost2010PropOp46
 70
     1
102
RTVSPost2010Prop47
 90
       50
102
RTVSPost2010PropOp47
 70
     1
102
RTVSPost2010Prop48
 90
       50
102
RTVSPost2010PropOp48
 70
     1
102
RTVSPost2010Prop49
280
     0
102
RTVSPost2010PropOp49
 70
     1
102
RTVSPost2010Prop50
 90
       50
102
RTVSPost2010PropOp50
 70
     1
102
RTVSPost2010Prop51ColorIndex
 90
      256
102
RTVSPost2010Prop51ColorRGB
 90
-16777216
102
RTVSPost2010PropOp51
 70
     0
102
RTVSPost2010Prop52
140
1.0
102
RTVSPost2010PropOp52
 70
     0
102
RTVSPost2010Prop53
 90
        2
102
RTVSPost2010PropOp53
 70
     1
102
RTVSPost2010Prop54
  1
strokes_ogs.tif
102
RTVSPost2010PropOp54
 70
     1
102
RTVSPost2010Prop55
280
     0
102
RTVSPost2010PropOp55
 70
     1
102
RTVSPost2010Prop56
140
1.0
102
RTVSPost2010PropOp56
 70
     1
102
RTVSPost2010Prop57
140
1.0
102
RTVSPost2010PropOp57
 70
     1
  0
XRECORD
  5
14FA
102
{ACAD_REACTORS
330
14F9
102
}
330
14F9
100
AcDbXrecord
280
     1
102
RTVSPropertyOp0
 70
     1
102
RTVSPropertyOp1
 70
     1
102
RTVSPropertyOp2
 70
     1
102
RTVSPropertyOp3
 70
     1
102
RTVSPropertyOp4
 70
     1
102
RTVSPropertyOp5
 70
     1
102
RTVSPropertyOp6
 70
     1
102
RTVSPropertyOp7
 70
     1
102
RTVSPropertyOp8
 70
     1
102
RTVSPropertyOp9
 70
     1
102
RTVSPropertyOp10
 70
     1
102
RTVSPropertyOp11
 70
     1
102
RTVSPropertyOp12
 70
     1
102
RTVSPropertyOp13
 70
     1
102
RTVSPropertyOp14
 70
     1
102
RTVSPropertyOp15
 70
     1
102
RTVSPropertyOp16
 70
     1
102
RTVSPropertyOp17
 70
     1
102
RTVSPropertyOp18
 70
     1
102
RTVSPropertyOp19
 70
     1
102
RTVSPropertyOp20
 70
     1
102
RTVSPropertyOp21
 70
     1
102
RTVSPropertyOp22
 70
     1
102
RTVSPropertyOp23
 70
     1
102
RTVSPropertyOp24
 70
     1
102
RTVSPropertyOp25
 70
     1
102
RTVSPropertyOp26
 70
     1
102
RTVSPropertyOp27
 70
     1
102
RTVSPropertyOp28
 70
     1
102
RTVSPropertyOp29
 70
     1
102
RTVSPropertyOp30
 70
     1
102
RTVSPropertyOp31
 70
     1
102
RTVSPropertyOp32
 70
     1
102
RTVSPropertyOp33
 70
     1
102
RTVSPropertyOp34
 70
     1
102
RTVSPropertyOp35
 70
     1
102
RTVSPropertyOp36
 70
     1
102
RTVSPropertyOp37
 70
     1
102
RTVSPropertyOp38
 70
     1
102
RTVSPropertyOp39
 70
     1
102
RTVSPropertyOp40
 70
     1
102
RTVSPropertyOp41
 70
     1
102
RTVSPropertyOp42
 70
     1
102
RTVSPropertyOp43
 70
     1
102
RTVSPropertyOp44
 70
     1
102
RTVSPropertyOp45
 70
     1
102
RTVSPropertyOp46
 70
     1
102
RTVSPropertyOp47
 70
     1
102
RTVSPropertyOp48
 70
     1
102
RTVSPropertyOp49
 70
     1
102
RTVSPropertyOp50
 70
     1
102
RTVSPropertyOp51
 70
     0
102
RTVSPropertyOp52
 70
     0
102
RTVSPropertyOp53
 70
     1
102
RTVSPropertyOp54
 70
     1
102
RTVSPropertyOp55
 70
     1
102
RTVSPropertyOp56
 70
     1
102
RTVSPropertyOp57
 70
     1
102
RTVSPost2010Prop28
280
     0
102
RTVSPost2010PropOp28
 70
     1
102
RTVSPost2010Prop29
280
     1
102
RTVSPost2010PropOp29
 70
     1
102
RTVSPost2010Prop30
280
     1
102
RTVSPost2010PropOp30
 70
     1
102
RTVSPost2010Prop31
280
     0
102
RTVSPost2010PropOp31
 70
     1
102
RTVSPost2010Prop32
280
     0
102
RTVSPost2010PropOp32
 70
     1
102
RTVSPost2010Prop33
280
     0
102
RTVSPost2010PropOp33
 70
     1
102
RTVSPost2010Prop34
280
     0
102
RTVSPost2010PropOp34
 70
     1
102
RTVSPost2010Prop35
280
     0
102
RTVSPost2010PropOp35
 70
     1
102
RTVSPost2010Prop36
280
     0
102
RTVSPost2010PropOp36
 70
     1
102
RTVSPost2010Prop37
 90
       50
102
RTVSPost2010PropOp37
 70
     1
102
RTVSPost2010Prop38
140
0.0
102
RTVSPost2010PropOp38
 70
     1
102
RTVSPost2010Prop39
140
1.0
102
RTVSPost2010PropOp39
 70
     1
102
RTVSPost2010Prop40
 90
        0
102
RTVSPost2010PropOp40
 70
     1
102
RTVSPost2010Prop41ColorIndex
 90
       18
102
RTVSPost2010Prop41ColorRGB
 90
        0
102
RTVSPost2010PropOp41
 70
     1
102
RTVSPost2010Prop42
 90
       50
102
RTVSPost2010PropOp42
 70
     1
102
RTVSPost2010Prop43
 90
        3
102
RTVSPost2010PropOp43
 70
     1
102
RTVSPost2010Prop44ColorIndex
 90
        5
102
RTVSPost2010Prop44ColorRGB
 90
      255
102
RTVSPost2010PropOp44
 70
     1
102
RTVSPost2010Prop45
280
     0
102
RTVSPost2010PropOp45
 70
     1
102
RTVSPost2010Prop46
 90
       50
102
RTVSPost2010PropOp46
 70
     1
102
RTVSPost2010Prop47
 90
       50
102
RTVSPost2010PropOp47
 70
     1
102
RTVSPost2010Prop48
 90
       50
102
RTVSPost2010PropOp48
 70
     1
102
RTVSPost2010Prop49
280
     0
102
RTVSPost2010PropOp49
 70
     1
102
RTVSPost2010Prop50
 90
       50
102
RTVSPost2010PropOp50
 70
     1
102
RTVSPost2010Prop51ColorIndex
 90
      256
102
RTVSPost2010Prop51ColorRGB
 90
-16777216
102
RTVSPost2010PropOp51
 70
     0
102
RTVSPost2010Prop52
140
1.0
102
RTVSPost2010PropOp52
 70
     0
102
RTVSPost2010Prop53
 90
        2
102
RTVSPost2010PropOp53
 70
     1
102
RTVSPost2010Prop54
  1
strokes_ogs.tif
102
RTVSPost2010PropOp54
 70
     1
102
RTVSPost2010Prop55
280
     0
102
RTVSPost2010PropOp55
 70
     1
102
RTVSPost2010Prop56
140
1.0
102
RTVSPost2010PropOp56
 70
     1
102
RTVSPost2010Prop57
140
1.0
102
RTVSPost2010PropOp57
 70
     1
  0
XRECORD
  5
14FC
102
{ACAD_REACTORS
330
14FB
102
}
330
14FB
100
AcDbXrecord
280
     1
102
RTVSPropertyOp0
 70
     1
102
RTVSPropertyOp1
 70
     1
102
RTVSPropertyOp2
 70
     1
102
RTVSPropertyOp3
 70
     1
102
RTVSPropertyOp4
 70
     1
102
RTVSPropertyOp5
 70
     1
102
RTVSPropertyOp6
 70
     1
102
RTVSPropertyOp7
 70
     1
102
RTVSPropertyOp8
 70
     1
102
RTVSPropertyOp9
 70
     1
102
RTVSPropertyOp10
 70
     1
102
RTVSPropertyOp11
 70
     1
102
RTVSPropertyOp12
 70
     1
102
RTVSPropertyOp13
 70
     1
102
RTVSPropertyOp14
 70
     1
102
RTVSPropertyOp15
 70
     1
102
RTVSPropertyOp16
 70
     1
102
RTVSPropertyOp17
 70
     1
102
RTVSPropertyOp18
 70
     1
102
RTVSPropertyOp19
 70
     1
102
RTVSPropertyOp20
 70
     1
102
RTVSPropertyOp21
 70
     1
102
RTVSPropertyOp22
 70
     1
102
RTVSPropertyOp23
 70
     1
102
RTVSPropertyOp24
 70
     1
102
RTVSPropertyOp25
 70
     1
102
RTVSPropertyOp26
 70
     1
102
RTVSPropertyOp27
 70
     1
102
RTVSPropertyOp28
 70
     1
102
RTVSPropertyOp29
 70
     1
102
RTVSPropertyOp30
 70
     1
102
RTVSPropertyOp31
 70
     1
102
RTVSPropertyOp32
 70
     1
102
RTVSPropertyOp33
 70
     1
102
RTVSPropertyOp34
 70
     1
102
RTVSPropertyOp35
 70
     1
102
RTVSPropertyOp36
 70
     1
102
RTVSPropertyOp37
 70
     1
102
RTVSPropertyOp38
 70
     1
102
RTVSPropertyOp39
 70
     1
102
RTVSPropertyOp40
 70
     1
102
RTVSPropertyOp41
 70
     1
102
RTVSPropertyOp42
 70
     1
102
RTVSPropertyOp43
 70
     1
102
RTVSPropertyOp44
 70
     1
102
RTVSPropertyOp45
 70
     1
102
RTVSPropertyOp46
 70
     1
102
RTVSPropertyOp47
 70
     1
102
RTVSPropertyOp48
 70
     1
102
RTVSPropertyOp49
 70
     1
102
RTVSPropertyOp50
 70
     1
102
RTVSPropertyOp51
 70
     0
102
RTVSPropertyOp52
 70
     0
102
RTVSPropertyOp53
 70
     1
102
RTVSPropertyOp54
 70
     1
102
RTVSPropertyOp55
 70
     1
102
RTVSPropertyOp56
 70
     1
102
RTVSPropertyOp57
 70
     1
102
RTVSPost2010Prop28
280
     0
102
RTVSPost2010PropOp28
 70
     1
102
RTVSPost2010Prop29
280
     1
102
RTVSPost2010PropOp29
 70
     1
102
RTVSPost2010Prop30
280
     1
102
RTVSPost2010PropOp30
 70
     1
102
RTVSPost2010Prop31
280
     0
102
RTVSPost2010PropOp31
 70
     1
102
RTVSPost2010Prop32
280
     0
102
RTVSPost2010PropOp32
 70
     1
102
RTVSPost2010Prop33
280
     0
102
RTVSPost2010PropOp33
 70
     1
102
RTVSPost2010Prop34
280
     0
102
RTVSPost2010PropOp34
 70
     1
102
RTVSPost2010Prop35
280
     0
102
RTVSPost2010PropOp35
 70
     1
102
RTVSPost2010Prop36
280
     0
102
RTVSPost2010PropOp36
 70
     1
102
RTVSPost2010Prop37
 90
       50
102
RTVSPost2010PropOp37
 70
     1
102
RTVSPost2010Prop38
140
0.0
102
RTVSPost2010PropOp38
 70
     1
102
RTVSPost2010Prop39
140
1.0
102
RTVSPost2010PropOp39
 70
     1
102
RTVSPost2010Prop40
 90
        0
102
RTVSPost2010PropOp40
 70
     1
102
RTVSPost2010Prop41ColorIndex
 90
       18
102
RTVSPost2010Prop41ColorRGB
 90
        0
102
RTVSPost2010PropOp41
 70
     1
102
RTVSPost2010Prop42
 90
       50
102
RTVSPost2010PropOp42
 70
     1
102
RTVSPost2010Prop43
 90
        3
102
RTVSPost2010PropOp43
 70
     1
102
RTVSPost2010Prop44ColorIndex
 90
        5
102
RTVSPost2010Prop44ColorRGB
 90
      255
102
RTVSPost2010PropOp44
 70
     1
102
RTVSPost2010Prop45
280
     0
102
RTVSPost2010PropOp45
 70
     1
102
RTVSPost2010Prop46
 90
       50
102
RTVSPost2010PropOp46
 70
     1
102
RTVSPost2010Prop47
 90
       50
102
RTVSPost2010PropOp47
 70
     1
102
RTVSPost2010Prop48
 90
       50
102
RTVSPost2010PropOp48
 70
     1
102
RTVSPost2010Prop49
280
     0
102
RTVSPost2010PropOp49
 70
     1
102
RTVSPost2010Prop50
 90
       50
102
RTVSPost2010PropOp50
 70
     1
102
RTVSPost2010Prop51ColorIndex
 90
      256
102
RTVSPost2010Prop51ColorRGB
 90
-16777216
102
RTVSPost2010PropOp51
 70
     0
102
RTVSPost2010Prop52
140
1.0
102
RTVSPost2010PropOp52
 70
     0
102
RTVSPost2010Prop53
 90
        2
102
RTVSPost2010PropOp53
 70
     1
102
RTVSPost2010Prop54
  1
strokes_ogs.tif
102
RTVSPost2010PropOp54
 70
     1
102
RTVSPost2010Prop55
280
     0
102
RTVSPost2010PropOp55
 70
     1
102
RTVSPost2010Prop56
140
1.0
102
RTVSPost2010PropOp56
 70
     1
102
RTVSPost2010Prop57
140
1.0
102
RTVSPost2010PropOp57
 70
     1
  0
XRECORD
  5
14FE
102
{ACAD_REACTORS
330
14FD
102
}
330
14FD
100
AcDbXrecord
280
     1
102
RTVSPropertyOp0
 70
     1
102
RTVSPropertyOp1
 70
     1
102
RTVSPropertyOp2
 70
     1
102
RTVSPropertyOp3
 70
     1
102
RTVSPropertyOp4
 70
     1
102
RTVSPropertyOp5
 70
     1
102
RTVSPropertyOp6
 70
     1
102
RTVSPropertyOp7
 70
     1
102
RTVSPropertyOp8
 70
     1
102
RTVSPropertyOp9
 70
     1
102
RTVSPropertyOp10
 70
     1
102
RTVSPropertyOp11
 70
     1
102
RTVSPropertyOp12
 70
     1
102
RTVSPropertyOp13
 70
     1
102
RTVSPropertyOp14
 70
     1
102
RTVSPropertyOp15
 70
     1
102
RTVSPropertyOp16
 70
     1
102
RTVSPropertyOp17
 70
     1
102
RTVSPropertyOp18
 70
     1
102
RTVSPropertyOp19
 70
     1
102
RTVSPropertyOp20
 70
     1
102
RTVSPropertyOp21
 70
     1
102
RTVSPropertyOp22
 70
     1
102
RTVSPropertyOp23
 70
     1
102
RTVSPropertyOp24
 70
     1
102
RTVSPropertyOp25
 70
     1
102
RTVSPropertyOp26
 70
     1
102
RTVSPropertyOp27
 70
     1
102
RTVSPropertyOp28
 70
     1
102
RTVSPropertyOp29
 70
     1
102
RTVSPropertyOp30
 70
     1
102
RTVSPropertyOp31
 70
     1
102
RTVSPropertyOp32
 70
     1
102
RTVSPropertyOp33
 70
     1
102
RTVSPropertyOp34
 70
     1
102
RTVSPropertyOp35
 70
     1
102
RTVSPropertyOp36
 70
     1
102
RTVSPropertyOp37
 70
     1
102
RTVSPropertyOp38
 70
     1
102
RTVSPropertyOp39
 70
     1
102
RTVSPropertyOp40
 70
     1
102
RTVSPropertyOp41
 70
     1
102
RTVSPropertyOp42
 70
     1
102
RTVSPropertyOp43
 70
     1
102
RTVSPropertyOp44
 70
     1
102
RTVSPropertyOp45
 70
     1
102
RTVSPropertyOp46
 70
     1
102
RTVSPropertyOp47
 70
     1
102
RTVSPropertyOp48
 70
     1
102
RTVSPropertyOp49
 70
     1
102
RTVSPropertyOp50
 70
     1
102
RTVSPropertyOp51
 70
     0
102
RTVSPropertyOp52
 70
     0
102
RTVSPropertyOp53
 70
     1
102
RTVSPropertyOp54
 70
     1
102
RTVSPropertyOp55
 70
     1
102
RTVSPropertyOp56
 70
     1
102
RTVSPropertyOp57
 70
     1
102
RTVSPost2010Prop28
280
     0
102
RTVSPost2010PropOp28
 70
     1
102
RTVSPost2010Prop29
280
     1
102
RTVSPost2010PropOp29
 70
     1
102
RTVSPost2010Prop30
280
     1
102
RTVSPost2010PropOp30
 70
     1
102
RTVSPost2010Prop31
280
     0
102
RTVSPost2010PropOp31
 70
     1
102
RTVSPost2010Prop32
280
     0
102
RTVSPost2010PropOp32
 70
     1
102
RTVSPost2010Prop33
280
     0
102
RTVSPost2010PropOp33
 70
     1
102
RTVSPost2010Prop34
280
     0
102
RTVSPost2010PropOp34
 70
     1
102
RTVSPost2010Prop35
280
     0
102
RTVSPost2010PropOp35
 70
     1
102
RTVSPost2010Prop36
280
     0
102
RTVSPost2010PropOp36
 70
     1
102
RTVSPost2010Prop37
 90
       50
102
RTVSPost2010PropOp37
 70
     1
102
RTVSPost2010Prop38
140
0.0
102
RTVSPost2010PropOp38
 70
     1
102
RTVSPost2010Prop39
140
1.0
102
RTVSPost2010PropOp39
 70
     1
102
RTVSPost2010Prop40
 90
        0
102
RTVSPost2010PropOp40
 70
     1
102
RTVSPost2010Prop41ColorIndex
 90
       18
102
RTVSPost2010Prop41ColorRGB
 90
        0
102
RTVSPost2010PropOp41
 70
     1
102
RTVSPost2010Prop42
 90
       50
102
RTVSPost2010PropOp42
 70
     1
102
RTVSPost2010Prop43
 90
        3
102
RTVSPost2010PropOp43
 70
     1
102
RTVSPost2010Prop44ColorIndex
 90
        5
102
RTVSPost2010Prop44ColorRGB
 90
      255
102
RTVSPost2010PropOp44
 70
     1
102
RTVSPost2010Prop45
280
     0
102
RTVSPost2010PropOp45
 70
     1
102
RTVSPost2010Prop46
 90
       50
102
RTVSPost2010PropOp46
 70
     1
102
RTVSPost2010Prop47
 90
       50
102
RTVSPost2010PropOp47
 70
     1
102
RTVSPost2010Prop48
 90
       50
102
RTVSPost2010PropOp48
 70
     1
102
RTVSPost2010Prop49
280
     0
102
RTVSPost2010PropOp49
 70
     1
102
RTVSPost2010Prop50
 90
       50
102
RTVSPost2010PropOp50
 70
     1
102
RTVSPost2010Prop51ColorIndex
 90
      256
102
RTVSPost2010Prop51ColorRGB
 90
-16777216
102
RTVSPost2010PropOp51
 70
     0
102
RTVSPost2010Prop52
140
1.0
102
RTVSPost2010PropOp52
 70
     0
102
RTVSPost2010Prop53
 90
        2
102
RTVSPost2010PropOp53
 70
     1
102
RTVSPost2010Prop54
  1
strokes_ogs.tif
102
RTVSPost2010PropOp54
 70
     1
102
RTVSPost2010Prop55
280
     0
102
RTVSPost2010PropOp55
 70
     1
102
RTVSPost2010Prop56
140
1.0
102
RTVSPost2010PropOp56
 70
     1
102
RTVSPost2010Prop57
140
1.0
102
RTVSPost2010PropOp57
 70
     1
  0
XRECORD
  5
1500
102
{ACAD_REACTORS
330
14FF
102
}
330
14FF
100
AcDbXrecord
280
     1
102
RTVSPropertyOp0
 70
     1
102
RTVSPropertyOp1
 70
     1
102
RTVSPropertyOp2
 70
     1
102
RTVSPropertyOp3
 70
     1
102
RTVSPropertyOp4
 70
     1
102
RTVSPropertyOp5
 70
     1
102
RTVSPropertyOp6
 70
     1
102
RTVSPropertyOp7
 70
     1
102
RTVSPropertyOp8
 70
     1
102
RTVSPropertyOp9
 70
     1
102
RTVSPropertyOp10
 70
     1
102
RTVSPropertyOp11
 70
     1
102
RTVSPropertyOp12
 70
     1
102
RTVSPropertyOp13
 70
     1
102
RTVSPropertyOp14
 70
     1
102
RTVSPropertyOp15
 70
     1
102
RTVSPropertyOp16
 70
     1
102
RTVSPropertyOp17
 70
     1
102
RTVSPropertyOp18
 70
     1
102
RTVSPropertyOp19
 70
     1
102
RTVSPropertyOp20
 70
     1
102
RTVSPropertyOp21
 70
     1
102
RTVSPropertyOp22
 70
     1
102
RTVSPropertyOp23
 70
     1
102
RTVSPropertyOp24
 70
     1
102
RTVSPropertyOp25
 70
     1
102
RTVSPropertyOp26
 70
     1
102
RTVSPropertyOp27
 70
     1
102
RTVSPropertyOp28
 70
     1
102
RTVSPropertyOp29
 70
     1
102
RTVSPropertyOp30
 70
     1
102
RTVSPropertyOp31
 70
     1
102
RTVSPropertyOp32
 70
     1
102
RTVSPropertyOp33
 70
     1
102
RTVSPropertyOp34
 70
     1
102
RTVSPropertyOp35
 70
     1
102
RTVSPropertyOp36
 70
     1
102
RTVSPropertyOp37
 70
     1
102
RTVSPropertyOp38
 70
     1
102
RTVSPropertyOp39
 70
     1
102
RTVSPropertyOp40
 70
     1
102
RTVSPropertyOp41
 70
     1
102
RTVSPropertyOp42
 70
     1
102
RTVSPropertyOp43
 70
     1
102
RTVSPropertyOp44
 70
     1
102
RTVSPropertyOp45
 70
     1
102
RTVSPropertyOp46
 70
     1
102
RTVSPropertyOp47
 70
     1
102
RTVSPropertyOp48
 70
     1
102
RTVSPropertyOp49
 70
     1
102
RTVSPropertyOp50
 70
     1
102
RTVSPropertyOp51
 70
     0
102
RTVSPropertyOp52
 70
     0
102
RTVSPropertyOp53
 70
     1
102
RTVSPropertyOp54
 70
     1
102
RTVSPropertyOp55
 70
     1
102
RTVSPropertyOp56
 70
     1
102
RTVSPropertyOp57
 70
     1
102
RTVSPost2010Prop28
280
     0
102
RTVSPost2010PropOp28
 70
     1
102
RTVSPost2010Prop29
280
     1
102
RTVSPost2010PropOp29
 70
     1
102
RTVSPost2010Prop30
280
     1
102
RTVSPost2010PropOp30
 70
     1
102
RTVSPost2010Prop31
280
     0
102
RTVSPost2010PropOp31
 70
     1
102
RTVSPost2010Prop32
280
     0
102
RTVSPost2010PropOp32
 70
     1
102
RTVSPost2010Prop33
280
     0
102
RTVSPost2010PropOp33
 70
     1
102
RTVSPost2010Prop34
280
     0
102
RTVSPost2010PropOp34
 70
     1
102
RTVSPost2010Prop35
280
     0
102
RTVSPost2010PropOp35
 70
     1
102
RTVSPost2010Prop36
280
     0
102
RTVSPost2010PropOp36
 70
     1
102
RTVSPost2010Prop37
 90
       50
102
RTVSPost2010PropOp37
 70
     1
102
RTVSPost2010Prop38
140
0.0
102
RTVSPost2010PropOp38
 70
     1
102
RTVSPost2010Prop39
140
1.0
102
RTVSPost2010PropOp39
 70
     1
102
RTVSPost2010Prop40
 90
        0
102
RTVSPost2010PropOp40
 70
     1
102
RTVSPost2010Prop41ColorIndex
 90
       18
102
RTVSPost2010Prop41ColorRGB
 90
        0
102
RTVSPost2010PropOp41
 70
     1
102
RTVSPost2010Prop42
 90
       50
102
RTVSPost2010PropOp42
 70
     1
102
RTVSPost2010Prop43
 90
        3
102
RTVSPost2010PropOp43
 70
     1
102
RTVSPost2010Prop44ColorIndex
 90
        5
102
RTVSPost2010Prop44ColorRGB
 90
      255
102
RTVSPost2010PropOp44
 70
     1
102
RTVSPost2010Prop45
280
     0
102
RTVSPost2010PropOp45
 70
     1
102
RTVSPost2010Prop46
 90
       50
102
RTVSPost2010PropOp46
 70
     1
102
RTVSPost2010Prop47
 90
       50
102
RTVSPost2010PropOp47
 70
     1
102
RTVSPost2010Prop48
 90
       50
102
RTVSPost2010PropOp48
 70
     1
102
RTVSPost2010Prop49
280
     0
102
RTVSPost2010PropOp49
 70
     1
102
RTVSPost2010Prop50
 90
       50
102
RTVSPost2010PropOp50
 70
     1
102
RTVSPost2010Prop51ColorIndex
 90
      256
102
RTVSPost2010Prop51ColorRGB
 90
-16777216
102
RTVSPost2010PropOp51
 70
     0
102
RTVSPost2010Prop52
140
1.0
102
RTVSPost2010PropOp52
 70
     0
102
RTVSPost2010Prop53
 90
        2
102
RTVSPost2010PropOp53
 70
     1
102
RTVSPost2010Prop54
  1
strokes_ogs.tif
102
RTVSPost2010PropOp54
 70
     1
102
RTVSPost2010Prop55
280
     0
102
RTVSPost2010PropOp55
 70
     1
102
RTVSPost2010Prop56
140
1.0
102
RTVSPost2010PropOp56
 70
     1
102
RTVSPost2010Prop57
140
1.0
102
RTVSPost2010PropOp57
 70
     1
  0
XRECORD
  5
1502
102
{ACAD_REACTORS
330
1501
102
}
330
1501
100
AcDbXrecord
280
     1
102
RTVSPropertyOp0
 70
     1
102
RTVSPropertyOp1
 70
     1
102
RTVSPropertyOp2
 70
     1
102
RTVSPropertyOp3
 70
     1
102
RTVSPropertyOp4
 70
     1
102
RTVSPropertyOp5
 70
     1
102
RTVSPropertyOp6
 70
     1
102
RTVSPropertyOp7
 70
     1
102
RTVSPropertyOp8
 70
     1
102
RTVSPropertyOp9
 70
     1
102
RTVSPropertyOp10
 70
     1
102
RTVSPropertyOp11
 70
     1
102
RTVSPropertyOp12
 70
     1
102
RTVSPropertyOp13
 70
     1
102
RTVSPropertyOp14
 70
     1
102
RTVSPropertyOp15
 70
     1
102
RTVSPropertyOp16
 70
     1
102
RTVSPropertyOp17
 70
     1
102
RTVSPropertyOp18
 70
     1
102
RTVSPropertyOp19
 70
     1
102
RTVSPropertyOp20
 70
     1
102
RTVSPropertyOp21
 70
     1
102
RTVSPropertyOp22
 70
     1
102
RTVSPropertyOp23
 70
     1
102
RTVSPropertyOp24
 70
     1
102
RTVSPropertyOp25
 70
     1
102
RTVSPropertyOp26
 70
     1
102
RTVSPropertyOp27
 70
     1
102
RTVSPropertyOp28
 70
     1
102
RTVSPropertyOp29
 70
     1
102
RTVSPropertyOp30
 70
     1
102
RTVSPropertyOp31
 70
     1
102
RTVSPropertyOp32
 70
     1
102
RTVSPropertyOp33
 70
     1
102
RTVSPropertyOp34
 70
     1
102
RTVSPropertyOp35
 70
     1
102
RTVSPropertyOp36
 70
     1
102
RTVSPropertyOp37
 70
     1
102
RTVSPropertyOp38
 70
     1
102
RTVSPropertyOp39
 70
     1
102
RTVSPropertyOp40
 70
     1
102
RTVSPropertyOp41
 70
     1
102
RTVSPropertyOp42
 70
     1
102
RTVSPropertyOp43
 70
     1
102
RTVSPropertyOp44
 70
     1
102
RTVSPropertyOp45
 70
     1
102
RTVSPropertyOp46
 70
     1
102
RTVSPropertyOp47
 70
     1
102
RTVSPropertyOp48
 70
     1
102
RTVSPropertyOp49
 70
     1
102
RTVSPropertyOp50
 70
     1
102
RTVSPropertyOp51
 70
     0
102
RTVSPropertyOp52
 70
     0
102
RTVSPropertyOp53
 70
     1
102
RTVSPropertyOp54
 70
     1
102
RTVSPropertyOp55
 70
     1
102
RTVSPropertyOp56
 70
     1
102
RTVSPropertyOp57
 70
     1
102
RTVSPost2010Prop28
280
     0
102
RTVSPost2010PropOp28
 70
     1
102
RTVSPost2010Prop29
280
     1
102
RTVSPost2010PropOp29
 70
     1
102
RTVSPost2010Prop30
280
     1
102
RTVSPost2010PropOp30
 70
     1
102
RTVSPost2010Prop31
280
     0
102
RTVSPost2010PropOp31
 70
     1
102
RTVSPost2010Prop32
280
     0
102
RTVSPost2010PropOp32
 70
     1
102
RTVSPost2010Prop33
280
     0
102
RTVSPost2010PropOp33
 70
     1
102
RTVSPost2010Prop34
280
     0
102
RTVSPost2010PropOp34
 70
     1
102
RTVSPost2010Prop35
280
     0
102
RTVSPost2010PropOp35
 70
     1
102
RTVSPost2010Prop36
280
     0
102
RTVSPost2010PropOp36
 70
     1
102
RTVSPost2010Prop37
 90
       50
102
RTVSPost2010PropOp37
 70
     1
102
RTVSPost2010Prop38
140
0.0
102
RTVSPost2010PropOp38
 70
     1
102
RTVSPost2010Prop39
140
1.0
102
RTVSPost2010PropOp39
 70
     1
102
RTVSPost2010Prop40
 90
        0
102
RTVSPost2010PropOp40
 70
     1
102
RTVSPost2010Prop41ColorIndex
 90
       18
102
RTVSPost2010Prop41ColorRGB
 90
        0
102
RTVSPost2010PropOp41
 70
     1
102
RTVSPost2010Prop42
 90
       50
102
RTVSPost2010PropOp42
 70
     1
102
RTVSPost2010Prop43
 90
        3
102
RTVSPost2010PropOp43
 70
     1
102
RTVSPost2010Prop44ColorIndex
 90
        5
102
RTVSPost2010Prop44ColorRGB
 90
      255
102
RTVSPost2010PropOp44
 70
     1
102
RTVSPost2010Prop45
280
     0
102
RTVSPost2010PropOp45
 70
     1
102
RTVSPost2010Prop46
 90
       50
102
RTVSPost2010PropOp46
 70
     1
102
RTVSPost2010Prop47
 90
       50
102
RTVSPost2010PropOp47
 70
     1
102
RTVSPost2010Prop48
 90
       50
102
RTVSPost2010PropOp48
 70
     1
102
RTVSPost2010Prop49
280
     0
102
RTVSPost2010PropOp49
 70
     1
102
RTVSPost2010Prop50
 90
       50
102
RTVSPost2010PropOp50
 70
     1
102
RTVSPost2010Prop51ColorIndex
 90
      256
102
RTVSPost2010Prop51ColorRGB
 90
-16777216
102
RTVSPost2010PropOp51
 70
     0
102
RTVSPost2010Prop52
140
1.0
102
RTVSPost2010PropOp52
 70
     0
102
RTVSPost2010Prop53
 90
        2
102
RTVSPost2010PropOp53
 70
     1
102
RTVSPost2010Prop54
  1
strokes_ogs.tif
102
RTVSPost2010PropOp54
 70
     1
102
RTVSPost2010Prop55
280
     0
102
RTVSPost2010PropOp55
 70
     1
102
RTVSPost2010Prop56
140
1.0
102
RTVSPost2010PropOp56
 70
     1
102
RTVSPost2010Prop57
140
1.0
102
RTVSPost2010PropOp57
 70
     1
  0
XRECORD
  5
1504
102
{ACAD_REACTORS
330
1503
102
}
330
1503
100
AcDbXrecord
280
     1
102
RTVSPropertyOp0
 70
     1
102
RTVSPropertyOp1
 70
     1
102
RTVSPropertyOp2
 70
     1
102
RTVSPropertyOp3
 70
     1
102
RTVSPropertyOp4
 70
     1
102
RTVSPropertyOp5
 70
     1
102
RTVSPropertyOp6
 70
     1
102
RTVSPropertyOp7
 70
     1
102
RTVSPropertyOp8
 70
     1
102
RTVSPropertyOp9
 70
     1
102
RTVSPropertyOp10
 70
     1
102
RTVSPropertyOp11
 70
     1
102
RTVSPropertyOp12
 70
     1
102
RTVSPropertyOp13
 70
     1
102
RTVSPropertyOp14
 70
     1
102
RTVSPropertyOp15
 70
     1
102
RTVSPropertyOp16
 70
     1
102
RTVSPropertyOp17
 70
     1
102
RTVSPropertyOp18
 70
     1
102
RTVSPropertyOp19
 70
     1
102
RTVSPropertyOp20
 70
     1
102
RTVSPropertyOp21
 70
     1
102
RTVSPropertyOp22
 70
     1
102
RTVSPropertyOp23
 70
     1
102
RTVSPropertyOp24
 70
     1
102
RTVSPropertyOp25
 70
     1
102
RTVSPropertyOp26
 70
     1
102
RTVSPropertyOp27
 70
     1
102
RTVSPropertyOp28
 70
     1
102
RTVSPropertyOp29
 70
     1
102
RTVSPropertyOp30
 70
     1
102
RTVSPropertyOp31
 70
     1
102
RTVSPropertyOp32
 70
     1
102
RTVSPropertyOp33
 70
     1
102
RTVSPropertyOp34
 70
     1
102
RTVSPropertyOp35
 70
     1
102
RTVSPropertyOp36
 70
     1
102
RTVSPropertyOp37
 70
     1
102
RTVSPropertyOp38
 70
     1
102
RTVSPropertyOp39
 70
     1
102
RTVSPropertyOp40
 70
     1
102
RTVSPropertyOp41
 70
     1
102
RTVSPropertyOp42
 70
     1
102
RTVSPropertyOp43
 70
     1
102
RTVSPropertyOp44
 70
     1
102
RTVSPropertyOp45
 70
     1
102
RTVSPropertyOp46
 70
     1
102
RTVSPropertyOp47
 70
     1
102
RTVSPropertyOp48
 70
     1
102
RTVSPropertyOp49
 70
     1
102
RTVSPropertyOp50
 70
     1
102
RTVSPropertyOp51
 70
     0
102
RTVSPropertyOp52
 70
     0
102
RTVSPropertyOp53
 70
     1
102
RTVSPropertyOp54
 70
     1
102
RTVSPropertyOp55
 70
     1
102
RTVSPropertyOp56
 70
     1
102
RTVSPropertyOp57
 70
     1
102
RTVSPost2010Prop28
280
     0
102
RTVSPost2010PropOp28
 70
     1
102
RTVSPost2010Prop29
280
     1
102
RTVSPost2010PropOp29
 70
     1
102
RTVSPost2010Prop30
280
     1
102
RTVSPost2010PropOp30
 70
     1
102
RTVSPost2010Prop31
280
     0
102
RTVSPost2010PropOp31
 70
     1
102
RTVSPost2010Prop32
280
     0
102
RTVSPost2010PropOp32
 70
     1
102
RTVSPost2010Prop33
280
     0
102
RTVSPost2010PropOp33
 70
     1
102
RTVSPost2010Prop34
280
     0
102
RTVSPost2010PropOp34
 70
     1
102
RTVSPost2010Prop35
280
     0
102
RTVSPost2010PropOp35
 70
     1
102
RTVSPost2010Prop36
280
     0
102
RTVSPost2010PropOp36
 70
     1
102
RTVSPost2010Prop37
 90
       50
102
RTVSPost2010PropOp37
 70
     1
102
RTVSPost2010Prop38
140
0.0
102
RTVSPost2010PropOp38
 70
     1
102
RTVSPost2010Prop39
140
1.0
102
RTVSPost2010PropOp39
 70
     1
102
RTVSPost2010Prop40
 90
        0
102
RTVSPost2010PropOp40
 70
     1
102
RTVSPost2010Prop41ColorIndex
 90
       18
102
RTVSPost2010Prop41ColorRGB
 90
        0
102
RTVSPost2010PropOp41
 70
     1
102
RTVSPost2010Prop42
 90
       50
102
RTVSPost2010PropOp42
 70
     1
102
RTVSPost2010Prop43
 90
        3
102
RTVSPost2010PropOp43
 70
     1
102
RTVSPost2010Prop44ColorIndex
 90
        5
102
RTVSPost2010Prop44ColorRGB
 90
      255
102
RTVSPost2010PropOp44
 70
     1
102
RTVSPost2010Prop45
280
     0
102
RTVSPost2010PropOp45
 70
     1
102
RTVSPost2010Prop46
 90
       50
102
RTVSPost2010PropOp46
 70
     1
102
RTVSPost2010Prop47
 90
       50
102
RTVSPost2010PropOp47
 70
     1
102
RTVSPost2010Prop48
 90
       50
102
RTVSPost2010PropOp48
 70
     1
102
RTVSPost2010Prop49
280
     0
102
RTVSPost2010PropOp49
 70
     1
102
RTVSPost2010Prop50
 90
       50
102
RTVSPost2010PropOp50
 70
     1
102
RTVSPost2010Prop51ColorIndex
 90
      256
102
RTVSPost2010Prop51ColorRGB
 90
-16777216
102
RTVSPost2010PropOp51
 70
     0
102
RTVSPost2010Prop52
140
1.0
102
RTVSPost2010PropOp52
 70
     0
102
RTVSPost2010Prop53
 90
        2
102
RTVSPost2010PropOp53
 70
     1
102
RTVSPost2010Prop54
  1
strokes_ogs.tif
102
RTVSPost2010PropOp54
 70
     1
102
RTVSPost2010Prop55
280
     0
102
RTVSPost2010PropOp55
 70
     1
102
RTVSPost2010Prop56
140
1.0
102
RTVSPost2010PropOp56
 70
     1
102
RTVSPost2010Prop57
140
1.0
102
RTVSPost2010PropOp57
 70
     1
  0
XRECORD
  5
1506
102
{ACAD_REACTORS
330
1505
102
}
330
1505
100
AcDbXrecord
280
     1
102
RTVSPropertyOp0
 70
     1
102
RTVSPropertyOp1
 70
     1
102
RTVSPropertyOp2
 70
     1
102
RTVSPropertyOp3
 70
     1
102
RTVSPropertyOp4
 70
     1
102
RTVSPropertyOp5
 70
     1
102
RTVSPropertyOp6
 70
     1
102
RTVSPropertyOp7
 70
     1
102
RTVSPropertyOp8
 70
     1
102
RTVSPropertyOp9
 70
     1
102
RTVSPropertyOp10
 70
     1
102
RTVSPropertyOp11
 70
     1
102
RTVSPropertyOp12
 70
     1
102
RTVSPropertyOp13
 70
     1
102
RTVSPropertyOp14
 70
     1
102
RTVSPropertyOp15
 70
     1
102
RTVSPropertyOp16
 70
     1
102
RTVSPropertyOp17
 70
     1
102
RTVSPropertyOp18
 70
     1
102
RTVSPropertyOp19
 70
     1
102
RTVSPropertyOp20
 70
     1
102
RTVSPropertyOp21
 70
     1
102
RTVSPropertyOp22
 70
     1
102
RTVSPropertyOp23
 70
     1
102
RTVSPropertyOp24
 70
     1
102
RTVSPropertyOp25
 70
     1
102
RTVSPropertyOp26
 70
     1
102
RTVSPropertyOp27
 70
     1
102
RTVSPropertyOp28
 70
     1
102
RTVSPropertyOp29
 70
     1
102
RTVSPropertyOp30
 70
     1
102
RTVSPropertyOp31
 70
     1
102
RTVSPropertyOp32
 70
     1
102
RTVSPropertyOp33
 70
     1
102
RTVSPropertyOp34
 70
     1
102
RTVSPropertyOp35
 70
     1
102
RTVSPropertyOp36
 70
     1
102
RTVSPropertyOp37
 70
     1
102
RTVSPropertyOp38
 70
     1
102
RTVSPropertyOp39
 70
     1
102
RTVSPropertyOp40
 70
     1
102
RTVSPropertyOp41
 70
     1
102
RTVSPropertyOp42
 70
     1
102
RTVSPropertyOp43
 70
     1
102
RTVSPropertyOp44
 70
     1
102
RTVSPropertyOp45
 70
     1
102
RTVSPropertyOp46
 70
     1
102
RTVSPropertyOp47
 70
     1
102
RTVSPropertyOp48
 70
     1
102
RTVSPropertyOp49
 70
     1
102
RTVSPropertyOp50
 70
     1
102
RTVSPropertyOp51
 70
     0
102
RTVSPropertyOp52
 70
     0
102
RTVSPropertyOp53
 70
     1
102
RTVSPropertyOp54
 70
     1
102
RTVSPropertyOp55
 70
     1
102
RTVSPropertyOp56
 70
     1
102
RTVSPropertyOp57
 70
     1
102
RTVSPost2010Prop28
280
     0
102
RTVSPost2010PropOp28
 70
     1
102
RTVSPost2010Prop29
280
     1
102
RTVSPost2010PropOp29
 70
     1
102
RTVSPost2010Prop30
280
     1
102
RTVSPost2010PropOp30
 70
     1
102
RTVSPost2010Prop31
280
     0
102
RTVSPost2010PropOp31
 70
     1
102
RTVSPost2010Prop32
280
     0
102
RTVSPost2010PropOp32
 70
     1
102
RTVSPost2010Prop33
280
     0
102
RTVSPost2010PropOp33
 70
     1
102
RTVSPost2010Prop34
280
     0
102
RTVSPost2010PropOp34
 70
     1
102
RTVSPost2010Prop35
280
     0
102
RTVSPost2010PropOp35
 70
     1
102
RTVSPost2010Prop36
280
     0
102
RTVSPost2010PropOp36
 70
     1
102
RTVSPost2010Prop37
 90
       50
102
RTVSPost2010PropOp37
 70
     1
102
RTVSPost2010Prop38
140
0.0
102
RTVSPost2010PropOp38
 70
     1
102
RTVSPost2010Prop39
140
1.0
102
RTVSPost2010PropOp39
 70
     1
102
RTVSPost2010Prop40
 90
        0
102
RTVSPost2010PropOp40
 70
     1
102
RTVSPost2010Prop41ColorIndex
 90
       18
102
RTVSPost2010Prop41ColorRGB
 90
        0
102
RTVSPost2010PropOp41
 70
     1
102
RTVSPost2010Prop42
 90
       50
102
RTVSPost2010PropOp42
 70
     1
102
RTVSPost2010Prop43
 90
        3
102
RTVSPost2010PropOp43
 70
     1
102
RTVSPost2010Prop44ColorIndex
 90
        5
102
RTVSPost2010Prop44ColorRGB
 90
      255
102
RTVSPost2010PropOp44
 70
     1
102
RTVSPost2010Prop45
280
     0
102
RTVSPost2010PropOp45
 70
     1
102
RTVSPost2010Prop46
 90
       50
102
RTVSPost2010PropOp46
 70
     1
102
RTVSPost2010Prop47
 90
       50
102
RTVSPost2010PropOp47
 70
     1
102
RTVSPost2010Prop48
 90
       50
102
RTVSPost2010PropOp48
 70
     1
102
RTVSPost2010Prop49
280
     0
102
RTVSPost2010PropOp49
 70
     1
102
RTVSPost2010Prop50
 90
       50
102
RTVSPost2010PropOp50
 70
     1
102
RTVSPost2010Prop51ColorIndex
 90
      256
102
RTVSPost2010Prop51ColorRGB
 90
-16777216
102
RTVSPost2010PropOp51
 70
     0
102
RTVSPost2010Prop52
140
1.0
102
RTVSPost2010PropOp52
 70
     0
102
RTVSPost2010Prop53
 90
        2
102
RTVSPost2010PropOp53
 70
     1
102
RTVSPost2010Prop54
  1
strokes_ogs.tif
102
RTVSPost2010PropOp54
 70
     1
102
RTVSPost2010Prop55
280
     0
102
RTVSPost2010PropOp55
 70
     1
102
RTVSPost2010Prop56
140
1.0
102
RTVSPost2010PropOp56
 70
     1
102
RTVSPost2010Prop57
140
1.0
102
RTVSPost2010PropOp57
 70
     1
  0
XRECORD
  5
1508
102
{ACAD_REACTORS
330
1507
102
}
330
1507
100
AcDbXrecord
280
     1
102
RTVSPropertyOp0
 70
     0
102
RTVSPropertyOp1
 70
     0
102
RTVSPropertyOp2
 70
     0
102
RTVSPropertyOp3
 70
     0
102
RTVSPropertyOp4
 70
     0
102
RTVSPropertyOp5
 70
     0
102
RTVSPropertyOp6
 70
     0
102
RTVSPropertyOp7
 70
     0
102
RTVSPropertyOp8
 70
     0
102
RTVSPropertyOp9
 70
     0
102
RTVSPropertyOp10
 70
     0
102
RTVSPropertyOp11
 70
     0
102
RTVSPropertyOp12
 70
     0
102
RTVSPropertyOp13
 70
     0
102
RTVSPropertyOp14
 70
     2
102
RTVSPropertyOp15
 70
     0
102
RTVSPropertyOp16
 70
     0
102
RTVSPropertyOp17
 70
     0
102
RTVSPropertyOp18
 70
     0
102
RTVSPropertyOp19
 70
     0
102
RTVSPropertyOp20
 70
     0
102
RTVSPropertyOp21
 70
     0
102
RTVSPropertyOp22
 70
     0
102
RTVSPropertyOp23
 70
     0
102
RTVSPropertyOp24
 70
     0
102
RTVSPropertyOp25
 70
     0
102
RTVSPropertyOp26
 70
     0
102
RTVSPropertyOp27
 70
     0
102
RTVSPropertyOp28
 70
     1
102
RTVSPropertyOp29
 70
     1
102
RTVSPropertyOp30
 70
     1
102
RTVSPropertyOp31
 70
     1
102
RTVSPropertyOp32
 70
     1
102
RTVSPropertyOp33
 70
     1
102
RTVSPropertyOp34
 70
     1
102
RTVSPropertyOp35
 70
     1
102
RTVSPropertyOp36
 70
     1
102
RTVSPropertyOp37
 70
     1
102
RTVSPropertyOp38
 70
     1
102
RTVSPropertyOp39
 70
     1
102
RTVSPropertyOp40
 70
     1
102
RTVSPropertyOp41
 70
     1
102
RTVSPropertyOp42
 70
     1
102
RTVSPropertyOp43
 70
     1
102
RTVSPropertyOp44
 70
     1
102
RTVSPropertyOp45
 70
     1
102
RTVSPropertyOp46
 70
     1
102
RTVSPropertyOp47
 70
     1
102
RTVSPropertyOp48
 70
     1
102
RTVSPropertyOp49
 70
     1
102
RTVSPropertyOp50
 70
     1
102
RTVSPropertyOp51
 70
     0
102
RTVSPropertyOp52
 70
     0
102
RTVSPropertyOp53
 70
     1
102
RTVSPropertyOp54
 70
     1
102
RTVSPropertyOp55
 70
     1
102
RTVSPropertyOp56
 70
     1
102
RTVSPropertyOp57
 70
     1
102
RTVSPost2010Prop28
280
     0
102
RTVSPost2010PropOp28
 70
     1
102
RTVSPost2010Prop29
280
     1
102
RTVSPost2010PropOp29
 70
     1
102
RTVSPost2010Prop30
280
     1
102
RTVSPost2010PropOp30
 70
     1
102
RTVSPost2010Prop31
280
     0
102
RTVSPost2010PropOp31
 70
     1
102
RTVSPost2010Prop32
280
     0
102
RTVSPost2010PropOp32
 70
     1
102
RTVSPost2010Prop33
280
     0
102
RTVSPost2010PropOp33
 70
     1
102
RTVSPost2010Prop34
280
     0
102
RTVSPost2010PropOp34
 70
     1
102
RTVSPost2010Prop35
280
     0
102
RTVSPost2010PropOp35
 70
     1
102
RTVSPost2010Prop36
280
     0
102
RTVSPost2010PropOp36
 70
     1
102
RTVSPost2010Prop37
 90
       50
102
RTVSPost2010PropOp37
 70
     1
102
RTVSPost2010Prop38
140
0.0
102
RTVSPost2010PropOp38
 70
     1
102
RTVSPost2010Prop39
140
1.0
102
RTVSPost2010PropOp39
 70
     1
102
RTVSPost2010Prop40
 90
        0
102
RTVSPost2010PropOp40
 70
     1
102
RTVSPost2010Prop41ColorIndex
 90
       18
102
RTVSPost2010Prop41ColorRGB
 90
        0
102
RTVSPost2010PropOp41
 70
     1
102
RTVSPost2010Prop42
 90
       50
102
RTVSPost2010PropOp42
 70
     1
102
RTVSPost2010Prop43
 90
        3
102
RTVSPost2010PropOp43
 70
     1
102
RTVSPost2010Prop44ColorIndex
 90
        5
102
RTVSPost2010Prop44ColorRGB
 90
      255
102
RTVSPost2010PropOp44
 70
     1
102
RTVSPost2010Prop45
280
     0
102
RTVSPost2010PropOp45
 70
     1
102
RTVSPost2010Prop46
 90
       50
102
RTVSPost2010PropOp46
 70
     1
102
RTVSPost2010Prop47
 90
       50
102
RTVSPost2010PropOp47
 70
     1
102
RTVSPost2010Prop48
 90
       50
102
RTVSPost2010PropOp48
 70
     1
102
RTVSPost2010Prop49
280
     0
102
RTVSPost2010PropOp49
 70
     1
102
RTVSPost2010Prop50
 90
       50
102
RTVSPost2010PropOp50
 70
     1
102
RTVSPost2010Prop51ColorIndex
 90
      256
102
RTVSPost2010Prop51ColorRGB
 90
-16777216
102
RTVSPost2010PropOp51
 70
     0
102
RTVSPost2010Prop52
140
1.0
102
RTVSPost2010PropOp52
 70
     0
102
RTVSPost2010Prop53
 90
        2
102
RTVSPost2010PropOp53
 70
     1
102
RTVSPost2010Prop54
  1
strokes_ogs.tif
102
RTVSPost2010PropOp54
 70
     1
102
RTVSPost2010Prop55
280
     0
102
RTVSPost2010PropOp55
 70
     1
102
RTVSPost2010Prop56
140
1.0
102
RTVSPost2010PropOp56
 70
     1
102
RTVSPost2010Prop57
140
1.0
102
RTVSPost2010PropOp57
 70
     1
  0
XRECORD
  5
150A
102
{ACAD_REACTORS
330
1509
102
}
330
1509
100
AcDbXrecord
280
     1
102
RTVSPropertyOp0
 70
     1
102
RTVSPropertyOp1
 70
     1
102
RTVSPropertyOp2
 70
     1
102
RTVSPropertyOp3
 70
     1
102
RTVSPropertyOp4
 70
     1
102
RTVSPropertyOp5
 70
     1
102
RTVSPropertyOp6
 70
     1
102
RTVSPropertyOp7
 70
     1
102
RTVSPropertyOp8
 70
     1
102
RTVSPropertyOp9
 70
     1
102
RTVSPropertyOp10
 70
     1
102
RTVSPropertyOp11
 70
     1
102
RTVSPropertyOp12
 70
     1
102
RTVSPropertyOp13
 70
     1
102
RTVSPropertyOp14
 70
     1
102
RTVSPropertyOp15
 70
     1
102
RTVSPropertyOp16
 70
     1
102
RTVSPropertyOp17
 70
     1
102
RTVSPropertyOp18
 70
     1
102
RTVSPropertyOp19
 70
     1
102
RTVSPropertyOp20
 70
     1
102
RTVSPropertyOp21
 70
     1
102
RTVSPropertyOp22
 70
     1
102
RTVSPropertyOp23
 70
     1
102
RTVSPropertyOp24
 70
     1
102
RTVSPropertyOp25
 70
     1
102
RTVSPropertyOp26
 70
     1
102
RTVSPropertyOp27
 70
     1
102
RTVSPropertyOp28
 70
     1
102
RTVSPropertyOp29
 70
     1
102
RTVSPropertyOp30
 70
     1
102
RTVSPropertyOp31
 70
     1
102
RTVSPropertyOp32
 70
     1
102
RTVSPropertyOp33
 70
     1
102
RTVSPropertyOp34
 70
     1
102
RTVSPropertyOp35
 70
     1
102
RTVSPropertyOp36
 70
     1
102
RTVSPropertyOp37
 70
     1
102
RTVSPropertyOp38
 70
     1
102
RTVSPropertyOp39
 70
     1
102
RTVSPropertyOp40
 70
     1
102
RTVSPropertyOp41
 70
     1
102
RTVSPropertyOp42
 70
     1
102
RTVSPropertyOp43
 70
     1
102
RTVSPropertyOp44
 70
     1
102
RTVSPropertyOp45
 70
     1
102
RTVSPropertyOp46
 70
     1
102
RTVSPropertyOp47
 70
     1
102
RTVSPropertyOp48
 70
     1
102
RTVSPropertyOp49
 70
     1
102
RTVSPropertyOp50
 70
     1
102
RTVSPropertyOp51
 70
     0
102
RTVSPropertyOp52
 70
     0
102
RTVSPropertyOp53
 70
     1
102
RTVSPropertyOp54
 70
     1
102
RTVSPropertyOp55
 70
     1
102
RTVSPropertyOp56
 70
     1
102
RTVSPropertyOp57
 70
     1
102
RTVSPost2010Prop28
280
     0
102
RTVSPost2010PropOp28
 70
     1
102
RTVSPost2010Prop29
280
     1
102
RTVSPost2010PropOp29
 70
     1
102
RTVSPost2010Prop30
280
     1
102
RTVSPost2010PropOp30
 70
     1
102
RTVSPost2010Prop31
280
     0
102
RTVSPost2010PropOp31
 70
     1
102
RTVSPost2010Prop32
280
     0
102
RTVSPost2010PropOp32
 70
     1
102
RTVSPost2010Prop33
280
     0
102
RTVSPost2010PropOp33
 70
     1
102
RTVSPost2010Prop34
280
     0
102
RTVSPost2010PropOp34
 70
     1
102
RTVSPost2010Prop35
280
     0
102
RTVSPost2010PropOp35
 70
     1
102
RTVSPost2010Prop36
280
     0
102
RTVSPost2010PropOp36
 70
     1
102
RTVSPost2010Prop37
 90
       50
102
RTVSPost2010PropOp37
 70
     1
102
RTVSPost2010Prop38
140
0.0
102
RTVSPost2010PropOp38
 70
     1
102
RTVSPost2010Prop39
140
1.0
102
RTVSPost2010PropOp39
 70
     1
102
RTVSPost2010Prop40
 90
        0
102
RTVSPost2010PropOp40
 70
     1
102
RTVSPost2010Prop41ColorIndex
 90
       18
102
RTVSPost2010Prop41ColorRGB
 90
        0
102
RTVSPost2010PropOp41
 70
     1
102
RTVSPost2010Prop42
 90
       50
102
RTVSPost2010PropOp42
 70
     1
102
RTVSPost2010Prop43
 90
        3
102
RTVSPost2010PropOp43
 70
     1
102
RTVSPost2010Prop44ColorIndex
 90
        5
102
RTVSPost2010Prop44ColorRGB
 90
      255
102
RTVSPost2010PropOp44
 70
     1
102
RTVSPost2010Prop45
280
     0
102
RTVSPost2010PropOp45
 70
     1
102
RTVSPost2010Prop46
 90
       50
102
RTVSPost2010PropOp46
 70
     1
102
RTVSPost2010Prop47
 90
       50
102
RTVSPost2010PropOp47
 70
     1
102
RTVSPost2010Prop48
 90
       50
102
RTVSPost2010PropOp48
 70
     1
102
RTVSPost2010Prop49
280
     0
102
RTVSPost2010PropOp49
 70
     1
102
RTVSPost2010Prop50
 90
       50
102
RTVSPost2010PropOp50
 70
     1
102
RTVSPost2010Prop51ColorIndex
 90
      256
102
RTVSPost2010Prop51ColorRGB
 90
-16777216
102
RTVSPost2010PropOp51
 70
     0
102
RTVSPost2010Prop52
140
1.0
102
RTVSPost2010PropOp52
 70
     0
102
RTVSPost2010Prop53
 90
        2
102
RTVSPost2010PropOp53
 70
     1
102
RTVSPost2010Prop54
  1
strokes_ogs.tif
102
RTVSPost2010PropOp54
 70
     1
102
RTVSPost2010Prop55
280
     0
102
RTVSPost2010PropOp55
 70
     1
102
RTVSPost2010Prop56
140
1.0
102
RTVSPost2010PropOp56
 70
     1
102
RTVSPost2010Prop57
140
1.0
102
RTVSPost2010PropOp57
 70
     1
  0
XRECORD
  5
150C
102
{ACAD_REACTORS
330
150B
102
}
330
150B
100
AcDbXrecord
280
     1
102
RTVSPropertyOp0
 70
     1
102
RTVSPropertyOp1
 70
     1
102
RTVSPropertyOp2
 70
     1
102
RTVSPropertyOp3
 70
     1
102
RTVSPropertyOp4
 70
     1
102
RTVSPropertyOp5
 70
     1
102
RTVSPropertyOp6
 70
     1
102
RTVSPropertyOp7
 70
     1
102
RTVSPropertyOp8
 70
     1
102
RTVSPropertyOp9
 70
     1
102
RTVSPropertyOp10
 70
     1
102
RTVSPropertyOp11
 70
     1
102
RTVSPropertyOp12
 70
     1
102
RTVSPropertyOp13
 70
     1
102
RTVSPropertyOp14
 70
     1
102
RTVSPropertyOp15
 70
     1
102
RTVSPropertyOp16
 70
     1
102
RTVSPropertyOp17
 70
     1
102
RTVSPropertyOp18
 70
     1
102
RTVSPropertyOp19
 70
     1
102
RTVSPropertyOp20
 70
     1
102
RTVSPropertyOp21
 70
     1
102
RTVSPropertyOp22
 70
     1
102
RTVSPropertyOp23
 70
     1
102
RTVSPropertyOp24
 70
     1
102
RTVSPropertyOp25
 70
     1
102
RTVSPropertyOp26
 70
     1
102
RTVSPropertyOp27
 70
     1
102
RTVSPropertyOp28
 70
     1
102
RTVSPropertyOp29
 70
     1
102
RTVSPropertyOp30
 70
     1
102
RTVSPropertyOp31
 70
     1
102
RTVSPropertyOp32
 70
     1
102
RTVSPropertyOp33
 70
     1
102
RTVSPropertyOp34
 70
     1
102
RTVSPropertyOp35
 70
     1
102
RTVSPropertyOp36
 70
     1
102
RTVSPropertyOp37
 70
     1
102
RTVSPropertyOp38
 70
     1
102
RTVSPropertyOp39
 70
     1
102
RTVSPropertyOp40
 70
     1
102
RTVSPropertyOp41
 70
     1
102
RTVSPropertyOp42
 70
     1
102
RTVSPropertyOp43
 70
     1
102
RTVSPropertyOp44
 70
     1
102
RTVSPropertyOp45
 70
     1
102
RTVSPropertyOp46
 70
     1
102
RTVSPropertyOp47
 70
     1
102
RTVSPropertyOp48
 70
     1
102
RTVSPropertyOp49
 70
     1
102
RTVSPropertyOp50
 70
     1
102
RTVSPropertyOp51
 70
     0
102
RTVSPropertyOp52
 70
     0
102
RTVSPropertyOp53
 70
     1
102
RTVSPropertyOp54
 70
     1
102
RTVSPropertyOp55
 70
     1
102
RTVSPropertyOp56
 70
     1
102
RTVSPropertyOp57
 70
     1
102
RTVSPost2010Prop28
280
     0
102
RTVSPost2010PropOp28
 70
     1
102
RTVSPost2010Prop29
280
     1
102
RTVSPost2010PropOp29
 70
     1
102
RTVSPost2010Prop30
280
     1
102
RTVSPost2010PropOp30
 70
     1
102
RTVSPost2010Prop31
280
     0
102
RTVSPost2010PropOp31
 70
     1
102
RTVSPost2010Prop32
280
     0
102
RTVSPost2010PropOp32
 70
     1
102
RTVSPost2010Prop33
280
     0
102
RTVSPost2010PropOp33
 70
     1
102
RTVSPost2010Prop34
280
     0
102
RTVSPost2010PropOp34
 70
     1
102
RTVSPost2010Prop35
280
     0
102
RTVSPost2010PropOp35
 70
     1
102
RTVSPost2010Prop36
280
     0
102
RTVSPost2010PropOp36
 70
     1
102
RTVSPost2010Prop37
 90
       50
102
RTVSPost2010PropOp37
 70
     1
102
RTVSPost2010Prop38
140
0.0
102
RTVSPost2010PropOp38
 70
     1
102
RTVSPost2010Prop39
140
1.0
102
RTVSPost2010PropOp39
 70
     1
102
RTVSPost2010Prop40
 90
        0
102
RTVSPost2010PropOp40
 70
     1
102
RTVSPost2010Prop41ColorIndex
 90
       18
102
RTVSPost2010Prop41ColorRGB
 90
        0
102
RTVSPost2010PropOp41
 70
     1
102
RTVSPost2010Prop42
 90
       50
102
RTVSPost2010PropOp42
 70
     1
102
RTVSPost2010Prop43
 90
        3
102
RTVSPost2010PropOp43
 70
     1
102
RTVSPost2010Prop44ColorIndex
 90
        5
102
RTVSPost2010Prop44ColorRGB
 90
      255
102
RTVSPost2010PropOp44
 70
     1
102
RTVSPost2010Prop45
280
     0
102
RTVSPost2010PropOp45
 70
     1
102
RTVSPost2010Prop46
 90
       50
102
RTVSPost2010PropOp46
 70
     1
102
RTVSPost2010Prop47
 90
       50
102
RTVSPost2010PropOp47
 70
     1
102
RTVSPost2010Prop48
 90
       50
102
RTVSPost2010PropOp48
 70
     1
102
RTVSPost2010Prop49
280
     0
102
RTVSPost2010PropOp49
 70
     1
102
RTVSPost2010Prop50
 90
       50
102
RTVSPost2010PropOp50
 70
     1
102
RTVSPost2010Prop51ColorIndex
 90
      256
102
RTVSPost2010Prop51ColorRGB
 90
-16777216
102
RTVSPost2010PropOp51
 70
     0
102
RTVSPost2010Prop52
140
1.0
102
RTVSPost2010PropOp52
 70
     0
102
RTVSPost2010Prop53
 90
        2
102
RTVSPost2010PropOp53
 70
     1
102
RTVSPost2010Prop54
  1
strokes_ogs.tif
102
RTVSPost2010PropOp54
 70
     1
102
RTVSPost2010Prop55
280
     0
102
RTVSPost2010PropOp55
 70
     1
102
RTVSPost2010Prop56
140
1.0
102
RTVSPost2010PropOp56
 70
     1
102
RTVSPost2010Prop57
140
1.0
102
RTVSPost2010PropOp57
 70
     1
  0
XRECORD
  5
150E
102
{ACAD_REACTORS
330
150D
102
}
330
150D
100
AcDbXrecord
280
     1
102
RTVSPropertyOp0
 70
     1
102
RTVSPropertyOp1
 70
     1
102
RTVSPropertyOp2
 70
     1
102
RTVSPropertyOp3
 70
     1
102
RTVSPropertyOp4
 70
     1
102
RTVSPropertyOp5
 70
     1
102
RTVSPropertyOp6
 70
     1
102
RTVSPropertyOp7
 70
     1
102
RTVSPropertyOp8
 70
     1
102
RTVSPropertyOp9
 70
     1
102
RTVSPropertyOp10
 70
     1
102
RTVSPropertyOp11
 70
     1
102
RTVSPropertyOp12
 70
     1
102
RTVSPropertyOp13
 70
     1
102
RTVSPropertyOp14
 70
     1
102
RTVSPropertyOp15
 70
     1
102
RTVSPropertyOp16
 70
     1
102
RTVSPropertyOp17
 70
     1
102
RTVSPropertyOp18
 70
     1
102
RTVSPropertyOp19
 70
     1
102
RTVSPropertyOp20
 70
     1
102
RTVSPropertyOp21
 70
     1
102
RTVSPropertyOp22
 70
     1
102
RTVSPropertyOp23
 70
     1
102
RTVSPropertyOp24
 70
     1
102
RTVSPropertyOp25
 70
     1
102
RTVSPropertyOp26
 70
     1
102
RTVSPropertyOp27
 70
     1
102
RTVSPropertyOp28
 70
     1
102
RTVSPropertyOp29
 70
     1
102
RTVSPropertyOp30
 70
     1
102
RTVSPropertyOp31
 70
     1
102
RTVSPropertyOp32
 70
     1
102
RTVSPropertyOp33
 70
     1
102
RTVSPropertyOp34
 70
     1
102
RTVSPropertyOp35
 70
     1
102
RTVSPropertyOp36
 70
     1
102
RTVSPropertyOp37
 70
     1
102
RTVSPropertyOp38
 70
     1
102
RTVSPropertyOp39
 70
     1
102
RTVSPropertyOp40
 70
     1
102
RTVSPropertyOp41
 70
     1
102
RTVSPropertyOp42
 70
     1
102
RTVSPropertyOp43
 70
     1
102
RTVSPropertyOp44
 70
     1
102
RTVSPropertyOp45
 70
     1
102
RTVSPropertyOp46
 70
     1
102
RTVSPropertyOp47
 70
     1
102
RTVSPropertyOp48
 70
     1
102
RTVSPropertyOp49
 70
     1
102
RTVSPropertyOp50
 70
     1
102
RTVSPropertyOp51
 70
     0
102
RTVSPropertyOp52
 70
     0
102
RTVSPropertyOp53
 70
     1
102
RTVSPropertyOp54
 70
     1
102
RTVSPropertyOp55
 70
     1
102
RTVSPropertyOp56
 70
     1
102
RTVSPropertyOp57
 70
     1
102
RTVSPost2010Prop28
280
     0
102
RTVSPost2010PropOp28
 70
     1
102
RTVSPost2010Prop29
280
     1
102
RTVSPost2010PropOp29
 70
     1
102
RTVSPost2010Prop30
280
     1
102
RTVSPost2010PropOp30
 70
     1
102
RTVSPost2010Prop31
280
     0
102
RTVSPost2010PropOp31
 70
     1
102
RTVSPost2010Prop32
280
     0
102
RTVSPost2010PropOp32
 70
     1
102
RTVSPost2010Prop33
280
     0
102
RTVSPost2010PropOp33
 70
     1
102
RTVSPost2010Prop34
280
     0
102
RTVSPost2010PropOp34
 70
     1
102
RTVSPost2010Prop35
280
     0
102
RTVSPost2010PropOp35
 70
     1
102
RTVSPost2010Prop36
280
     0
102
RTVSPost2010PropOp36
 70
     1
102
RTVSPost2010Prop37
 90
       50
102
RTVSPost2010PropOp37
 70
     1
102
RTVSPost2010Prop38
140
0.0
102
RTVSPost2010PropOp38
 70
     1
102
RTVSPost2010Prop39
140
1.0
102
RTVSPost2010PropOp39
 70
     1
102
RTVSPost2010Prop40
 90
        0
102
RTVSPost2010PropOp40
 70
     1
102
RTVSPost2010Prop41ColorIndex
 90
       18
102
RTVSPost2010Prop41ColorRGB
 90
        0
102
RTVSPost2010PropOp41
 70
     1
102
RTVSPost2010Prop42
 90
       50
102
RTVSPost2010PropOp42
 70
     1
102
RTVSPost2010Prop43
 90
        3
102
RTVSPost2010PropOp43
 70
     1
102
RTVSPost2010Prop44ColorIndex
 90
        5
102
RTVSPost2010Prop44ColorRGB
 90
      255
102
RTVSPost2010PropOp44
 70
     1
102
RTVSPost2010Prop45
280
     0
102
RTVSPost2010PropOp45
 70
     1
102
RTVSPost2010Prop46
 90
       50
102
RTVSPost2010PropOp46
 70
     1
102
RTVSPost2010Prop47
 90
       50
102
RTVSPost2010PropOp47
 70
     1
102
RTVSPost2010Prop48
 90
       50
102
RTVSPost2010PropOp48
 70
     1
102
RTVSPost2010Prop49
280
     0
102
RTVSPost2010PropOp49
 70
     1
102
RTVSPost2010Prop50
 90
       50
102
RTVSPost2010PropOp50
 70
     1
102
RTVSPost2010Prop51ColorIndex
 90
      256
102
RTVSPost2010Prop51ColorRGB
 90
-16777216
102
RTVSPost2010PropOp51
 70
     0
102
RTVSPost2010Prop52
140
1.0
102
RTVSPost2010PropOp52
 70
     0
102
RTVSPost2010Prop53
 90
        2
102
RTVSPost2010PropOp53
 70
     1
102
RTVSPost2010Prop54
  1
strokes_ogs.tif
102
RTVSPost2010PropOp54
 70
     1
102
RTVSPost2010Prop55
280
     0
102
RTVSPost2010PropOp55
 70
     1
102
RTVSPost2010Prop56
140
1.0
102
RTVSPost2010PropOp56
 70
     1
102
RTVSPost2010Prop57
140
1.0
102
RTVSPost2010PropOp57
 70
     1
  0
XRECORD
  5
1510
102
{ACAD_REACTORS
330
150F
102
}
330
150F
100
AcDbXrecord
280
     1
102
RTVSPropertyOp0
 70
     1
102
RTVSPropertyOp1
 70
     1
102
RTVSPropertyOp2
 70
     1
102
RTVSPropertyOp3
 70
     1
102
RTVSPropertyOp4
 70
     1
102
RTVSPropertyOp5
 70
     1
102
RTVSPropertyOp6
 70
     1
102
RTVSPropertyOp7
 70
     1
102
RTVSPropertyOp8
 70
     1
102
RTVSPropertyOp9
 70
     1
102
RTVSPropertyOp10
 70
     1
102
RTVSPropertyOp11
 70
     1
102
RTVSPropertyOp12
 70
     1
102
RTVSPropertyOp13
 70
     1
102
RTVSPropertyOp14
 70
     1
102
RTVSPropertyOp15
 70
     1
102
RTVSPropertyOp16
 70
     1
102
RTVSPropertyOp17
 70
     1
102
RTVSPropertyOp18
 70
     1
102
RTVSPropertyOp19
 70
     1
102
RTVSPropertyOp20
 70
     1
102
RTVSPropertyOp21
 70
     1
102
RTVSPropertyOp22
 70
     1
102
RTVSPropertyOp23
 70
     1
102
RTVSPropertyOp24
 70
     1
102
RTVSPropertyOp25
 70
     1
102
RTVSPropertyOp26
 70
     1
102
RTVSPropertyOp27
 70
     1
102
RTVSPropertyOp28
 70
     1
102
RTVSPropertyOp29
 70
     1
102
RTVSPropertyOp30
 70
     1
102
RTVSPropertyOp31
 70
     1
102
RTVSPropertyOp32
 70
     1
102
RTVSPropertyOp33
 70
     1
102
RTVSPropertyOp34
 70
     1
102
RTVSPropertyOp35
 70
     1
102
RTVSPropertyOp36
 70
     1
102
RTVSPropertyOp37
 70
     1
102
RTVSPropertyOp38
 70
     1
102
RTVSPropertyOp39
 70
     1
102
RTVSPropertyOp40
 70
     1
102
RTVSPropertyOp41
 70
     1
102
RTVSPropertyOp42
 70
     1
102
RTVSPropertyOp43
 70
     1
102
RTVSPropertyOp44
 70
     1
102
RTVSPropertyOp45
 70
     1
102
RTVSPropertyOp46
 70
     1
102
RTVSPropertyOp47
 70
     1
102
RTVSPropertyOp48
 70
     1
102
RTVSPropertyOp49
 70
     1
102
RTVSPropertyOp50
 70
     1
102
RTVSPropertyOp51
 70
     0
102
RTVSPropertyOp52
 70
     0
102
RTVSPropertyOp53
 70
     1
102
RTVSPropertyOp54
 70
     1
102
RTVSPropertyOp55
 70
     1
102
RTVSPropertyOp56
 70
     1
102
RTVSPropertyOp57
 70
     1
102
RTVSPost2010Prop28
280
     0
102
RTVSPost2010PropOp28
 70
     1
102
RTVSPost2010Prop29
280
     1
102
RTVSPost2010PropOp29
 70
     1
102
RTVSPost2010Prop30
280
     1
102
RTVSPost2010PropOp30
 70
     1
102
RTVSPost2010Prop31
280
     0
102
RTVSPost2010PropOp31
 70
     1
102
RTVSPost2010Prop32
280
     0
102
RTVSPost2010PropOp32
 70
     1
102
RTVSPost2010Prop33
280
     0
102
RTVSPost2010PropOp33
 70
     1
102
RTVSPost2010Prop34
280
     0
102
RTVSPost2010PropOp34
 70
     1
102
RTVSPost2010Prop35
280
     0
102
RTVSPost2010PropOp35
 70
     1
102
RTVSPost2010Prop36
280
     0
102
RTVSPost2010PropOp36
 70
     1
102
RTVSPost2010Prop37
 90
       50
102
RTVSPost2010PropOp37
 70
     1
102
RTVSPost2010Prop38
140
0.0
102
RTVSPost2010PropOp38
 70
     1
102
RTVSPost2010Prop39
140
1.0
102
RTVSPost2010PropOp39
 70
     1
102
RTVSPost2010Prop40
 90
        0
102
RTVSPost2010PropOp40
 70
     1
102
RTVSPost2010Prop41ColorIndex
 90
       18
102
RTVSPost2010Prop41ColorRGB
 90
        0
102
RTVSPost2010PropOp41
 70
     1
102
RTVSPost2010Prop42
 90
       50
102
RTVSPost2010PropOp42
 70
     1
102
RTVSPost2010Prop43
 90
        3
102
RTVSPost2010PropOp43
 70
     1
102
RTVSPost2010Prop44ColorIndex
 90
        5
102
RTVSPost2010Prop44ColorRGB
 90
      255
102
RTVSPost2010PropOp44
 70
     1
102
RTVSPost2010Prop45
280
     0
102
RTVSPost2010PropOp45
 70
     1
102
RTVSPost2010Prop46
 90
       50
102
RTVSPost2010PropOp46
 70
     1
102
RTVSPost2010Prop47
 90
       50
102
RTVSPost2010PropOp47
 70
     1
102
RTVSPost2010Prop48
 90
       50
102
RTVSPost2010PropOp48
 70
     1
102
RTVSPost2010Prop49
280
     0
102
RTVSPost2010PropOp49
 70
     1
102
RTVSPost2010Prop50
 90
       50
102
RTVSPost2010PropOp50
 70
     1
102
RTVSPost2010Prop51ColorIndex
 90
      256
102
RTVSPost2010Prop51ColorRGB
 90
-16777216
102
RTVSPost2010PropOp51
 70
     0
102
RTVSPost2010Prop52
140
1.0
102
RTVSPost2010PropOp52
 70
     0
102
RTVSPost2010Prop53
 90
        2
102
RTVSPost2010PropOp53
 70
     1
102
RTVSPost2010Prop54
  1
strokes_ogs.tif
102
RTVSPost2010PropOp54
 70
     1
102
RTVSPost2010Prop55
280
     0
102
RTVSPost2010PropOp55
 70
     1
102
RTVSPost2010Prop56
140
1.0
102
RTVSPost2010PropOp56
 70
     1
102
RTVSPost2010Prop57
140
1.0
102
RTVSPost2010PropOp57
 70
     1
  0
XRECORD
  5
1512
102
{ACAD_REACTORS
330
1511
102
}
330
1511
100
AcDbXrecord
280
     1
102
RTVSPropertyOp0
 70
     1
102
RTVSPropertyOp1
 70
     1
102
RTVSPropertyOp2
 70
     1
102
RTVSPropertyOp3
 70
     1
102
RTVSPropertyOp4
 70
     1
102
RTVSPropertyOp5
 70
     1
102
RTVSPropertyOp6
 70
     1
102
RTVSPropertyOp7
 70
     1
102
RTVSPropertyOp8
 70
     1
102
RTVSPropertyOp9
 70
     1
102
RTVSPropertyOp10
 70
     1
102
RTVSPropertyOp11
 70
     1
102
RTVSPropertyOp12
 70
     1
102
RTVSPropertyOp13
 70
     1
102
RTVSPropertyOp14
 70
     1
102
RTVSPropertyOp15
 70
     1
102
RTVSPropertyOp16
 70
     1
102
RTVSPropertyOp17
 70
     1
102
RTVSPropertyOp18
 70
     1
102
RTVSPropertyOp19
 70
     1
102
RTVSPropertyOp20
 70
     1
102
RTVSPropertyOp21
 70
     1
102
RTVSPropertyOp22
 70
     1
102
RTVSPropertyOp23
 70
     1
102
RTVSPropertyOp24
 70
     1
102
RTVSPropertyOp25
 70
     1
102
RTVSPropertyOp26
 70
     1
102
RTVSPropertyOp27
 70
     1
102
RTVSPropertyOp28
 70
     1
102
RTVSPropertyOp29
 70
     1
102
RTVSPropertyOp30
 70
     1
102
RTVSPropertyOp31
 70
     1
102
RTVSPropertyOp32
 70
     1
102
RTVSPropertyOp33
 70
     1
102
RTVSPropertyOp34
 70
     1
102
RTVSPropertyOp35
 70
     1
102
RTVSPropertyOp36
 70
     1
102
RTVSPropertyOp37
 70
     1
102
RTVSPropertyOp38
 70
     1
102
RTVSPropertyOp39
 70
     1
102
RTVSPropertyOp40
 70
     1
102
RTVSPropertyOp41
 70
     1
102
RTVSPropertyOp42
 70
     1
102
RTVSPropertyOp43
 70
     1
102
RTVSPropertyOp44
 70
     1
102
RTVSPropertyOp45
 70
     1
102
RTVSPropertyOp46
 70
     1
102
RTVSPropertyOp47
 70
     1
102
RTVSPropertyOp48
 70
     1
102
RTVSPropertyOp49
 70
     1
102
RTVSPropertyOp50
 70
     1
102
RTVSPropertyOp51
 70
     0
102
RTVSPropertyOp52
 70
     0
102
RTVSPropertyOp53
 70
     1
102
RTVSPropertyOp54
 70
     1
102
RTVSPropertyOp55
 70
     1
102
RTVSPropertyOp56
 70
     1
102
RTVSPropertyOp57
 70
     1
102
RTVSPost2010Prop28
280
     0
102
RTVSPost2010PropOp28
 70
     1
102
RTVSPost2010Prop29
280
     1
102
RTVSPost2010PropOp29
 70
     1
102
RTVSPost2010Prop30
280
     1
102
RTVSPost2010PropOp30
 70
     1
102
RTVSPost2010Prop31
280
     0
102
RTVSPost2010PropOp31
 70
     1
102
RTVSPost2010Prop32
280
     0
102
RTVSPost2010PropOp32
 70
     1
102
RTVSPost2010Prop33
280
     0
102
RTVSPost2010PropOp33
 70
     1
102
RTVSPost2010Prop34
280
     0
102
RTVSPost2010PropOp34
 70
     1
102
RTVSPost2010Prop35
280
     0
102
RTVSPost2010PropOp35
 70
     1
102
RTVSPost2010Prop36
280
     0
102
RTVSPost2010PropOp36
 70
     1
102
RTVSPost2010Prop37
 90
       50
102
RTVSPost2010PropOp37
 70
     1
102
RTVSPost2010Prop38
140
0.0
102
RTVSPost2010PropOp38
 70
     1
102
RTVSPost2010Prop39
140
1.0
102
RTVSPost2010PropOp39
 70
     1
102
RTVSPost2010Prop40
 90
        0
102
RTVSPost2010PropOp40
 70
     1
102
RTVSPost2010Prop41ColorIndex
 90
       18
102
RTVSPost2010Prop41ColorRGB
 90
        0
102
RTVSPost2010PropOp41
 70
     1
102
RTVSPost2010Prop42
 90
       50
102
RTVSPost2010PropOp42
 70
     1
102
RTVSPost2010Prop43
 90
        3
102
RTVSPost2010PropOp43
 70
     1
102
RTVSPost2010Prop44ColorIndex
 90
        5
102
RTVSPost2010Prop44ColorRGB
 90
      255
102
RTVSPost2010PropOp44
 70
     1
102
RTVSPost2010Prop45
280
     0
102
RTVSPost2010PropOp45
 70
     1
102
RTVSPost2010Prop46
 90
       50
102
RTVSPost2010PropOp46
 70
     1
102
RTVSPost2010Prop47
 90
       50
102
RTVSPost2010PropOp47
 70
     1
102
RTVSPost2010Prop48
 90
       50
102
RTVSPost2010PropOp48
 70
     1
102
RTVSPost2010Prop49
280
     0
102
RTVSPost2010PropOp49
 70
     1
102
RTVSPost2010Prop50
 90
       50
102
RTVSPost2010PropOp50
 70
     1
102
RTVSPost2010Prop51ColorIndex
 90
      256
102
RTVSPost2010Prop51ColorRGB
 90
-16777216
102
RTVSPost2010PropOp51
 70
     0
102
RTVSPost2010Prop52
140
1.0
102
RTVSPost2010PropOp52
 70
     0
102
RTVSPost2010Prop53
 90
        2
102
RTVSPost2010PropOp53
 70
     1
102
RTVSPost2010Prop54
  1
strokes_ogs.tif
102
RTVSPost2010PropOp54
 70
     1
102
RTVSPost2010Prop55
280
     0
102
RTVSPost2010PropOp55
 70
     1
102
RTVSPost2010Prop56
140
1.0
102
RTVSPost2010PropOp56
 70
     1
102
RTVSPost2010Prop57
140
1.0
102
RTVSPost2010PropOp57
 70
     1
  0
XRECORD
  5
1514
102
{ACAD_REACTORS
330
1513
102
}
330
1513
100
AcDbXrecord
280
     1
102
RTVSPropertyOp0
 70
     1
102
RTVSPropertyOp1
 70
     1
102
RTVSPropertyOp2
 70
     1
102
RTVSPropertyOp3
 70
     1
102
RTVSPropertyOp4
 70
     1
102
RTVSPropertyOp5
 70
     1
102
RTVSPropertyOp6
 70
     1
102
RTVSPropertyOp7
 70
     1
102
RTVSPropertyOp8
 70
     1
102
RTVSPropertyOp9
 70
     1
102
RTVSPropertyOp10
 70
     1
102
RTVSPropertyOp11
 70
     1
102
RTVSPropertyOp12
 70
     1
102
RTVSPropertyOp13
 70
     1
102
RTVSPropertyOp14
 70
     1
102
RTVSPropertyOp15
 70
     1
102
RTVSPropertyOp16
 70
     1
102
RTVSPropertyOp17
 70
     1
102
RTVSPropertyOp18
 70
     1
102
RTVSPropertyOp19
 70
     1
102
RTVSPropertyOp20
 70
     1
102
RTVSPropertyOp21
 70
     1
102
RTVSPropertyOp22
 70
     1
102
RTVSPropertyOp23
 70
     1
102
RTVSPropertyOp24
 70
     1
102
RTVSPropertyOp25
 70
     1
102
RTVSPropertyOp26
 70
     1
102
RTVSPropertyOp27
 70
     1
102
RTVSPropertyOp28
 70
     1
102
RTVSPropertyOp29
 70
     1
102
RTVSPropertyOp30
 70
     1
102
RTVSPropertyOp31
 70
     1
102
RTVSPropertyOp32
 70
     1
102
RTVSPropertyOp33
 70
     1
102
RTVSPropertyOp34
 70
     1
102
RTVSPropertyOp35
 70
     1
102
RTVSPropertyOp36
 70
     1
102
RTVSPropertyOp37
 70
     1
102
RTVSPropertyOp38
 70
     1
102
RTVSPropertyOp39
 70
     1
102
RTVSPropertyOp40
 70
     1
102
RTVSPropertyOp41
 70
     1
102
RTVSPropertyOp42
 70
     1
102
RTVSPropertyOp43
 70
     1
102
RTVSPropertyOp44
 70
     1
102
RTVSPropertyOp45
 70
     1
102
RTVSPropertyOp46
 70
     1
102
RTVSPropertyOp47
 70
     1
102
RTVSPropertyOp48
 70
     1
102
RTVSPropertyOp49
 70
     1
102
RTVSPropertyOp50
 70
     1
102
RTVSPropertyOp51
 70
     0
102
RTVSPropertyOp52
 70
     0
102
RTVSPropertyOp53
 70
     1
102
RTVSPropertyOp54
 70
     1
102
RTVSPropertyOp55
 70
     1
102
RTVSPropertyOp56
 70
     1
102
RTVSPropertyOp57
 70
     1
102
RTVSPost2010Prop28
280
     0
102
RTVSPost2010PropOp28
 70
     1
102
RTVSPost2010Prop29
280
     1
102
RTVSPost2010PropOp29
 70
     1
102
RTVSPost2010Prop30
280
     1
102
RTVSPost2010PropOp30
 70
     1
102
RTVSPost2010Prop31
280
     0
102
RTVSPost2010PropOp31
 70
     1
102
RTVSPost2010Prop32
280
     0
102
RTVSPost2010PropOp32
 70
     1
102
RTVSPost2010Prop33
280
     0
102
RTVSPost2010PropOp33
 70
     1
102
RTVSPost2010Prop34
280
     0
102
RTVSPost2010PropOp34
 70
     1
102
RTVSPost2010Prop35
280
     0
102
RTVSPost2010PropOp35
 70
     1
102
RTVSPost2010Prop36
280
     0
102
RTVSPost2010PropOp36
 70
     1
102
RTVSPost2010Prop37
 90
       50
102
RTVSPost2010PropOp37
 70
     1
102
RTVSPost2010Prop38
140
0.0
102
RTVSPost2010PropOp38
 70
     1
102
RTVSPost2010Prop39
140
1.0
102
RTVSPost2010PropOp39
 70
     1
102
RTVSPost2010Prop40
 90
        0
102
RTVSPost2010PropOp40
 70
     1
102
RTVSPost2010Prop41ColorIndex
 90
       18
102
RTVSPost2010Prop41ColorRGB
 90
        0
102
RTVSPost2010PropOp41
 70
     1
102
RTVSPost2010Prop42
 90
       50
102
RTVSPost2010PropOp42
 70
     1
102
RTVSPost2010Prop43
 90
        3
102
RTVSPost2010PropOp43
 70
     1
102
RTVSPost2010Prop44ColorIndex
 90
        5
102
RTVSPost2010Prop44ColorRGB
 90
      255
102
RTVSPost2010PropOp44
 70
     1
102
RTVSPost2010Prop45
280
     0
102
RTVSPost2010PropOp45
 70
     1
102
RTVSPost2010Prop46
 90
       50
102
RTVSPost2010PropOp46
 70
     1
102
RTVSPost2010Prop47
 90
       50
102
RTVSPost2010PropOp47
 70
     1
102
RTVSPost2010Prop48
 90
       50
102
RTVSPost2010PropOp48
 70
     1
102
RTVSPost2010Prop49
280
     0
102
RTVSPost2010PropOp49
 70
     1
102
RTVSPost2010Prop50
 90
       50
102
RTVSPost2010PropOp50
 70
     1
102
RTVSPost2010Prop51ColorIndex
 90
      256
102
RTVSPost2010Prop51ColorRGB
 90
-16777216
102
RTVSPost2010PropOp51
 70
     0
102
RTVSPost2010Prop52
140
1.0
102
RTVSPost2010PropOp52
 70
     0
102
RTVSPost2010Prop53
 90
        2
102
RTVSPost2010PropOp53
 70
     1
102
RTVSPost2010Prop54
  1
strokes_ogs.tif
102
RTVSPost2010PropOp54
 70
     1
102
RTVSPost2010Prop55
280
     0
102
RTVSPost2010PropOp55
 70
     1
102
RTVSPost2010Prop56
140
1.0
102
RTVSPost2010PropOp56
 70
     1
102
RTVSPost2010Prop57
140
1.0
102
RTVSPost2010PropOp57
 70
     1
  0
XRECORD
  5
1516
102
{ACAD_REACTORS
330
1515
102
}
330
1515
100
AcDbXrecord
280
     1
102
RTVSPropertyOp0
 70
     0
102
RTVSPropertyOp1
 70
     0
102
RTVSPropertyOp2
 70
     0
102
RTVSPropertyOp3
 70
     0
102
RTVSPropertyOp4
 70
     0
102
RTVSPropertyOp5
 70
     0
102
RTVSPropertyOp6
 70
     0
102
RTVSPropertyOp7
 70
     0
102
RTVSPropertyOp8
 70
     0
102
RTVSPropertyOp9
 70
     0
102
RTVSPropertyOp10
 70
     0
102
RTVSPropertyOp11
 70
     0
102
RTVSPropertyOp12
 70
     0
102
RTVSPropertyOp13
 70
     0
102
RTVSPropertyOp14
 70
     2
102
RTVSPropertyOp15
 70
     0
102
RTVSPropertyOp16
 70
     0
102
RTVSPropertyOp17
 70
     0
102
RTVSPropertyOp18
 70
     0
102
RTVSPropertyOp19
 70
     0
102
RTVSPropertyOp20
 70
     0
102
RTVSPropertyOp21
 70
     0
102
RTVSPropertyOp22
 70
     0
102
RTVSPropertyOp23
 70
     0
102
RTVSPropertyOp24
 70
     0
102
RTVSPropertyOp25
 70
     0
102
RTVSPropertyOp26
 70
     0
102
RTVSPropertyOp27
 70
     0
102
RTVSPropertyOp28
 70
     1
102
RTVSPropertyOp29
 70
     1
102
RTVSPropertyOp30
 70
     1
102
RTVSPropertyOp31
 70
     1
102
RTVSPropertyOp32
 70
     1
102
RTVSPropertyOp33
 70
     1
102
RTVSPropertyOp34
 70
     1
102
RTVSPropertyOp35
 70
     1
102
RTVSPropertyOp36
 70
     1
102
RTVSPropertyOp37
 70
     1
102
RTVSPropertyOp38
 70
     1
102
RTVSPropertyOp39
 70
     1
102
RTVSPropertyOp40
 70
     1
102
RTVSPropertyOp41
 70
     1
102
RTVSPropertyOp42
 70
     1
102
RTVSPropertyOp43
 70
     1
102
RTVSPropertyOp44
 70
     1
102
RTVSPropertyOp45
 70
     1
102
RTVSPropertyOp46
 70
     1
102
RTVSPropertyOp47
 70
     1
102
RTVSPropertyOp48
 70
     1
102
RTVSPropertyOp49
 70
     1
102
RTVSPropertyOp50
 70
     1
102
RTVSPropertyOp51
 70
     0
102
RTVSPropertyOp52
 70
     0
102
RTVSPropertyOp53
 70
     1
102
RTVSPropertyOp54
 70
     1
102
RTVSPropertyOp55
 70
     1
102
RTVSPropertyOp56
 70
     1
102
RTVSPropertyOp57
 70
     1
102
RTVSPost2010Prop28
280
     0
102
RTVSPost2010PropOp28
 70
     1
102
RTVSPost2010Prop29
280
     1
102
RTVSPost2010PropOp29
 70
     1
102
RTVSPost2010Prop30
280
     1
102
RTVSPost2010PropOp30
 70
     1
102
RTVSPost2010Prop31
280
     0
102
RTVSPost2010PropOp31
 70
     1
102
RTVSPost2010Prop32
280
     0
102
RTVSPost2010PropOp32
 70
     1
102
RTVSPost2010Prop33
280
     0
102
RTVSPost2010PropOp33
 70
     1
102
RTVSPost2010Prop34
280
     0
102
RTVSPost2010PropOp34
 70
     1
102
RTVSPost2010Prop35
280
     0
102
RTVSPost2010PropOp35
 70
     1
102
RTVSPost2010Prop36
280
     0
102
RTVSPost2010PropOp36
 70
     1
102
RTVSPost2010Prop37
 90
       50
102
RTVSPost2010PropOp37
 70
     1
102
RTVSPost2010Prop38
140
0.0
102
RTVSPost2010PropOp38
 70
     1
102
RTVSPost2010Prop39
140
1.0
102
RTVSPost2010PropOp39
 70
     1
102
RTVSPost2010Prop40
 90
        0
102
RTVSPost2010PropOp40
 70
     1
102
RTVSPost2010Prop41ColorIndex
 90
       18
102
RTVSPost2010Prop41ColorRGB
 90
        0
102
RTVSPost2010PropOp41
 70
     1
102
RTVSPost2010Prop42
 90
       50
102
RTVSPost2010PropOp42
 70
     1
102
RTVSPost2010Prop43
 90
        3
102
RTVSPost2010PropOp43
 70
     1
102
RTVSPost2010Prop44ColorIndex
 90
        5
102
RTVSPost2010Prop44ColorRGB
 90
      255
102
RTVSPost2010PropOp44
 70
     1
102
RTVSPost2010Prop45
280
     0
102
RTVSPost2010PropOp45
 70
     1
102
RTVSPost2010Prop46
 90
       50
102
RTVSPost2010PropOp46
 70
     1
102
RTVSPost2010Prop47
 90
       50
102
RTVSPost2010PropOp47
 70
     1
102
RTVSPost2010Prop48
 90
       50
102
RTVSPost2010PropOp48
 70
     1
102
RTVSPost2010Prop49
280
     0
102
RTVSPost2010PropOp49
 70
     1
102
RTVSPost2010Prop50
 90
       50
102
RTVSPost2010PropOp50
 70
     1
102
RTVSPost2010Prop51ColorIndex
 90
      256
102
RTVSPost2010Prop51ColorRGB
 90
-16777216
102
RTVSPost2010PropOp51
 70
     0
102
RTVSPost2010Prop52
140
1.0
102
RTVSPost2010PropOp52
 70
     0
102
RTVSPost2010Prop53
 90
        2
102
RTVSPost2010PropOp53
 70
     1
102
RTVSPost2010Prop54
  1
strokes_ogs.tif
102
RTVSPost2010PropOp54
 70
     1
102
RTVSPost2010Prop55
280
     0
102
RTVSPost2010PropOp55
 70
     1
102
RTVSPost2010Prop56
140
1.0
102
RTVSPost2010PropOp56
 70
     1
102
RTVSPost2010Prop57
140
1.0
102
RTVSPost2010PropOp57
 70
     1
  0
XRECORD
  5
1518
102
{ACAD_REACTORS
330
1517
102
}
330
1517
100
AcDbXrecord
280
     1
102
RTVSPropertyOp0
 70
     1
102
RTVSPropertyOp1
 70
     1
102
RTVSPropertyOp2
 70
     1
102
RTVSPropertyOp3
 70
     1
102
RTVSPropertyOp4
 70
     1
102
RTVSPropertyOp5
 70
     1
102
RTVSPropertyOp6
 70
     1
102
RTVSPropertyOp7
 70
     1
102
RTVSPropertyOp8
 70
     1
102
RTVSPropertyOp9
 70
     1
102
RTVSPropertyOp10
 70
     1
102
RTVSPropertyOp11
 70
     1
102
RTVSPropertyOp12
 70
     1
102
RTVSPropertyOp13
 70
     1
102
RTVSPropertyOp14
 70
     1
102
RTVSPropertyOp15
 70
     1
102
RTVSPropertyOp16
 70
     1
102
RTVSPropertyOp17
 70
     1
102
RTVSPropertyOp18
 70
     1
102
RTVSPropertyOp19
 70
     1
102
RTVSPropertyOp20
 70
     1
102
RTVSPropertyOp21
 70
     1
102
RTVSPropertyOp22
 70
     1
102
RTVSPropertyOp23
 70
     1
102
RTVSPropertyOp24
 70
     1
102
RTVSPropertyOp25
 70
     1
102
RTVSPropertyOp26
 70
     1
102
RTVSPropertyOp27
 70
     1
102
RTVSPropertyOp28
 70
     1
102
RTVSPropertyOp29
 70
     1
102
RTVSPropertyOp30
 70
     1
102
RTVSPropertyOp31
 70
     1
102
RTVSPropertyOp32
 70
     1
102
RTVSPropertyOp33
 70
     1
102
RTVSPropertyOp34
 70
     1
102
RTVSPropertyOp35
 70
     1
102
RTVSPropertyOp36
 70
     1
102
RTVSPropertyOp37
 70
     1
102
RTVSPropertyOp38
 70
     1
102
RTVSPropertyOp39
 70
     1
102
RTVSPropertyOp40
 70
     1
102
RTVSPropertyOp41
 70
     1
102
RTVSPropertyOp42
 70
     1
102
RTVSPropertyOp43
 70
     1
102
RTVSPropertyOp44
 70
     1
102
RTVSPropertyOp45
 70
     1
102
RTVSPropertyOp46
 70
     1
102
RTVSPropertyOp47
 70
     1
102
RTVSPropertyOp48
 70
     1
102
RTVSPropertyOp49
 70
     1
102
RTVSPropertyOp50
 70
     1
102
RTVSPropertyOp51
 70
     0
102
RTVSPropertyOp52
 70
     0
102
RTVSPropertyOp53
 70
     1
102
RTVSPropertyOp54
 70
     1
102
RTVSPropertyOp55
 70
     1
102
RTVSPropertyOp56
 70
     1
102
RTVSPropertyOp57
 70
     1
102
RTVSPost2010Prop28
280
     0
102
RTVSPost2010PropOp28
 70
     1
102
RTVSPost2010Prop29
280
     1
102
RTVSPost2010PropOp29
 70
     1
102
RTVSPost2010Prop30
280
     1
102
RTVSPost2010PropOp30
 70
     1
102
RTVSPost2010Prop31
280
     0
102
RTVSPost2010PropOp31
 70
     1
102
RTVSPost2010Prop32
280
     0
102
RTVSPost2010PropOp32
 70
     1
102
RTVSPost2010Prop33
280
     0
102
RTVSPost2010PropOp33
 70
     1
102
RTVSPost2010Prop34
280
     0
102
RTVSPost2010PropOp34
 70
     1
102
RTVSPost2010Prop35
280
     0
102
RTVSPost2010PropOp35
 70
     1
102
RTVSPost2010Prop36
280
     0
102
RTVSPost2010PropOp36
 70
     1
102
RTVSPost2010Prop37
 90
       50
102
RTVSPost2010PropOp37
 70
     1
102
RTVSPost2010Prop38
140
0.0
102
RTVSPost2010PropOp38
 70
     1
102
RTVSPost2010Prop39
140
1.0
102
RTVSPost2010PropOp39
 70
     1
102
RTVSPost2010Prop40
 90
        0
102
RTVSPost2010PropOp40
 70
     1
102
RTVSPost2010Prop41ColorIndex
 90
       18
102
RTVSPost2010Prop41ColorRGB
 90
        0
102
RTVSPost2010PropOp41
 70
     1
102
RTVSPost2010Prop42
 90
       50
102
RTVSPost2010PropOp42
 70
     1
102
RTVSPost2010Prop43
 90
        3
102
RTVSPost2010PropOp43
 70
     1
102
RTVSPost2010Prop44ColorIndex
 90
        5
102
RTVSPost2010Prop44ColorRGB
 90
      255
102
RTVSPost2010PropOp44
 70
     1
102
RTVSPost2010Prop45
280
     0
102
RTVSPost2010PropOp45
 70
     1
102
RTVSPost2010Prop46
 90
       50
102
RTVSPost2010PropOp46
 70
     1
102
RTVSPost2010Prop47
 90
       50
102
RTVSPost2010PropOp47
 70
     1
102
RTVSPost2010Prop48
 90
       50
102
RTVSPost2010PropOp48
 70
     1
102
RTVSPost2010Prop49
280
     0
102
RTVSPost2010PropOp49
 70
     1
102
RTVSPost2010Prop50
 90
       50
102
RTVSPost2010PropOp50
 70
     1
102
RTVSPost2010Prop51ColorIndex
 90
      256
102
RTVSPost2010Prop51ColorRGB
 90
-16777216
102
RTVSPost2010PropOp51
 70
     0
102
RTVSPost2010Prop52
140
1.0
102
RTVSPost2010PropOp52
 70
     0
102
RTVSPost2010Prop53
 90
        2
102
RTVSPost2010PropOp53
 70
     1
102
RTVSPost2010Prop54
  1
strokes_ogs.tif
102
RTVSPost2010PropOp54
 70
     1
102
RTVSPost2010Prop55
280
     0
102
RTVSPost2010PropOp55
 70
     1
102
RTVSPost2010Prop56
140
1.0
102
RTVSPost2010PropOp56
 70
     1
102
RTVSPost2010Prop57
140
1.0
102
RTVSPost2010PropOp57
 70
     1
  0
XRECORD
  5
151A
102
{ACAD_REACTORS
330
1519
102
}
330
1519
100
AcDbXrecord
280
     1
102
RTVSPropertyOp0
 70
     0
102
RTVSPropertyOp1
 70
     0
102
RTVSPropertyOp2
 70
     0
102
RTVSPropertyOp3
 70
     0
102
RTVSPropertyOp4
 70
     0
102
RTVSPropertyOp5
 70
     0
102
RTVSPropertyOp6
 70
     0
102
RTVSPropertyOp7
 70
     0
102
RTVSPropertyOp8
 70
     0
102
RTVSPropertyOp9
 70
     0
102
RTVSPropertyOp10
 70
     0
102
RTVSPropertyOp11
 70
     0
102
RTVSPropertyOp12
 70
     0
102
RTVSPropertyOp13
 70
     0
102
RTVSPropertyOp14
 70
     2
102
RTVSPropertyOp15
 70
     0
102
RTVSPropertyOp16
 70
     0
102
RTVSPropertyOp17
 70
     0
102
RTVSPropertyOp18
 70
     0
102
RTVSPropertyOp19
 70
     0
102
RTVSPropertyOp20
 70
     0
102
RTVSPropertyOp21
 70
     0
102
RTVSPropertyOp22
 70
     0
102
RTVSPropertyOp23
 70
     0
102
RTVSPropertyOp24
 70
     0
102
RTVSPropertyOp25
 70
     0
102
RTVSPropertyOp26
 70
     0
102
RTVSPropertyOp27
 70
     0
102
RTVSPropertyOp28
 70
     1
102
RTVSPropertyOp29
 70
     1
102
RTVSPropertyOp30
 70
     1
102
RTVSPropertyOp31
 70
     1
102
RTVSPropertyOp32
 70
     1
102
RTVSPropertyOp33
 70
     1
102
RTVSPropertyOp34
 70
     1
102
RTVSPropertyOp35
 70
     1
102
RTVSPropertyOp36
 70
     1
102
RTVSPropertyOp37
 70
     1
102
RTVSPropertyOp38
 70
     1
102
RTVSPropertyOp39
 70
     1
102
RTVSPropertyOp40
 70
     1
102
RTVSPropertyOp41
 70
     1
102
RTVSPropertyOp42
 70
     1
102
RTVSPropertyOp43
 70
     1
102
RTVSPropertyOp44
 70
     1
102
RTVSPropertyOp45
 70
     1
102
RTVSPropertyOp46
 70
     1
102
RTVSPropertyOp47
 70
     1
102
RTVSPropertyOp48
 70
     1
102
RTVSPropertyOp49
 70
     1
102
RTVSPropertyOp50
 70
     1
102
RTVSPropertyOp51
 70
     0
102
RTVSPropertyOp52
 70
     0
102
RTVSPropertyOp53
 70
     1
102
RTVSPropertyOp54
 70
     1
102
RTVSPropertyOp55
 70
     1
102
RTVSPropertyOp56
 70
     1
102
RTVSPropertyOp57
 70
     1
102
RTVSPost2010Prop28
280
     0
102
RTVSPost2010PropOp28
 70
     1
102
RTVSPost2010Prop29
280
     1
102
RTVSPost2010PropOp29
 70
     1
102
RTVSPost2010Prop30
280
     1
102
RTVSPost2010PropOp30
 70
     1
102
RTVSPost2010Prop31
280
     0
102
RTVSPost2010PropOp31
 70
     1
102
RTVSPost2010Prop32
280
     0
102
RTVSPost2010PropOp32
 70
     1
102
RTVSPost2010Prop33
280
     0
102
RTVSPost2010PropOp33
 70
     1
102
RTVSPost2010Prop34
280
     0
102
RTVSPost2010PropOp34
 70
     1
102
RTVSPost2010Prop35
280
     0
102
RTVSPost2010PropOp35
 70
     1
102
RTVSPost2010Prop36
280
     0
102
RTVSPost2010PropOp36
 70
     1
102
RTVSPost2010Prop37
 90
       50
102
RTVSPost2010PropOp37
 70
     1
102
RTVSPost2010Prop38
140
0.0
102
RTVSPost2010PropOp38
 70
     1
102
RTVSPost2010Prop39
140
1.0
102
RTVSPost2010PropOp39
 70
     1
102
RTVSPost2010Prop40
 90
        0
102
RTVSPost2010PropOp40
 70
     1
102
RTVSPost2010Prop41ColorIndex
 90
       18
102
RTVSPost2010Prop41ColorRGB
 90
        0
102
RTVSPost2010PropOp41
 70
     1
102
RTVSPost2010Prop42
 90
       50
102
RTVSPost2010PropOp42
 70
     1
102
RTVSPost2010Prop43
 90
        3
102
RTVSPost2010PropOp43
 70
     1
102
RTVSPost2010Prop44ColorIndex
 90
        5
102
RTVSPost2010Prop44ColorRGB
 90
      255
102
RTVSPost2010PropOp44
 70
     1
102
RTVSPost2010Prop45
280
     0
102
RTVSPost2010PropOp45
 70
     1
102
RTVSPost2010Prop46
 90
       50
102
RTVSPost2010PropOp46
 70
     1
102
RTVSPost2010Prop47
 90
       50
102
RTVSPost2010PropOp47
 70
     1
102
RTVSPost2010Prop48
 90
       50
102
RTVSPost2010PropOp48
 70
     1
102
RTVSPost2010Prop49
280
     0
102
RTVSPost2010PropOp49
 70
     1
102
RTVSPost2010Prop50
 90
       50
102
RTVSPost2010PropOp50
 70
     1
102
RTVSPost2010Prop51ColorIndex
 90
      256
102
RTVSPost2010Prop51ColorRGB
 90
-16777216
102
RTVSPost2010PropOp51
 70
     0
102
RTVSPost2010Prop52
140
1.0
102
RTVSPost2010PropOp52
 70
     0
102
RTVSPost2010Prop53
 90
        2
102
RTVSPost2010PropOp53
 70
     1
102
RTVSPost2010Prop54
  1
strokes_ogs.tif
102
RTVSPost2010PropOp54
 70
     1
102
RTVSPost2010Prop55
280
     0
102
RTVSPost2010PropOp55
 70
     1
102
RTVSPost2010Prop56
140
1.0
102
RTVSPost2010PropOp56
 70
     1
102
RTVSPost2010Prop57
140
1.0
102
RTVSPost2010PropOp57
 70
     1
  0
XRECORD
  5
151C
102
{ACAD_REACTORS
330
151B
102
}
330
151B
100
AcDbXrecord
280
     1
102
RTVSPropertyOp0
 70
     1
102
RTVSPropertyOp1
 70
     1
102
RTVSPropertyOp2
 70
     1
102
RTVSPropertyOp3
 70
     1
102
RTVSPropertyOp4
 70
     1
102
RTVSPropertyOp5
 70
     1
102
RTVSPropertyOp6
 70
     1
102
RTVSPropertyOp7
 70
     1
102
RTVSPropertyOp8
 70
     1
102
RTVSPropertyOp9
 70
     1
102
RTVSPropertyOp10
 70
     1
102
RTVSPropertyOp11
 70
     1
102
RTVSPropertyOp12
 70
     1
102
RTVSPropertyOp13
 70
     1
102
RTVSPropertyOp14
 70
     1
102
RTVSPropertyOp15
 70
     1
102
RTVSPropertyOp16
 70
     1
102
RTVSPropertyOp17
 70
     1
102
RTVSPropertyOp18
 70
     1
102
RTVSPropertyOp19
 70
     1
102
RTVSPropertyOp20
 70
     1
102
RTVSPropertyOp21
 70
     1
102
RTVSPropertyOp22
 70
     1
102
RTVSPropertyOp23
 70
     1
102
RTVSPropertyOp24
 70
     1
102
RTVSPropertyOp25
 70
     1
102
RTVSPropertyOp26
 70
     1
102
RTVSPropertyOp27
 70
     1
102
RTVSPropertyOp28
 70
     1
102
RTVSPropertyOp29
 70
     1
102
RTVSPropertyOp30
 70
     1
102
RTVSPropertyOp31
 70
     1
102
RTVSPropertyOp32
 70
     1
102
RTVSPropertyOp33
 70
     1
102
RTVSPropertyOp34
 70
     1
102
RTVSPropertyOp35
 70
     1
102
RTVSPropertyOp36
 70
     1
102
RTVSPropertyOp37
 70
     1
102
RTVSPropertyOp38
 70
     1
102
RTVSPropertyOp39
 70
     1
102
RTVSPropertyOp40
 70
     1
102
RTVSPropertyOp41
 70
     1
102
RTVSPropertyOp42
 70
     1
102
RTVSPropertyOp43
 70
     1
102
RTVSPropertyOp44
 70
     1
102
RTVSPropertyOp45
 70
     1
102
RTVSPropertyOp46
 70
     1
102
RTVSPropertyOp47
 70
     1
102
RTVSPropertyOp48
 70
     1
102
RTVSPropertyOp49
 70
     1
102
RTVSPropertyOp50
 70
     1
102
RTVSPropertyOp51
 70
     0
102
RTVSPropertyOp52
 70
     0
102
RTVSPropertyOp53
 70
     1
102
RTVSPropertyOp54
 70
     1
102
RTVSPropertyOp55
 70
     1
102
RTVSPropertyOp56
 70
     1
102
RTVSPropertyOp57
 70
     1
102
RTVSPost2010Prop28
280
     0
102
RTVSPost2010PropOp28
 70
     1
102
RTVSPost2010Prop29
280
     1
102
RTVSPost2010PropOp29
 70
     1
102
RTVSPost2010Prop30
280
     1
102
RTVSPost2010PropOp30
 70
     1
102
RTVSPost2010Prop31
280
     0
102
RTVSPost2010PropOp31
 70
     1
102
RTVSPost2010Prop32
280
     0
102
RTVSPost2010PropOp32
 70
     1
102
RTVSPost2010Prop33
280
     0
102
RTVSPost2010PropOp33
 70
     1
102
RTVSPost2010Prop34
280
     0
102
RTVSPost2010PropOp34
 70
     1
102
RTVSPost2010Prop35
280
     0
102
RTVSPost2010PropOp35
 70
     1
102
RTVSPost2010Prop36
280
     0
102
RTVSPost2010PropOp36
 70
     1
102
RTVSPost2010Prop37
 90
       50
102
RTVSPost2010PropOp37
 70
     1
102
RTVSPost2010Prop38
140
0.0
102
RTVSPost2010PropOp38
 70
     1
102
RTVSPost2010Prop39
140
1.0
102
RTVSPost2010PropOp39
 70
     1
102
RTVSPost2010Prop40
 90
        0
102
RTVSPost2010PropOp40
 70
     1
102
RTVSPost2010Prop41ColorIndex
 90
       18
102
RTVSPost2010Prop41ColorRGB
 90
        0
102
RTVSPost2010PropOp41
 70
     1
102
RTVSPost2010Prop42
 90
       50
102
RTVSPost2010PropOp42
 70
     1
102
RTVSPost2010Prop43
 90
        3
102
RTVSPost2010PropOp43
 70
     1
102
RTVSPost2010Prop44ColorIndex
 90
        5
102
RTVSPost2010Prop44ColorRGB
 90
      255
102
RTVSPost2010PropOp44
 70
     1
102
RTVSPost2010Prop45
280
     0
102
RTVSPost2010PropOp45
 70
     1
102
RTVSPost2010Prop46
 90
       50
102
RTVSPost2010PropOp46
 70
     1
102
RTVSPost2010Prop47
 90
       50
102
RTVSPost2010PropOp47
 70
     1
102
RTVSPost2010Prop48
 90
       50
102
RTVSPost2010PropOp48
 70
     1
102
RTVSPost2010Prop49
280
     0
102
RTVSPost2010PropOp49
 70
     1
102
RTVSPost2010Prop50
 90
       50
102
RTVSPost2010PropOp50
 70
     1
102
RTVSPost2010Prop51ColorIndex
 90
      256
102
RTVSPost2010Prop51ColorRGB
 90
-16777216
102
RTVSPost2010PropOp51
 70
     0
102
RTVSPost2010Prop52
140
1.0
102
RTVSPost2010PropOp52
 70
     0
102
RTVSPost2010Prop53
 90
        2
102
RTVSPost2010PropOp53
 70
     1
102
RTVSPost2010Prop54
  1
strokes_ogs.tif
102
RTVSPost2010PropOp54
 70
     1
102
RTVSPost2010Prop55
280
     0
102
RTVSPost2010PropOp55
 70
     1
102
RTVSPost2010Prop56
140
1.0
102
RTVSPost2010PropOp56
 70
     1
102
RTVSPost2010Prop57
140
1.0
102
RTVSPost2010PropOp57
 70
     1
  0
XRECORD
  5
151E
102
{ACAD_REACTORS
330
151D
102
}
330
151D
100
AcDbXrecord
280
     1
102
RTVSPropertyOp0
 70
     1
102
RTVSPropertyOp1
 70
     1
102
RTVSPropertyOp2
 70
     1
102
RTVSPropertyOp3
 70
     1
102
RTVSPropertyOp4
 70
     1
102
RTVSPropertyOp5
 70
     1
102
RTVSPropertyOp6
 70
     1
102
RTVSPropertyOp7
 70
     1
102
RTVSPropertyOp8
 70
     1
102
RTVSPropertyOp9
 70
     1
102
RTVSPropertyOp10
 70
     1
102
RTVSPropertyOp11
 70
     1
102
RTVSPropertyOp12
 70
     1
102
RTVSPropertyOp13
 70
     1
102
RTVSPropertyOp14
 70
     1
102
RTVSPropertyOp15
 70
     1
102
RTVSPropertyOp16
 70
     1
102
RTVSPropertyOp17
 70
     1
102
RTVSPropertyOp18
 70
     1
102
RTVSPropertyOp19
 70
     1
102
RTVSPropertyOp20
 70
     1
102
RTVSPropertyOp21
 70
     1
102
RTVSPropertyOp22
 70
     1
102
RTVSPropertyOp23
 70
     1
102
RTVSPropertyOp24
 70
     1
102
RTVSPropertyOp25
 70
     1
102
RTVSPropertyOp26
 70
     1
102
RTVSPropertyOp27
 70
     1
102
RTVSPropertyOp28
 70
     1
102
RTVSPropertyOp29
 70
     1
102
RTVSPropertyOp30
 70
     1
102
RTVSPropertyOp31
 70
     1
102
RTVSPropertyOp32
 70
     1
102
RTVSPropertyOp33
 70
     1
102
RTVSPropertyOp34
 70
     1
102
RTVSPropertyOp35
 70
     1
102
RTVSPropertyOp36
 70
     1
102
RTVSPropertyOp37
 70
     1
102
RTVSPropertyOp38
 70
     1
102
RTVSPropertyOp39
 70
     1
102
RTVSPropertyOp40
 70
     1
102
RTVSPropertyOp41
 70
     1
102
RTVSPropertyOp42
 70
     1
102
RTVSPropertyOp43
 70
     1
102
RTVSPropertyOp44
 70
     1
102
RTVSPropertyOp45
 70
     1
102
RTVSPropertyOp46
 70
     1
102
RTVSPropertyOp47
 70
     1
102
RTVSPropertyOp48
 70
     1
102
RTVSPropertyOp49
 70
     1
102
RTVSPropertyOp50
 70
     1
102
RTVSPropertyOp51
 70
     0
102
RTVSPropertyOp52
 70
     0
102
RTVSPropertyOp53
 70
     1
102
RTVSPropertyOp54
 70
     1
102
RTVSPropertyOp55
 70
     1
102
RTVSPropertyOp56
 70
     1
102
RTVSPropertyOp57
 70
     1
102
RTVSPost2010Prop28
280
     0
102
RTVSPost2010PropOp28
 70
     1
102
RTVSPost2010Prop29
280
     1
102
RTVSPost2010PropOp29
 70
     1
102
RTVSPost2010Prop30
280
     1
102
RTVSPost2010PropOp30
 70
     1
102
RTVSPost2010Prop31
280
     0
102
RTVSPost2010PropOp31
 70
     1
102
RTVSPost2010Prop32
280
     0
102
RTVSPost2010PropOp32
 70
     1
102
RTVSPost2010Prop33
280
     0
102
RTVSPost2010PropOp33
 70
     1
102
RTVSPost2010Prop34
280
     0
102
RTVSPost2010PropOp34
 70
     1
102
RTVSPost2010Prop35
280
     0
102
RTVSPost2010PropOp35
 70
     1
102
RTVSPost2010Prop36
280
     0
102
RTVSPost2010PropOp36
 70
     1
102
RTVSPost2010Prop37
 90
       50
102
RTVSPost2010PropOp37
 70
     1
102
RTVSPost2010Prop38
140
0.0
102
RTVSPost2010PropOp38
 70
     1
102
RTVSPost2010Prop39
140
1.0
102
RTVSPost2010PropOp39
 70
     1
102
RTVSPost2010Prop40
 90
        0
102
RTVSPost2010PropOp40
 70
     1
102
RTVSPost2010Prop41ColorIndex
 90
       18
102
RTVSPost2010Prop41ColorRGB
 90
        0
102
RTVSPost2010PropOp41
 70
     1
102
RTVSPost2010Prop42
 90
       50
102
RTVSPost2010PropOp42
 70
     1
102
RTVSPost2010Prop43
 90
        3
102
RTVSPost2010PropOp43
 70
     1
102
RTVSPost2010Prop44ColorIndex
 90
        5
102
RTVSPost2010Prop44ColorRGB
 90
      255
102
RTVSPost2010PropOp44
 70
     1
102
RTVSPost2010Prop45
280
     0
102
RTVSPost2010PropOp45
 70
     1
102
RTVSPost2010Prop46
 90
       50
102
RTVSPost2010PropOp46
 70
     1
102
RTVSPost2010Prop47
 90
       50
102
RTVSPost2010PropOp47
 70
     1
102
RTVSPost2010Prop48
 90
       50
102
RTVSPost2010PropOp48
 70
     1
102
RTVSPost2010Prop49
280
     0
102
RTVSPost2010PropOp49
 70
     1
102
RTVSPost2010Prop50
 90
       50
102
RTVSPost2010PropOp50
 70
     1
102
RTVSPost2010Prop51ColorIndex
 90
      256
102
RTVSPost2010Prop51ColorRGB
 90
-16777216
102
RTVSPost2010PropOp51
 70
     0
102
RTVSPost2010Prop52
140
1.0
102
RTVSPost2010PropOp52
 70
     0
102
RTVSPost2010Prop53
 90
        2
102
RTVSPost2010PropOp53
 70
     1
102
RTVSPost2010Prop54
  1
strokes_ogs.tif
102
RTVSPost2010PropOp54
 70
     1
102
RTVSPost2010Prop55
280
     0
102
RTVSPost2010PropOp55
 70
     1
102
RTVSPost2010Prop56
140
1.0
102
RTVSPost2010PropOp56
 70
     1
102
RTVSPost2010Prop57
140
1.0
102
RTVSPost2010PropOp57
 70
     1
  0
XRECORD
  5
1520
102
{ACAD_REACTORS
330
151F
102
}
330
151F
100
AcDbXrecord
280
     1
102
RTVSPropertyOp0
 70
     1
102
RTVSPropertyOp1
 70
     1
102
RTVSPropertyOp2
 70
     1
102
RTVSPropertyOp3
 70
     1
102
RTVSPropertyOp4
 70
     1
102
RTVSPropertyOp5
 70
     1
102
RTVSPropertyOp6
 70
     1
102
RTVSPropertyOp7
 70
     1
102
RTVSPropertyOp8
 70
     1
102
RTVSPropertyOp9
 70
     1
102
RTVSPropertyOp10
 70
     1
102
RTVSPropertyOp11
 70
     1
102
RTVSPropertyOp12
 70
     1
102
RTVSPropertyOp13
 70
     1
102
RTVSPropertyOp14
 70
     1
102
RTVSPropertyOp15
 70
     1
102
RTVSPropertyOp16
 70
     1
102
RTVSPropertyOp17
 70
     1
102
RTVSPropertyOp18
 70
     1
102
RTVSPropertyOp19
 70
     1
102
RTVSPropertyOp20
 70
     1
102
RTVSPropertyOp21
 70
     1
102
RTVSPropertyOp22
 70
     1
102
RTVSPropertyOp23
 70
     1
102
RTVSPropertyOp24
 70
     1
102
RTVSPropertyOp25
 70
     1
102
RTVSPropertyOp26
 70
     1
102
RTVSPropertyOp27
 70
     1
102
RTVSPropertyOp28
 70
     1
102
RTVSPropertyOp29
 70
     1
102
RTVSPropertyOp30
 70
     1
102
RTVSPropertyOp31
 70
     1
102
RTVSPropertyOp32
 70
     1
102
RTVSPropertyOp33
 70
     1
102
RTVSPropertyOp34
 70
     1
102
RTVSPropertyOp35
 70
     1
102
RTVSPropertyOp36
 70
     1
102
RTVSPropertyOp37
 70
     1
102
RTVSPropertyOp38
 70
     1
102
RTVSPropertyOp39
 70
     1
102
RTVSPropertyOp40
 70
     1
102
RTVSPropertyOp41
 70
     1
102
RTVSPropertyOp42
 70
     1
102
RTVSPropertyOp43
 70
     1
102
RTVSPropertyOp44
 70
     1
102
RTVSPropertyOp45
 70
     1
102
RTVSPropertyOp46
 70
     1
102
RTVSPropertyOp47
 70
     1
102
RTVSPropertyOp48
 70
     1
102
RTVSPropertyOp49
 70
     1
102
RTVSPropertyOp50
 70
     1
102
RTVSPropertyOp51
 70
     0
102
RTVSPropertyOp52
 70
     0
102
RTVSPropertyOp53
 70
     1
102
RTVSPropertyOp54
 70
     1
102
RTVSPropertyOp55
 70
     1
102
RTVSPropertyOp56
 70
     1
102
RTVSPropertyOp57
 70
     1
102
RTVSPost2010Prop28
280
     0
102
RTVSPost2010PropOp28
 70
     1
102
RTVSPost2010Prop29
280
     1
102
RTVSPost2010PropOp29
 70
     1
102
RTVSPost2010Prop30
280
     1
102
RTVSPost2010PropOp30
 70
     1
102
RTVSPost2010Prop31
280
     0
102
RTVSPost2010PropOp31
 70
     1
102
RTVSPost2010Prop32
280
     0
102
RTVSPost2010PropOp32
 70
     1
102
RTVSPost2010Prop33
280
     0
102
RTVSPost2010PropOp33
 70
     1
102
RTVSPost2010Prop34
280
     0
102
RTVSPost2010PropOp34
 70
     1
102
RTVSPost2010Prop35
280
     0
102
RTVSPost2010PropOp35
 70
     1
102
RTVSPost2010Prop36
280
     0
102
RTVSPost2010PropOp36
 70
     1
102
RTVSPost2010Prop37
 90
       50
102
RTVSPost2010PropOp37
 70
     1
102
RTVSPost2010Prop38
140
0.0
102
RTVSPost2010PropOp38
 70
     1
102
RTVSPost2010Prop39
140
1.0
102
RTVSPost2010PropOp39
 70
     1
102
RTVSPost2010Prop40
 90
        0
102
RTVSPost2010PropOp40
 70
     1
102
RTVSPost2010Prop41ColorIndex
 90
       18
102
RTVSPost2010Prop41ColorRGB
 90
        0
102
RTVSPost2010PropOp41
 70
     1
102
RTVSPost2010Prop42
 90
       50
102
RTVSPost2010PropOp42
 70
     1
102
RTVSPost2010Prop43
 90
        3
102
RTVSPost2010PropOp43
 70
     1
102
RTVSPost2010Prop44ColorIndex
 90
        5
102
RTVSPost2010Prop44ColorRGB
 90
      255
102
RTVSPost2010PropOp44
 70
     1
102
RTVSPost2010Prop45
280
     0
102
RTVSPost2010PropOp45
 70
     1
102
RTVSPost2010Prop46
 90
       50
102
RTVSPost2010PropOp46
 70
     1
102
RTVSPost2010Prop47
 90
       50
102
RTVSPost2010PropOp47
 70
     1
102
RTVSPost2010Prop48
 90
       50
102
RTVSPost2010PropOp48
 70
     1
102
RTVSPost2010Prop49
280
     0
102
RTVSPost2010PropOp49
 70
     1
102
RTVSPost2010Prop50
 90
       50
102
RTVSPost2010PropOp50
 70
     1
102
RTVSPost2010Prop51ColorIndex
 90
      256
102
RTVSPost2010Prop51ColorRGB
 90
-16777216
102
RTVSPost2010PropOp51
 70
     0
102
RTVSPost2010Prop52
140
1.0
102
RTVSPost2010PropOp52
 70
     0
102
RTVSPost2010Prop53
 90
        2
102
RTVSPost2010PropOp53
 70
     1
102
RTVSPost2010Prop54
  1
strokes_ogs.tif
102
RTVSPost2010PropOp54
 70
     1
102
RTVSPost2010Prop55
280
     0
102
RTVSPost2010PropOp55
 70
     1
102
RTVSPost2010Prop56
140
1.0
102
RTVSPost2010PropOp56
 70
     1
102
RTVSPost2010Prop57
140
1.0
102
RTVSPost2010PropOp57
 70
     1
  0
XRECORD
  5
1522
102
{ACAD_REACTORS
330
1521
102
}
330
1521
100
AcDbXrecord
280
     1
102
RTVSPropertyOp0
 70
     1
102
RTVSPropertyOp1
 70
     1
102
RTVSPropertyOp2
 70
     1
102
RTVSPropertyOp3
 70
     1
102
RTVSPropertyOp4
 70
     1
102
RTVSPropertyOp5
 70
     1
102
RTVSPropertyOp6
 70
     1
102
RTVSPropertyOp7
 70
     1
102
RTVSPropertyOp8
 70
     1
102
RTVSPropertyOp9
 70
     1
102
RTVSPropertyOp10
 70
     1
102
RTVSPropertyOp11
 70
     1
102
RTVSPropertyOp12
 70
     1
102
RTVSPropertyOp13
 70
     1
102
RTVSPropertyOp14
 70
     1
102
RTVSPropertyOp15
 70
     1
102
RTVSPropertyOp16
 70
     1
102
RTVSPropertyOp17
 70
     1
102
RTVSPropertyOp18
 70
     1
102
RTVSPropertyOp19
 70
     1
102
RTVSPropertyOp20
 70
     1
102
RTVSPropertyOp21
 70
     1
102
RTVSPropertyOp22
 70
     1
102
RTVSPropertyOp23
 70
     1
102
RTVSPropertyOp24
 70
     1
102
RTVSPropertyOp25
 70
     1
102
RTVSPropertyOp26
 70
     1
102
RTVSPropertyOp27
 70
     1
102
RTVSPropertyOp28
 70
     1
102
RTVSPropertyOp29
 70
     1
102
RTVSPropertyOp30
 70
     1
102
RTVSPropertyOp31
 70
     1
102
RTVSPropertyOp32
 70
     1
102
RTVSPropertyOp33
 70
     1
102
RTVSPropertyOp34
 70
     1
102
RTVSPropertyOp35
 70
     1
102
RTVSPropertyOp36
 70
     1
102
RTVSPropertyOp37
 70
     1
102
RTVSPropertyOp38
 70
     1
102
RTVSPropertyOp39
 70
     1
102
RTVSPropertyOp40
 70
     1
102
RTVSPropertyOp41
 70
     1
102
RTVSPropertyOp42
 70
     1
102
RTVSPropertyOp43
 70
     1
102
RTVSPropertyOp44
 70
     1
102
RTVSPropertyOp45
 70
     1
102
RTVSPropertyOp46
 70
     1
102
RTVSPropertyOp47
 70
     1
102
RTVSPropertyOp48
 70
     1
102
RTVSPropertyOp49
 70
     1
102
RTVSPropertyOp50
 70
     1
102
RTVSPropertyOp51
 70
     0
102
RTVSPropertyOp52
 70
     0
102
RTVSPropertyOp53
 70
     1
102
RTVSPropertyOp54
 70
     1
102
RTVSPropertyOp55
 70
     1
102
RTVSPropertyOp56
 70
     1
102
RTVSPropertyOp57
 70
     1
102
RTVSPost2010Prop28
280
     0
102
RTVSPost2010PropOp28
 70
     1
102
RTVSPost2010Prop29
280
     1
102
RTVSPost2010PropOp29
 70
     1
102
RTVSPost2010Prop30
280
     1
102
RTVSPost2010PropOp30
 70
     1
102
RTVSPost2010Prop31
280
     0
102
RTVSPost2010PropOp31
 70
     1
102
RTVSPost2010Prop32
280
     0
102
RTVSPost2010PropOp32
 70
     1
102
RTVSPost2010Prop33
280
     0
102
RTVSPost2010PropOp33
 70
     1
102
RTVSPost2010Prop34
280
     0
102
RTVSPost2010PropOp34
 70
     1
102
RTVSPost2010Prop35
280
     0
102
RTVSPost2010PropOp35
 70
     1
102
RTVSPost2010Prop36
280
     0
102
RTVSPost2010PropOp36
 70
     1
102
RTVSPost2010Prop37
 90
       50
102
RTVSPost2010PropOp37
 70
     1
102
RTVSPost2010Prop38
140
0.0
102
RTVSPost2010PropOp38
 70
     1
102
RTVSPost2010Prop39
140
1.0
102
RTVSPost2010PropOp39
 70
     1
102
RTVSPost2010Prop40
 90
        0
102
RTVSPost2010PropOp40
 70
     1
102
RTVSPost2010Prop41ColorIndex
 90
       18
102
RTVSPost2010Prop41ColorRGB
 90
        0
102
RTVSPost2010PropOp41
 70
     1
102
RTVSPost2010Prop42
 90
       50
102
RTVSPost2010PropOp42
 70
     1
102
RTVSPost2010Prop43
 90
        3
102
RTVSPost2010PropOp43
 70
     1
102
RTVSPost2010Prop44ColorIndex
 90
        5
102
RTVSPost2010Prop44ColorRGB
 90
      255
102
RTVSPost2010PropOp44
 70
     1
102
RTVSPost2010Prop45
280
     0
102
RTVSPost2010PropOp45
 70
     1
102
RTVSPost2010Prop46
 90
       50
102
RTVSPost2010PropOp46
 70
     1
102
RTVSPost2010Prop47
 90
       50
102
RTVSPost2010PropOp47
 70
     1
102
RTVSPost2010Prop48
 90
       50
102
RTVSPost2010PropOp48
 70
     1
102
RTVSPost2010Prop49
280
     0
102
RTVSPost2010PropOp49
 70
     1
102
RTVSPost2010Prop50
 90
       50
102
RTVSPost2010PropOp50
 70
     1
102
RTVSPost2010Prop51ColorIndex
 90
      256
102
RTVSPost2010Prop51ColorRGB
 90
-16777216
102
RTVSPost2010PropOp51
 70
     0
102
RTVSPost2010Prop52
140
1.0
102
RTVSPost2010PropOp52
 70
     0
102
RTVSPost2010Prop53
 90
        2
102
RTVSPost2010PropOp53
 70
     1
102
RTVSPost2010Prop54
  1
strokes_ogs.tif
102
RTVSPost2010PropOp54
 70
     1
102
RTVSPost2010Prop55
280
     0
102
RTVSPost2010PropOp55
 70
     1
102
RTVSPost2010Prop56
140
1.0
102
RTVSPost2010PropOp56
 70
     1
102
RTVSPost2010Prop57
140
1.0
102
RTVSPost2010PropOp57
 70
     1
  0
XRECORD
  5
1524
102
{ACAD_REACTORS
330
1523
102
}
330
1523
100
AcDbXrecord
280
     1
102
RTVSPropertyOp0
 70
     1
102
RTVSPropertyOp1
 70
     1
102
RTVSPropertyOp2
 70
     1
102
RTVSPropertyOp3
 70
     1
102
RTVSPropertyOp4
 70
     1
102
RTVSPropertyOp5
 70
     1
102
RTVSPropertyOp6
 70
     1
102
RTVSPropertyOp7
 70
     1
102
RTVSPropertyOp8
 70
     1
102
RTVSPropertyOp9
 70
     1
102
RTVSPropertyOp10
 70
     1
102
RTVSPropertyOp11
 70
     1
102
RTVSPropertyOp12
 70
     1
102
RTVSPropertyOp13
 70
     1
102
RTVSPropertyOp14
 70
     1
102
RTVSPropertyOp15
 70
     1
102
RTVSPropertyOp16
 70
     1
102
RTVSPropertyOp17
 70
     1
102
RTVSPropertyOp18
 70
     1
102
RTVSPropertyOp19
 70
     1
102
RTVSPropertyOp20
 70
     1
102
RTVSPropertyOp21
 70
     1
102
RTVSPropertyOp22
 70
     1
102
RTVSPropertyOp23
 70
     1
102
RTVSPropertyOp24
 70
     1
102
RTVSPropertyOp25
 70
     1
102
RTVSPropertyOp26
 70
     1
102
RTVSPropertyOp27
 70
     1
102
RTVSPropertyOp28
 70
     1
102
RTVSPropertyOp29
 70
     1
102
RTVSPropertyOp30
 70
     1
102
RTVSPropertyOp31
 70
     1
102
RTVSPropertyOp32
 70
     1
102
RTVSPropertyOp33
 70
     1
102
RTVSPropertyOp34
 70
     1
102
RTVSPropertyOp35
 70
     1
102
RTVSPropertyOp36
 70
     1
102
RTVSPropertyOp37
 70
     1
102
RTVSPropertyOp38
 70
     1
102
RTVSPropertyOp39
 70
     1
102
RTVSPropertyOp40
 70
     1
102
RTVSPropertyOp41
 70
     1
102
RTVSPropertyOp42
 70
     1
102
RTVSPropertyOp43
 70
     1
102
RTVSPropertyOp44
 70
     1
102
RTVSPropertyOp45
 70
     1
102
RTVSPropertyOp46
 70
     1
102
RTVSPropertyOp47
 70
     1
102
RTVSPropertyOp48
 70
     1
102
RTVSPropertyOp49
 70
     1
102
RTVSPropertyOp50
 70
     1
102
RTVSPropertyOp51
 70
     0
102
RTVSPropertyOp52
 70
     0
102
RTVSPropertyOp53
 70
     1
102
RTVSPropertyOp54
 70
     1
102
RTVSPropertyOp55
 70
     1
102
RTVSPropertyOp56
 70
     1
102
RTVSPropertyOp57
 70
     1
102
RTVSPost2010Prop28
280
     0
102
RTVSPost2010PropOp28
 70
     1
102
RTVSPost2010Prop29
280
     1
102
RTVSPost2010PropOp29
 70
     1
102
RTVSPost2010Prop30
280
     1
102
RTVSPost2010PropOp30
 70
     1
102
RTVSPost2010Prop31
280
     0
102
RTVSPost2010PropOp31
 70
     1
102
RTVSPost2010Prop32
280
     0
102
RTVSPost2010PropOp32
 70
     1
102
RTVSPost2010Prop33
280
     0
102
RTVSPost2010PropOp33
 70
     1
102
RTVSPost2010Prop34
280
     0
102
RTVSPost2010PropOp34
 70
     1
102
RTVSPost2010Prop35
280
     0
102
RTVSPost2010PropOp35
 70
     1
102
RTVSPost2010Prop36
280
     0
102
RTVSPost2010PropOp36
 70
     1
102
RTVSPost2010Prop37
 90
       50
102
RTVSPost2010PropOp37
 70
     1
102
RTVSPost2010Prop38
140
0.0
102
RTVSPost2010PropOp38
 70
     1
102
RTVSPost2010Prop39
140
1.0
102
RTVSPost2010PropOp39
 70
     1
102
RTVSPost2010Prop40
 90
        0
102
RTVSPost2010PropOp40
 70
     1
102
RTVSPost2010Prop41ColorIndex
 90
       18
102
RTVSPost2010Prop41ColorRGB
 90
        0
102
RTVSPost2010PropOp41
 70
     1
102
RTVSPost2010Prop42
 90
       50
102
RTVSPost2010PropOp42
 70
     1
102
RTVSPost2010Prop43
 90
        3
102
RTVSPost2010PropOp43
 70
     1
102
RTVSPost2010Prop44ColorIndex
 90
        5
102
RTVSPost2010Prop44ColorRGB
 90
      255
102
RTVSPost2010PropOp44
 70
     1
102
RTVSPost2010Prop45
280
     0
102
RTVSPost2010PropOp45
 70
     1
102
RTVSPost2010Prop46
 90
       50
102
RTVSPost2010PropOp46
 70
     1
102
RTVSPost2010Prop47
 90
       50
102
RTVSPost2010PropOp47
 70
     1
102
RTVSPost2010Prop48
 90
       50
102
RTVSPost2010PropOp48
 70
     1
102
RTVSPost2010Prop49
280
     0
102
RTVSPost2010PropOp49
 70
     1
102
RTVSPost2010Prop50
 90
       50
102
RTVSPost2010PropOp50
 70
     1
102
RTVSPost2010Prop51ColorIndex
 90
      256
102
RTVSPost2010Prop51ColorRGB
 90
-16777216
102
RTVSPost2010PropOp51
 70
     0
102
RTVSPost2010Prop52
140
1.0
102
RTVSPost2010PropOp52
 70
     0
102
RTVSPost2010Prop53
 90
        2
102
RTVSPost2010PropOp53
 70
     1
102
RTVSPost2010Prop54
  1
strokes_ogs.tif
102
RTVSPost2010PropOp54
 70
     1
102
RTVSPost2010Prop55
280
     0
102
RTVSPost2010PropOp55
 70
     1
102
RTVSPost2010Prop56
140
1.0
102
RTVSPost2010PropOp56
 70
     1
102
RTVSPost2010Prop57
140
1.0
102
RTVSPost2010PropOp57
 70
     1
  0
XRECORD
  5
1526
102
{ACAD_REACTORS
330
1525
102
}
330
1525
100
AcDbXrecord
280
     1
102
RTVSPropertyOp0
 70
     1
102
RTVSPropertyOp1
 70
     1
102
RTVSPropertyOp2
 70
     1
102
RTVSPropertyOp3
 70
     1
102
RTVSPropertyOp4
 70
     1
102
RTVSPropertyOp5
 70
     1
102
RTVSPropertyOp6
 70
     1
102
RTVSPropertyOp7
 70
     1
102
RTVSPropertyOp8
 70
     1
102
RTVSPropertyOp9
 70
     1
102
RTVSPropertyOp10
 70
     1
102
RTVSPropertyOp11
 70
     1
102
RTVSPropertyOp12
 70
     1
102
RTVSPropertyOp13
 70
     1
102
RTVSPropertyOp14
 70
     1
102
RTVSPropertyOp15
 70
     1
102
RTVSPropertyOp16
 70
     1
102
RTVSPropertyOp17
 70
     1
102
RTVSPropertyOp18
 70
     1
102
RTVSPropertyOp19
 70
     1
102
RTVSPropertyOp20
 70
     1
102
RTVSPropertyOp21
 70
     1
102
RTVSPropertyOp22
 70
     1
102
RTVSPropertyOp23
 70
     1
102
RTVSPropertyOp24
 70
     1
102
RTVSPropertyOp25
 70
     1
102
RTVSPropertyOp26
 70
     1
102
RTVSPropertyOp27
 70
     1
102
RTVSPropertyOp28
 70
     1
102
RTVSPropertyOp29
 70
     1
102
RTVSPropertyOp30
 70
     1
102
RTVSPropertyOp31
 70
     1
102
RTVSPropertyOp32
 70
     1
102
RTVSPropertyOp33
 70
     1
102
RTVSPropertyOp34
 70
     1
102
RTVSPropertyOp35
 70
     1
102
RTVSPropertyOp36
 70
     1
102
RTVSPropertyOp37
 70
     1
102
RTVSPropertyOp38
 70
     1
102
RTVSPropertyOp39
 70
     1
102
RTVSPropertyOp40
 70
     1
102
RTVSPropertyOp41
 70
     1
102
RTVSPropertyOp42
 70
     1
102
RTVSPropertyOp43
 70
     1
102
RTVSPropertyOp44
 70
     1
102
RTVSPropertyOp45
 70
     1
102
RTVSPropertyOp46
 70
     1
102
RTVSPropertyOp47
 70
     1
102
RTVSPropertyOp48
 70
     1
102
RTVSPropertyOp49
 70
     1
102
RTVSPropertyOp50
 70
     1
102
RTVSPropertyOp51
 70
     0
102
RTVSPropertyOp52
 70
     0
102
RTVSPropertyOp53
 70
     1
102
RTVSPropertyOp54
 70
     1
102
RTVSPropertyOp55
 70
     1
102
RTVSPropertyOp56
 70
     1
102
RTVSPropertyOp57
 70
     1
102
RTVSPost2010Prop28
280
     0
102
RTVSPost2010PropOp28
 70
     1
102
RTVSPost2010Prop29
280
     1
102
RTVSPost2010PropOp29
 70
     1
102
RTVSPost2010Prop30
280
     1
102
RTVSPost2010PropOp30
 70
     1
102
RTVSPost2010Prop31
280
     0
102
RTVSPost2010PropOp31
 70
     1
102
RTVSPost2010Prop32
280
     0
102
RTVSPost2010PropOp32
 70
     1
102
RTVSPost2010Prop33
280
     0
102
RTVSPost2010PropOp33
 70
     1
102
RTVSPost2010Prop34
280
     0
102
RTVSPost2010PropOp34
 70
     1
102
RTVSPost2010Prop35
280
     0
102
RTVSPost2010PropOp35
 70
     1
102
RTVSPost2010Prop36
280
     0
102
RTVSPost2010PropOp36
 70
     1
102
RTVSPost2010Prop37
 90
       50
102
RTVSPost2010PropOp37
 70
     1
102
RTVSPost2010Prop38
140
0.0
102
RTVSPost2010PropOp38
 70
     1
102
RTVSPost2010Prop39
140
1.0
102
RTVSPost2010PropOp39
 70
     1
102
RTVSPost2010Prop40
 90
        0
102
RTVSPost2010PropOp40
 70
     1
102
RTVSPost2010Prop41ColorIndex
 90
       18
102
RTVSPost2010Prop41ColorRGB
 90
        0
102
RTVSPost2010PropOp41
 70
     1
102
RTVSPost2010Prop42
 90
       50
102
RTVSPost2010PropOp42
 70
     1
102
RTVSPost2010Prop43
 90
        3
102
RTVSPost2010PropOp43
 70
     1
102
RTVSPost2010Prop44ColorIndex
 90
        5
102
RTVSPost2010Prop44ColorRGB
 90
      255
102
RTVSPost2010PropOp44
 70
     1
102
RTVSPost2010Prop45
280
     0
102
RTVSPost2010PropOp45
 70
     1
102
RTVSPost2010Prop46
 90
       50
102
RTVSPost2010PropOp46
 70
     1
102
RTVSPost2010Prop47
 90
       50
102
RTVSPost2010PropOp47
 70
     1
102
RTVSPost2010Prop48
 90
       50
102
RTVSPost2010PropOp48
 70
     1
102
RTVSPost2010Prop49
280
     0
102
RTVSPost2010PropOp49
 70
     1
102
RTVSPost2010Prop50
 90
       50
102
RTVSPost2010PropOp50
 70
     1
102
RTVSPost2010Prop51ColorIndex
 90
      256
102
RTVSPost2010Prop51ColorRGB
 90
-16777216
102
RTVSPost2010PropOp51
 70
     0
102
RTVSPost2010Prop52
140
1.0
102
RTVSPost2010PropOp52
 70
     0
102
RTVSPost2010Prop53
 90
        2
102
RTVSPost2010PropOp53
 70
     1
102
RTVSPost2010Prop54
  1
strokes_ogs.tif
102
RTVSPost2010PropOp54
 70
     1
102
RTVSPost2010Prop55
280
     0
102
RTVSPost2010PropOp55
 70
     1
102
RTVSPost2010Prop56
140
1.0
102
RTVSPost2010PropOp56
 70
     1
102
RTVSPost2010Prop57
140
1.0
102
RTVSPost2010PropOp57
 70
     1
  0
XRECORD
  5
1528
102
{ACAD_REACTORS
330
1527
102
}
330
1527
100
AcDbXrecord
280
     1
102
RTVSPropertyOp0
 70
     1
102
RTVSPropertyOp1
 70
     1
102
RTVSPropertyOp2
 70
     1
102
RTVSPropertyOp3
 70
     1
102
RTVSPropertyOp4
 70
     1
102
RTVSPropertyOp5
 70
     1
102
RTVSPropertyOp6
 70
     1
102
RTVSPropertyOp7
 70
     1
102
RTVSPropertyOp8
 70
     1
102
RTVSPropertyOp9
 70
     1
102
RTVSPropertyOp10
 70
     1
102
RTVSPropertyOp11
 70
     1
102
RTVSPropertyOp12
 70
     1
102
RTVSPropertyOp13
 70
     1
102
RTVSPropertyOp14
 70
     1
102
RTVSPropertyOp15
 70
     1
102
RTVSPropertyOp16
 70
     1
102
RTVSPropertyOp17
 70
     1
102
RTVSPropertyOp18
 70
     1
102
RTVSPropertyOp19
 70
     1
102
RTVSPropertyOp20
 70
     1
102
RTVSPropertyOp21
 70
     1
102
RTVSPropertyOp22
 70
     1
102
RTVSPropertyOp23
 70
     1
102
RTVSPropertyOp24
 70
     1
102
RTVSPropertyOp25
 70
     1
102
RTVSPropertyOp26
 70
     1
102
RTVSPropertyOp27
 70
     1
102
RTVSPropertyOp28
 70
     1
102
RTVSPropertyOp29
 70
     1
102
RTVSPropertyOp30
 70
     1
102
RTVSPropertyOp31
 70
     1
102
RTVSPropertyOp32
 70
     1
102
RTVSPropertyOp33
 70
     1
102
RTVSPropertyOp34
 70
     1
102
RTVSPropertyOp35
 70
     1
102
RTVSPropertyOp36
 70
     1
102
RTVSPropertyOp37
 70
     1
102
RTVSPropertyOp38
 70
     1
102
RTVSPropertyOp39
 70
     1
102
RTVSPropertyOp40
 70
     1
102
RTVSPropertyOp41
 70
     1
102
RTVSPropertyOp42
 70
     1
102
RTVSPropertyOp43
 70
     1
102
RTVSPropertyOp44
 70
     1
102
RTVSPropertyOp45
 70
     1
102
RTVSPropertyOp46
 70
     1
102
RTVSPropertyOp47
 70
     1
102
RTVSPropertyOp48
 70
     1
102
RTVSPropertyOp49
 70
     1
102
RTVSPropertyOp50
 70
     1
102
RTVSPropertyOp51
 70
     0
102
RTVSPropertyOp52
 70
     0
102
RTVSPropertyOp53
 70
     1
102
RTVSPropertyOp54
 70
     1
102
RTVSPropertyOp55
 70
     1
102
RTVSPropertyOp56
 70
     1
102
RTVSPropertyOp57
 70
     1
102
RTVSPost2010Prop28
280
     0
102
RTVSPost2010PropOp28
 70
     1
102
RTVSPost2010Prop29
280
     1
102
RTVSPost2010PropOp29
 70
     1
102
RTVSPost2010Prop30
280
     1
102
RTVSPost2010PropOp30
 70
     1
102
RTVSPost2010Prop31
280
     0
102
RTVSPost2010PropOp31
 70
     1
102
RTVSPost2010Prop32
280
     0
102
RTVSPost2010PropOp32
 70
     1
102
RTVSPost2010Prop33
280
     0
102
RTVSPost2010PropOp33
 70
     1
102
RTVSPost2010Prop34
280
     0
102
RTVSPost2010PropOp34
 70
     1
102
RTVSPost2010Prop35
280
     0
102
RTVSPost2010PropOp35
 70
     1
102
RTVSPost2010Prop36
280
     0
102
RTVSPost2010PropOp36
 70
     1
102
RTVSPost2010Prop37
 90
       50
102
RTVSPost2010PropOp37
 70
     1
102
RTVSPost2010Prop38
140
0.0
102
RTVSPost2010PropOp38
 70
     1
102
RTVSPost2010Prop39
140
1.0
102
RTVSPost2010PropOp39
 70
     1
102
RTVSPost2010Prop40
 90
        0
102
RTVSPost2010PropOp40
 70
     1
102
RTVSPost2010Prop41ColorIndex
 90
       18
102
RTVSPost2010Prop41ColorRGB
 90
        0
102
RTVSPost2010PropOp41
 70
     1
102
RTVSPost2010Prop42
 90
       50
102
RTVSPost2010PropOp42
 70
     1
102
RTVSPost2010Prop43
 90
        3
102
RTVSPost2010PropOp43
 70
     1
102
RTVSPost2010Prop44ColorIndex
 90
        5
102
RTVSPost2010Prop44ColorRGB
 90
      255
102
RTVSPost2010PropOp44
 70
     1
102
RTVSPost2010Prop45
280
     0
102
RTVSPost2010PropOp45
 70
     1
102
RTVSPost2010Prop46
 90
       50
102
RTVSPost2010PropOp46
 70
     1
102
RTVSPost2010Prop47
 90
       50
102
RTVSPost2010PropOp47
 70
     1
102
RTVSPost2010Prop48
 90
       50
102
RTVSPost2010PropOp48
 70
     1
102
RTVSPost2010Prop49
280
     0
102
RTVSPost2010PropOp49
 70
     1
102
RTVSPost2010Prop50
 90
       50
102
RTVSPost2010PropOp50
 70
     1
102
RTVSPost2010Prop51ColorIndex
 90
      256
102
RTVSPost2010Prop51ColorRGB
 90
-16777216
102
RTVSPost2010PropOp51
 70
     0
102
RTVSPost2010Prop52
140
1.0
102
RTVSPost2010PropOp52
 70
     0
102
RTVSPost2010Prop53
 90
        2
102
RTVSPost2010PropOp53
 70
     1
102
RTVSPost2010Prop54
  1
strokes_ogs.tif
102
RTVSPost2010PropOp54
 70
     1
102
RTVSPost2010Prop55
280
     0
102
RTVSPost2010PropOp55
 70
     1
102
RTVSPost2010Prop56
140
1.0
102
RTVSPost2010PropOp56
 70
     1
102
RTVSPost2010Prop57
140
1.0
102
RTVSPost2010PropOp57
 70
     1
  0
XRECORD
  5
152A
102
{ACAD_REACTORS
330
1529
102
}
330
1529
100
AcDbXrecord
280
     1
102
RTVSPropertyOp0
 70
     1
102
RTVSPropertyOp1
 70
     1
102
RTVSPropertyOp2
 70
     1
102
RTVSPropertyOp3
 70
     1
102
RTVSPropertyOp4
 70
     1
102
RTVSPropertyOp5
 70
     1
102
RTVSPropertyOp6
 70
     1
102
RTVSPropertyOp7
 70
     1
102
RTVSPropertyOp8
 70
     1
102
RTVSPropertyOp9
 70
     1
102
RTVSPropertyOp10
 70
     1
102
RTVSPropertyOp11
 70
     1
102
RTVSPropertyOp12
 70
     1
102
RTVSPropertyOp13
 70
     1
102
RTVSPropertyOp14
 70
     1
102
RTVSPropertyOp15
 70
     1
102
RTVSPropertyOp16
 70
     1
102
RTVSPropertyOp17
 70
     1
102
RTVSPropertyOp18
 70
     1
102
RTVSPropertyOp19
 70
     1
102
RTVSPropertyOp20
 70
     1
102
RTVSPropertyOp21
 70
     1
102
RTVSPropertyOp22
 70
     1
102
RTVSPropertyOp23
 70
     1
102
RTVSPropertyOp24
 70
     1
102
RTVSPropertyOp25
 70
     1
102
RTVSPropertyOp26
 70
     1
102
RTVSPropertyOp27
 70
     1
102
RTVSPropertyOp28
 70
     1
102
RTVSPropertyOp29
 70
     1
102
RTVSPropertyOp30
 70
     1
102
RTVSPropertyOp31
 70
     1
102
RTVSPropertyOp32
 70
     1
102
RTVSPropertyOp33
 70
     1
102
RTVSPropertyOp34
 70
     1
102
RTVSPropertyOp35
 70
     1
102
RTVSPropertyOp36
 70
     1
102
RTVSPropertyOp37
 70
     1
102
RTVSPropertyOp38
 70
     1
102
RTVSPropertyOp39
 70
     1
102
RTVSPropertyOp40
 70
     1
102
RTVSPropertyOp41
 70
     1
102
RTVSPropertyOp42
 70
     1
102
RTVSPropertyOp43
 70
     1
102
RTVSPropertyOp44
 70
     1
102
RTVSPropertyOp45
 70
     1
102
RTVSPropertyOp46
 70
     1
102
RTVSPropertyOp47
 70
     1
102
RTVSPropertyOp48
 70
     1
102
RTVSPropertyOp49
 70
     1
102
RTVSPropertyOp50
 70
     1
102
RTVSPropertyOp51
 70
     0
102
RTVSPropertyOp52
 70
     0
102
RTVSPropertyOp53
 70
     1
102
RTVSPropertyOp54
 70
     1
102
RTVSPropertyOp55
 70
     1
102
RTVSPropertyOp56
 70
     1
102
RTVSPropertyOp57
 70
     1
102
RTVSPost2010Prop28
280
     0
102
RTVSPost2010PropOp28
 70
     1
102
RTVSPost2010Prop29
280
     1
102
RTVSPost2010PropOp29
 70
     1
102
RTVSPost2010Prop30
280
     1
102
RTVSPost2010PropOp30
 70
     1
102
RTVSPost2010Prop31
280
     0
102
RTVSPost2010PropOp31
 70
     1
102
RTVSPost2010Prop32
280
     0
102
RTVSPost2010PropOp32
 70
     1
102
RTVSPost2010Prop33
280
     0
102
RTVSPost2010PropOp33
 70
     1
102
RTVSPost2010Prop34
280
     0
102
RTVSPost2010PropOp34
 70
     1
102
RTVSPost2010Prop35
280
     0
102
RTVSPost2010PropOp35
 70
     1
102
RTVSPost2010Prop36
280
     0
102
RTVSPost2010PropOp36
 70
     1
102
RTVSPost2010Prop37
 90
       50
102
RTVSPost2010PropOp37
 70
     1
102
RTVSPost2010Prop38
140
0.0
102
RTVSPost2010PropOp38
 70
     1
102
RTVSPost2010Prop39
140
1.0
102
RTVSPost2010PropOp39
 70
     1
102
RTVSPost2010Prop40
 90
        0
102
RTVSPost2010PropOp40
 70
     1
102
RTVSPost2010Prop41ColorIndex
 90
       18
102
RTVSPost2010Prop41ColorRGB
 90
        0
102
RTVSPost2010PropOp41
 70
     1
102
RTVSPost2010Prop42
 90
       50
102
RTVSPost2010PropOp42
 70
     1
102
RTVSPost2010Prop43
 90
        3
102
RTVSPost2010PropOp43
 70
     1
102
RTVSPost2010Prop44ColorIndex
 90
        5
102
RTVSPost2010Prop44ColorRGB
 90
      255
102
RTVSPost2010PropOp44
 70
     1
102
RTVSPost2010Prop45
280
     0
102
RTVSPost2010PropOp45
 70
     1
102
RTVSPost2010Prop46
 90
       50
102
RTVSPost2010PropOp46
 70
     1
102
RTVSPost2010Prop47
 90
       50
102
RTVSPost2010PropOp47
 70
     1
102
RTVSPost2010Prop48
 90
       50
102
RTVSPost2010PropOp48
 70
     1
102
RTVSPost2010Prop49
280
     0
102
RTVSPost2010PropOp49
 70
     1
102
RTVSPost2010Prop50
 90
       50
102
RTVSPost2010PropOp50
 70
     1
102
RTVSPost2010Prop51ColorIndex
 90
      256
102
RTVSPost2010Prop51ColorRGB
 90
-16777216
102
RTVSPost2010PropOp51
 70
     0
102
RTVSPost2010Prop52
140
1.0
102
RTVSPost2010PropOp52
 70
     0
102
RTVSPost2010Prop53
 90
        2
102
RTVSPost2010PropOp53
 70
     1
102
RTVSPost2010Prop54
  1
strokes_ogs.tif
102
RTVSPost2010PropOp54
 70
     1
102
RTVSPost2010Prop55
280
     0
102
RTVSPost2010PropOp55
 70
     1
102
RTVSPost2010Prop56
140
1.0
102
RTVSPost2010PropOp56
 70
     1
102
RTVSPost2010Prop57
140
1.0
102
RTVSPost2010PropOp57
 70
     1
  0
ENDSEC
  0
EOF
