 0
SECTION
 2
HEADER
 9
$ACADVER
 1
AC1003
 9
$EXTMIN
 10
-138.500000
 20
-90.000000
 9
$EXTMAX
 10
138.500000
 20
98.548187
 9
$LIMMIN
 10
-138.501000
 20
-90.001000
 9
$LIMMAX
 10
138.501000
 20
98.549187
 9
$SNAPUNIT
 10
1
 20
1
 9
$SNAPBASE
 10
0
 20
0
 9
$GRIDMODE
 70
0
 9
$GRIDUNIT
 10
0
 20
0
 9
$LTSCALE
 40
4.616667
 9
$TEXTSIZE
 40
3.2
 9
$DIMTAD
 70
0
 9
$LUNITS
 70
2
 9
$LUPREC
 70
4
 9
$FILLETRAD
 40
0
 9
$AUNITS
 70
0
 9
$AUPREC
 70
0
 0
ENDSEC
 0
SECTION
 2
TABLES
 0
TABLE
 2
LTYPE
 70
25
  0
LTYPE
  2
CONTINUOUS
 70
    64
  3
Solid-line
 72
    65
 73
     0
 40
0.0
  0
LTYPE
  2
BORDER
 70
    64
  3
BORDER
 72
    65
 73
     6
 40
1.75
 49
0.5
 49
-0.25
 49
0.5
 49
-0.25
 49
0.0
 49
-0.25
  0
LTYPE
  2
BORDER2
 70
    64
  3
BORDER2
 72
    65
 73
     6
 40
0.875
 49
0.25
 49
-0.125
 49
0.25
 49
-0.125
 49
0.0
 49
-0.125
  0
LTYPE
  2
BORDERX2
 70
    64
  3
BORDERX2
 72
    65
 73
     6
 40
3.5
 49
1.0
 49
-0.5
 49
1.0
 49
-0.5
 49
0.0
 49
-0.5
  0
LTYPE
  2
CENTER
 70
    64
  3
CENTER
 72
    65
 73
     4
 40
2.0
 49
1.25
 49
-0.25
 49
0.25
 49
-0.25
  0
LTYPE
  2
CENTER2
 70
    64
  3
CENTER2
 72
    65
 73
     4
 40
1.125
 49
0.75
 49
-0.125
 49
0.125
 49
-0.125
  0
LTYPE
  2
CENTERX2
 70
    64
  3
CENTERX2
 72
    65
 73
     4
 40
4.0
 49
2.5
 49
-0.5
 49
0.5
 49
-0.5
  0
LTYPE
  2
DASHDOT
 70
    64
  3
DASHDOT
 72
    65
 73
     4
 40
1.0
 49
0.5
 49
-0.25
 49
0.0
 49
-0.25
  0
LTYPE
  2
DASHDOT2
 70
    64
  3
DASHDOT2
 72
    65
 73
     4
 40
0.5
 49
0.25
 49
-0.125
 49
0.0
 49
-0.125
  0
LTYPE
  2
DASHDOTX2
 70
    64
  3
DASHDOTX2
 72
    65
 73
     4
 40
2.0
 49
1.0
 49
-0.5
 49
0.0
 49
-0.5
  0
LTYPE
  2
DASHED
 70
    64
  3
DASHED
 72
    65
 73
     2
 40
0.75
 49
0.5
 49
-0.25
  0
LTYPE
  2
DASHED2
 70
    64
  3
DASHED2
 72
    65
 73
     2
 40
0.375
 49
0.25
 49
-0.125
  0
LTYPE
  2
DASHEDX2
 70
    64
  3
DASHEDX2
 72
    65
 73
     2
 40
1.5
 49
1.0
 49
-0.5
  0
LTYPE
  2
DIVIDE
 70
    64
  3
DIVIDE
 72
    65
 73
     6
 40
1.25
 49
0.5
 49
-0.25
 49
0.0
 49
-0.25
 49
0.0
 49
-0.25
  0
LTYPE
  2
DIVIDE2
 70
    64
  3
DIVIDE2
 72
    65
 73
     6
 40
0.625
 49
0.25
 49
-0.125
 49
0.0
 49
-0.125
 49
0.0
 49
-0.125
  0
LTYPE
  2
DIVIDEX2
 70
    64
  3
DIVIDEX2
 72
    65
 73
     6
 40
2.5
 49
1.0
 49
-0.5
 49
0.0
 49
-0.5
 49
0.0
 49
-0.5
  0
LTYPE
  2
DOT
 70
    64
  3
DOT
 72
    65
 73
     2
 40
0.25
 49
0.0
 49
-0.25
  0
LTYPE
  2
DOT2
 70
    64
  3
DOT2
 72
    65
 73
     2
 40
0.125
 49
0.0
 49
-0.125
  0
LTYPE
  2
DOTX2
 70
    64
  3
DOTX2
 72
    65
 73
     2
 40
0.5
 49
0.0
 49
-0.5
  0
LTYPE
  2
HIDDEN
 70
    64
  3
HIDDEN
 72
    65
 73
     2
 40
0.375
 49
0.25
 49
-0.125
  0
LTYPE
  2
HIDDEN2
 70
    64
  3
HIDDEN2
 72
    65
 73
     2
 40
0.1875
 49
0.125
 49
-0.0625
  0
LTYPE
  2
HIDDENX2
 70
    64
  3
HIDDENX2
 72
    65
 73
     2
 40
0.75
 49
0.5
 49
-0.25
  0
LTYPE
  2
PHANTOM
 70
    64
  3
PHANTOM
 72
    65
 73
     6
 40
2.5
 49
1.25
 49
-0.25
 49
0.25
 49
-0.25
 49
0.25
 49
-0.25
  0
LTYPE
  2
PHANTOM2
 70
    64
  3
PHANTOM2
 72
    65
 73
     6
 40
1.25
 49
0.625
 49
-0.125
 49
0.125
 49
-0.125
 49
0.125
 49
-0.125
  0
LTYPE
  2
PHANTOMX2
 70
    64
  3
PHANTOMX2
 72
    65
 73
     6
 40
5.0
 49
2.5
 49
-0.5
 49
0.5
 49
-0.5
 49
0.5
 49
-0.5
 0
ENDTAB
 0
TABLE
 2
LAYER
 70
1
 0
LAYER
 2
001
 70
0
 62
7
 6
CONTINUOUS
 0
ENDTAB
 0
TABLE
 2
STYLE
 70
2
 0
STYLE
 2
STANDARD
 70
0
 40
0
 41
1
 50
0
 71
0
 42
.2
 3
TXT
 4
BIGFONT
 0
STYLE
 2
TATEGAKI
 70
4
 40
1
 41
1
 50
0
 71
0
 42
.2
 3
TXT
 4
BIGFONT
 0
ENDTAB
 0
ENDSEC
 0
SECTION
 2
BLOCKS
 0
BLOCK
 8
0
 2
ARROW
 70
0
 10
0
 20
0
 0
POLYLINE
 8
0
 6
CONTINUOUS
 62
0
 66
1
 0
VERTEX
 8
0
 6
CONTINUOUS
 62
0
 10
2.000000
 20
0.535898
 0
VERTEX
 8
0
 6
CONTINUOUS
 62
0
 10
0.0
 20
0.0
 0
VERTEX
 8
0
 6
CONTINUOUS
 62
0
 10
2.000000
 20
-0.535898
 0
SEQEND
 8
0
 0
ENDBLK
 8
0
 0
BLOCK
 8
001
 2
*D0
 70
1
 10
0.0
 20
0.0
 0
LINE
 8
001
 10
-14.778335
 20
38.309634
 11
29.172093
 21
14.469335
 0
INSERT
 8
001
 62
7
 2
ARROW
 6
BYBLOCK
 10
-14.778335
 20
38.309634
 41
1.000000
 42
1.000000
 50
331.522997
 0
INSERT
 8
001
 62
7
 2
ARROW
 6
BYBLOCK
 10
29.172093
 20
14.469335
 41
1.000000
 42
1.000000
 50
151.522997
 0
TEXT
 8
001
 10
17.290964
 20
22.051733
 40
3.200000
 1
%%c50
 50
331.523012
 41
0.909927
 7
STANDARD
 0
POINT
 8
001
 10
-14.778335
 20
38.309634
 0
POINT
 8
001
 10
29.172093
 20
14.469335
 0
ENDBLK
 8
001
 0
BLOCK
 8
001
 2
*D1
 70
1
 10
0.0
 20
0.0
 0
LINE
 8
001
 10
-0.803121
 20
-33.610516
 11
-10.087032
 21
-33.610516
 0
LINE
 8
001
 10
-0.693355
 20
-20.610516
 11
-10.087032
 21
-20.610516
 0
LINE
 8
001
 10
-9.087032
 20
-33.610516
 11
-9.087032
 21
-20.610516
 0
INSERT
 8
001
 62
7
 2
ARROW
 6
BYBLOCK
 10
-9.087032
 20
-33.610516
 41
1.000000
 42
1.000000
 50
90.000000
 0
INSERT
 8
001
 62
7
 2
ARROW
 6
BYBLOCK
 10
-9.087032
 20
-20.610516
 41
1.000000
 42
1.000000
 50
270.000000
 0
TEXT
 8
001
 10
-10.087032
 20
-29.991092
 40
3.200000
 1
13
 50
90.000003
 41
1.031250
 7
STANDARD
 0
POINT
 8
001
 10
0.196879
 20
-33.610516
 0
POINT
 8
001
 10
0.306645
 20
-20.610516
 0
POINT
 8
001
 10
-9.087032
 20
-20.610516
 0
ENDBLK
 8
001
 0
BLOCK
 8
001
 2
*D2
 70
1
 10
0.0
 20
0.0
 0
LINE
 8
001
 10
-52.323325
 20
-71.161439
 11
-61.153297
 21
-71.161439
 0
LINE
 8
001
 10
-52.323325
 20
-56.661439
 11
-61.153297
 21
-56.661439
 0
LINE
 8
001
 10
-60.153297
 20
-71.161439
 11
-60.153297
 21
-56.661439
 0
INSERT
 8
001
 62
7
 2
ARROW
 6
BYBLOCK
 10
-60.153297
 20
-71.161439
 41
1.000000
 42
1.000000
 50
90.000000
 0
INSERT
 8
001
 62
7
 2
ARROW
 6
BYBLOCK
 10
-60.153297
 20
-56.661439
 41
1.000000
 42
1.000000
 50
270.000000
 0
TEXT
 8
001
 10
-61.153297
 20
-69.520381
 40
3.200000
 1
14.5
 50
90.000003
 41
1.145833
 7
STANDARD
 0
POINT
 8
001
 10
-51.323325
 20
-71.161439
 0
POINT
 8
001
 10
-51.323325
 20
-56.661439
 0
POINT
 8
001
 10
-60.153297
 20
-56.661439
 0
ENDBLK
 8
001
 0
BLOCK
 8
001
 2
*D3
 70
1
 10
0.0
 20
0.0
 0
LINE
 8
001
 10
-91.806645
 20
-65.890364
 11
-81.255070
 21
-65.890364
 0
LINE
 8
001
 10
-91.806645
 20
-60.690364
 11
-81.255070
 21
-60.690364
 0
LINE
 8
001
 10
-82.255070
 20
-65.890364
 11
-82.255070
 21
-60.690364
 0
INSERT
 8
001
 62
7
 2
ARROW
 6
BYBLOCK
 10
-82.255070
 20
-65.890364
 41
1.000000
 42
1.000000
 50
270.000000
 0
INSERT
 8
001
 62
7
 2
ARROW
 6
BYBLOCK
 10
-82.255070
 20
-60.690364
 41
1.000000
 42
1.000000
 50
90.000000
 0
TEXT
 8
001
 10
-83.255070
 20
-58.759786
 40
3.200000
 1
5.2
 50
90.000003
 41
1.104911
 7
STANDARD
 0
POINT
 8
001
 10
-92.806645
 20
-65.890364
 0
POINT
 8
001
 10
-92.806645
 20
-60.690364
 0
POINT
 8
001
 10
-82.255070
 20
-60.690364
 0
LINE
 8
001
 10
-82.255070
 20
-65.890364
 11
-82.255070
 21
-68.890364
 0
LINE
 8
001
 10
-82.255070
 20
-60.690364
 11
-82.255070
 21
-50.509786
 0
ENDBLK
 8
001
 0
BLOCK
 8
001
 2
*D4
 70
1
 10
0.0
 20
0.0
 0
LINE
 8
001
 10
-38.643769
 20
18.417084
 11
-38.643769
 21
70.550991
 0
LINE
 8
001
 10
44.196879
 20
27.389484
 11
44.196879
 21
70.550991
 0
LINE
 8
001
 10
-38.643769
 20
69.550991
 11
44.196879
 21
69.550991
 0
INSERT
 8
001
 62
7
 2
ARROW
 6
BYBLOCK
 10
-38.643769
 20
69.550991
 41
1.000000
 42
1.000000
 0
INSERT
 8
001
 62
7
 2
ARROW
 6
BYBLOCK
 10
44.196879
 20
69.550991
 41
1.000000
 42
1.000000
 50
180.000000
 0
TEXT
 8
001
 10
0.026555
 20
70.550991
 40
3.200000
 1
82
 41
0.859375
 7
STANDARD
 0
POINT
 8
001
 10
-38.643769
 20
17.417084
 0
POINT
 8
001
 10
44.196879
 20
26.389484
 0
POINT
 8
001
 10
44.196879
 20
69.550991
 0
ENDBLK
 8
001
 0
BLOCK
 8
001
 2
*D5
 70
1
 10
0.0
 20
0.0
 0
LINE
 8
001
 10
-105.596955
 20
-32.610516
 11
-105.596955
 21
-43.696477
 0
LINE
 8
001
 10
-88.596955
 20
-32.610516
 11
-88.596955
 21
-43.696477
 0
LINE
 8
001
 10
-105.596955
 20
-42.696477
 11
-88.596955
 21
-42.696477
 0
INSERT
 8
001
 62
7
 2
ARROW
 6
BYBLOCK
 10
-105.596955
 20
-42.696477
 41
1.000000
 42
1.000000
 0
INSERT
 8
001
 62
7
 2
ARROW
 6
BYBLOCK
 10
-88.596955
 20
-42.696477
 41
1.000000
 42
1.000000
 50
180.000000
 0
TEXT
 8
001
 10
-101.699781
 20
-41.696477
 40
3.200000
 1
%%c17
 41
0.966797
 7
STANDARD
 0
POINT
 8
001
 10
-105.596955
 20
-31.610516
 0
POINT
 8
001
 10
-88.596955
 20
-31.610516
 0
POINT
 8
001
 10
-88.596955
 20
-42.696477
 0
ENDBLK
 8
001
 0
BLOCK
 8
001
 2
*D6
 70
1
 10
0.0
 20
0.0
 0
LINE
 8
001
 10
-103.096955
 20
54.389484
 11
-103.096955
 21
71.210081
 0
LINE
 8
001
 10
-91.096955
 20
54.389484
 11
-91.096955
 21
71.210081
 0
LINE
 8
001
 10
-103.096955
 20
70.210081
 11
-91.096955
 21
70.210081
 0
INSERT
 8
001
 62
7
 2
ARROW
 6
BYBLOCK
 10
-103.096955
 20
70.210081
 41
1.000000
 42
1.000000
 0
INSERT
 8
001
 62
7
 2
ARROW
 6
BYBLOCK
 10
-91.096955
 20
70.210081
 41
1.000000
 42
1.000000
 50
180.000000
 0
TEXT
 8
001
 10
-99.609907
 20
71.210081
 40
3.200000
 1
12
 41
1.031250
 7
STANDARD
 0
POINT
 8
001
 10
-103.096955
 20
53.389484
 0
POINT
 8
001
 10
-91.096955
 20
53.389484
 0
POINT
 8
001
 10
-91.096955
 20
70.210081
 0
ENDBLK
 8
001
 0
BLOCK
 8
001
 2
*D7
 70
1
 10
0.0
 20
0.0
 0
LINE
 8
001
 10
14.696879
 20
-33.610516
 11
53.955707
 21
-33.610516
 0
LINE
 8
001
 10
8.196879
 20
63.389484
 11
53.955707
 21
63.389484
 0
LINE
 8
001
 10
52.955707
 20
-33.610516
 11
52.955707
 21
63.389484
 0
INSERT
 8
001
 62
7
 2
ARROW
 6
BYBLOCK
 10
52.955707
 20
-33.610516
 41
1.000000
 42
1.000000
 50
90.000000
 0
INSERT
 8
001
 62
7
 2
ARROW
 6
BYBLOCK
 10
52.955707
 20
63.389484
 41
1.000000
 42
1.000000
 50
270.000000
 0
TEXT
 8
001
 10
51.955707
 20
12.139484
 40
3.200000
 1
97
 50
90.000003
 41
0.859375
 7
STANDARD
 0
POINT
 8
001
 10
13.696879
 20
-33.610516
 0
POINT
 8
001
 10
7.196879
 20
63.389484
 0
POINT
 8
001
 10
52.955707
 20
63.389484
 0
ENDBLK
 8
001
 0
BLOCK
 8
001
 2
*D8
 70
1
 10
0.0
 20
0.0
 0
LINE
 8
001
 10
-101.096955
 20
8.344864
 11
-101.096955
 21
0.005006
 0
LINE
 8
001
 10
-93.096955
 20
8.344864
 11
-93.096955
 21
0.005006
 0
LINE
 8
001
 10
-101.096955
 20
1.005006
 11
-93.096955
 21
1.005006
 0
INSERT
 8
001
 62
7
 2
ARROW
 6
BYBLOCK
 10
-101.096955
 20
1.005006
 41
1.000000
 42
1.000000
 50
180.000000
 0
INSERT
 8
001
 62
7
 2
ARROW
 6
BYBLOCK
 10
-93.096955
 20
1.005006
 41
1.000000
 42
1.000000
 50
360.000000
 0
TEXT
 8
001
 10
-86.441585
 20
2.005006
 40
3.200000
 1
8
 41
0.859375
 7
STANDARD
 0
POINT
 8
001
 10
-101.096955
 20
9.344864
 0
POINT
 8
001
 10
-93.096955
 20
9.344864
 0
POINT
 8
001
 10
-93.096955
 20
1.005006
 0
LINE
 8
001
 10
-101.096955
 20
1.005006
 11
-104.096955
 21
1.005006
 0
LINE
 8
001
 10
-93.096955
 20
1.005006
 11
-83.691585
 21
1.005006
 0
ENDBLK
 8
001
 0
ENDSEC
 0
SECTION
 2
ENTITIES
 0
DIMENSION
 8
001
 2
*D0
 10
29.172093
 20
14.469335
 11
17.290964
 21
22.051733
 70
3
 15
-14.778335
 25
38.309634
 0
DIMENSION
 8
001
 2
*D1
 10
-9.087032
 20
-20.610516
 11
-10.087032
 21
-29.991092
 13
0.196879
 23
-33.610516
 14
0.306645
 24
-20.610516
 50
90.000000
 0
DIMENSION
 8
001
 2
*D2
 10
-60.153297
 20
-56.661439
 11
-61.153297
 21
-69.520381
 13
-51.323325
 23
-71.161439
 14
-51.323325
 24
-56.661439
 50
90.000000
 0
DIMENSION
 8
001
 2
*D3
 10
-82.255070
 20
-60.690364
 11
-83.255070
 21
-58.759786
 13
-92.806645
 23
-65.890364
 14
-92.806645
 24
-60.690364
 50
90.000000
 0
DIMENSION
 8
001
 2
*D4
 10
44.196879
 20
69.550991
 11
0.026555
 21
70.550991
 13
-38.643769
 23
17.417084
 14
44.196879
 24
26.389484
 0
DIMENSION
 8
001
 2
*D5
 10
-88.596955
 20
-42.696477
 11
-101.699781
 21
-41.696477
 13
-105.596955
 23
-31.610516
 14
-88.596955
 24
-31.610516
 0
DIMENSION
 8
001
 2
*D6
 10
-91.096955
 20
70.210081
 11
-99.609907
 21
71.210081
 13
-103.096955
 23
53.389484
 14
-91.096955
 24
53.389484
 0
DIMENSION
 8
001
 2
*D7
 10
52.955707
 20
63.389484
 11
51.955707
 21
12.139484
 13
13.696879
 23
-33.610516
 14
7.196879
 24
63.389484
 50
90.000000
 0
DIMENSION
 8
001
 2
*D8
 10
-93.096955
 20
1.005006
 11
-86.441585
 21
2.005006
 13
-101.096955
 23
9.344864
 14
-93.096955
 24
9.344864
 0
TEXT
 8
001
 62
3
 10
91.996821
 20
-56.062172
 40
1.993800
 1
A
 41
0.700000
 7
STANDARD
 0
TEXT
 8
001
 62
3
 10
94.524248
 20
-56.062172
 40
1.993800
 1
P
 41
0.700000
 7
STANDARD
 0
TEXT
 8
001
 62
3
 10
97.051675
 20
-56.062172
 40
1.993800
 1
P
 41
0.700000
 7
STANDARD
 0
TEXT
 8
001
 62
3
 10
99.579102
 20
-56.062172
 40
1.993800
 1
D
 41
0.700000
 7
STANDARD
 0
TEXT
 8
001
 62
3
 10
104.049020
 20
-55.851400
 40
1.993800
 1
C
 41
0.700000
 7
STANDARD
 0
TEXT
 8
001
 62
3
 10
106.576447
 20
-55.851400
 40
1.993800
 1
H
 41
0.700000
 7
STANDARD
 0
TEXT
 8
001
 62
3
 10
109.103874
 20
-55.851400
 40
1.993800
 1
C
 41
0.700000
 7
STANDARD
 0
TEXT
 8
001
 62
3
 10
111.631301
 20
-55.851400
 40
1.993800
 1
K
 41
0.700000
 7
STANDARD
 0
TEXT
 8
001
 62
3
 10
116.327493
 20
-55.769433
 40
1.993800
 1
DESN
 41
1.216762
 7
STANDARD
 0
TEXT
 8
001
 62
3
 10
91.146256
 20
-79.521994
 40
3.190080
 1
作成日
 41
1.017226
 7
STANDARD
 0
LINE
 8
001
 62
3
 10
126.511732
 20
-74.032892
 11
126.511732
 21
-53.097992
 0
TEXT
 8
001
 62
3
 10
128.871524
 20
-55.683880
 40
1.794420
 1
D
 41
0.666667
 7
STANDARD
 0
TEXT
 8
001
 62
3
 10
131.679421
 20
-55.683880
 40
1.794420
 1
E
 41
0.666667
 7
STANDARD
 0
TEXT
 8
001
 62
3
 10
134.487317
 20
-55.683880
 40
1.794420
 1
F
 41
0.666667
 7
STANDARD
 0
TEXT
 8
001
 62
3
 10
128.871524
 20
-59.664057
 40
3.190080
 1
製図
 41
1.076369
 7
STANDARD
 0
TEXT
 8
001
 62
3
 10
36.575508
 20
-60.081353
 40
3.190080
 1
部品名
 41
0.959524
 7
STANDARD
 0
TEXT
 8
001
 62
3
 10
36.033152
 20
-77.061465
 40
2.591940
 1
１
 41
0.884615
 7
STANDARD
 0
TEXT
 8
001
 62
3
 10
40.392368
 20
-77.061465
 40
2.591940
 1
台
 41
0.884615
 7
STANDARD
 0
TEXT
 8
001
 62
3
 10
44.751585
 20
-77.061465
 40
2.591940
 1
分
 41
0.884615
 7
STANDARD
 0
TEXT
 8
001
 62
3
 10
36.033152
 20
-80.550615
 40
2.591940
 1
個
 41
0.884615
 7
STANDARD
 0
TEXT
 8
001
 62
3
 10
44.751585
 20
-80.550615
 40
2.591940
 1
数
 41
0.884615
 7
STANDARD
 0
TEXT
 8
001
 62
3
 10
38.891982
 20
-89.779192
 40
4.386360
 1
日動工業株式会社
 41
0.833333
 7
STANDARD
 0
TEXT
 8
001
 62
3
 10
37.379329
 20
-84.603412
 40
2.591940
 1
NICHIDO IND.CO.,LTD
 41
0.949051
 7
STANDARD
 0
TEXT
 8
001
 62
3
 10
59.294730
 20
-77.814051
 40
2.591940
 1
3AD
 41
1.013213
 7
STANDARD
 0
TEXT
 8
001
 62
3
 10
59.294730
 20
-80.635030
 40
2.591940
 1
三角法
 41
0.844344
 7
STANDARD
 0
TEXT
 8
001
 62
3
 10
78.162211
 20
-84.984676
 40
2.880000
 1
出図コード
 41
0.699326
 7
STANDARD
 0
TEXT
 8
001
 62
3
 10
78.162211
 20
-89.052796
 40
2.880000
 1
HM-A4
 41
0.839192
 7
STANDARD
 0
LINE
 8
001
 62
3
 10
-0.281212
 20
97.548184
 11
-0.281212
 21
98.548184
 0
LINE
 8
001
 62
3
 10
54.833686
 20
85.551921
 11
138.433686
 21
85.551921
 0
TEXT
 8
001
 62
3
 10
127.708686
 20
81.406921
 40
3.040000
 1
担
 41
0.859375
 7
STANDARD
 0
TEXT
 8
001
 62
3
 10
134.596186
 20
81.406921
 40
3.040000
 1
当
 41
0.859375
 7
STANDARD
 0
TEXT
 8
001
 62
3
 10
87.512910
 20
81.389759
 40
3.040000
 1
変更・追記内容
 41
1.182726
 7
STANDARD
 0
LINE
 8
001
 62
3
 10
54.833686
 20
90.057310
 11
54.833686
 21
70.701921
 0
TEXT
 8
001
 62
3
 10
58.606391
 20
76.452745
 40
2.432000
 1
1
 41
1.499999
 7
STANDARD
 0
TEXT
 8
001
 62
3
 10
58.606391
 20
71.296534
 40
2.432000
 1
2
 41
1.000000
 7
STANDARD
 0
TEXT
 8
001
 62
3
 10
67.792635
 20
81.966286
 40
3.200000
 1
日
 41
0.859375
 7
STANDARD
 0
TEXT
 8
001
 62
3
 10
76.669509
 20
81.966286
 40
3.200000
 1
付
 41
0.859375
 7
STANDARD
 0
TEXT
 8
001
 62
3
 10
67.618477
 20
86.201921
 40
3.200000
 1
図
 41
0.859375
 7
STANDARD
 0
TEXT
 8
001
 62
3
 10
86.274372
 20
86.201921
 40
3.200000
 1
面
 41
0.859375
 7
STANDARD
 0
TEXT
 8
001
 62
3
 10
104.930267
 20
86.201921
 40
3.200000
 1
略
 41
0.859375
 7
STANDARD
 0
TEXT
 8
001
 62
3
 10
123.586162
 20
86.201921
 40
3.200000
 1
歴
 41
0.859375
 7
STANDARD
 0
TEXT
 8
001
 62
3
 10
55.436050
 20
81.326921
 40
3.200000
 1
記
 41
0.859375
 7
STANDARD
 0
TEXT
 8
001
 62
3
 10
61.688958
 20
81.326921
 40
3.200000
 1
号
 41
0.859375
 7
STANDARD
 0
LINE
 8
001
 62
3
 10
128.835042
 20
70.701921
 11
54.833686
 21
70.701921
 0
LINE
 8
001
 62
3
 10
136.985378
 20
70.701921
 11
128.835042
 21
70.701921
 0
LINE
 8
001
 62
3
 10
136.985378
 20
70.701921
 11
138.433686
 21
70.701921
 0
LINE
 8
001
 10
59.651391
 20
79.862676
 11
57.751391
 21
76.571779
 0
LINE
 8
001
 10
59.651391
 20
79.862676
 11
61.551391
 21
76.571779
 0
LINE
 8
001
 10
57.751391
 20
76.571779
 11
61.551391
 21
76.571779
 0
LINE
 8
001
 10
59.651391
 20
74.706466
 11
57.751391
 21
71.415569
 0
LINE
 8
001
 10
59.651391
 20
74.706466
 11
61.551391
 21
71.415569
 0
LINE
 8
001
 10
57.751391
 20
71.415569
 11
61.551391
 21
71.415569
 0
LINE
 8
001
 62
3
 10
114.511732
 20
-74.032892
 11
114.511732
 21
-53.097992
 0
LINE
 8
001
 62
3
 10
102.511732
 20
-74.032892
 11
102.511732
 21
-53.097992
 0
LINE
 8
001
 62
3
 10
90.511732
 20
-74.032892
 11
90.511732
 21
-53.097992
 0
LINE
 8
001
 62
3
 10
102.511732
 20
-74.032892
 11
102.511732
 21
-81.011192
 0
LINE
 8
001
 62
3
 10
90.511732
 20
-74.032892
 11
90.511732
 21
-81.011192
 0
LINE
 8
001
 62
3
 10
90.511732
 20
-81.011192
 11
90.511732
 21
-90.000000
 0
LINE
 8
001
 62
3
 10
77.696712
 20
-85.531325
 11
90.511732
 21
-85.531325
 0
LINE
 8
001
 62
3
 10
77.696712
 20
-67.054592
 11
77.696712
 21
-90.000000
 0
LINE
 8
001
 62
3
 10
66.986352
 20
-67.054592
 11
66.986352
 21
-81.011192
 0
LINE
 8
001
 62
3
 10
59.008227
 20
-74.032892
 11
59.008227
 21
-81.011192
 0
LINE
 8
001
 62
3
 10
35.415575
 20
-53.097992
 11
35.415575
 21
-90.000000
 0
LINE
 8
001
 62
3
 10
47.616265
 20
-53.097992
 11
47.616265
 21
-81.011192
 0
LINE
 8
001
 62
3
 10
35.415575
 20
-53.097992
 11
138.500000
 21
-53.097992
 0
LINE
 8
001
 62
3
 10
135.519519
 20
-81.011192
 11
105.730822
 21
-81.011192
 0
LINE
 8
001
 62
3
 10
135.519519
 20
-81.011192
 11
138.500000
 21
-81.011192
 0
LINE
 8
001
 62
3
 10
88.340879
 20
-81.011192
 11
80.254244
 21
-81.011192
 0
LINE
 8
001
 62
3
 10
88.340879
 20
-81.011192
 11
105.730822
 21
-81.011192
 0
LINE
 8
001
 62
3
 10
49.984537
 20
-81.011192
 11
35.415575
 21
-81.011192
 0
LINE
 8
001
 62
3
 10
58.190010
 20
-81.011192
 11
49.984537
 21
-81.011192
 0
LINE
 8
001
 62
3
 10
58.190010
 20
-81.011192
 11
80.254244
 21
-81.011192
 0
LINE
 8
001
 62
3
 10
50.284461
 20
-74.032892
 11
35.415575
 21
-74.032892
 0
LINE
 8
001
 62
3
 10
65.059971
 20
-74.032892
 11
50.284461
 21
-74.032892
 0
LINE
 8
001
 62
3
 10
65.059971
 20
-74.032892
 11
138.500000
 21
-74.032892
 0
LINE
 8
001
 62
3
 10
53.447812
 20
-67.054592
 11
35.415575
 21
-67.054592
 0
LINE
 8
001
 62
3
 10
84.696517
 20
-67.054592
 11
90.511732
 21
-67.054592
 0
LINE
 8
001
 62
3
 10
79.586488
 20
-67.054592
 11
84.696517
 21
-67.054592
 0
LINE
 8
001
 62
3
 10
57.578843
 20
-67.054592
 11
79.586488
 21
-67.054592
 0
LINE
 8
001
 62
3
 10
57.578843
 20
-67.054592
 11
53.447812
 21
-67.054592
 0
LINE
 8
001
 62
3
 10
49.011198
 20
-60.076292
 11
35.415575
 21
-60.076292
 0
LINE
 8
001
 62
3
 10
89.251969
 20
-60.076292
 11
138.500000
 21
-60.076292
 0
LINE
 8
001
 62
3
 10
85.302024
 20
-60.076292
 11
89.251969
 21
-60.076292
 0
LINE
 8
001
 62
3
 10
52.355635
 20
-60.076292
 11
49.011198
 21
-60.076292
 0
LINE
 8
001
 62
3
 10
55.818911
 20
-60.076292
 11
52.355635
 21
-60.076292
 0
LINE
 8
001
 62
3
 10
82.749839
 20
-60.076292
 11
55.818911
 21
-60.076292
 0
LINE
 8
001
 62
3
 10
82.749839
 20
-60.076292
 11
85.302024
 21
-60.076292
 0
LINE
 8
001
 62
3
 10
12.396879
 20
-24.410516
 11
1.996879
 21
-24.410516
 0
LINE
 8
001
 62
3
 10
12.396879
 20
-28.610516
 11
12.396879
 21
-24.410516
 0
LINE
 8
001
 62
3
 10
1.996879
 20
-28.610516
 11
1.996879
 21
-24.410516
 0
LINE
 8
001
 62
3
 10
10.296879
 20
-33.610516
 11
10.296879
 21
-28.610516
 0
LINE
 8
001
 62
3
 10
4.096879
 20
-33.610516
 11
4.096879
 21
-28.610516
 0
LINE
 8
001
 62
3
 10
-95.399140
 20
-60.190364
 11
-97.023948
 21
-60.190364
 0
LINE
 8
001
 62
3
 10
-95.399140
 20
-66.390364
 11
-97.023948
 21
-66.390364
 0
LINE
 8
001
 62
3
 10
-92.806645
 20
-60.690364
 11
-94.680873
 21
-60.690364
 0
LINE
 8
001
 62
3
 10
-92.806645
 20
-65.890364
 11
-94.680873
 21
-65.890364
 0
ARC
 8
001
 62
3
 10
-97.023948
 20
-63.290364
 40
3.500000
 50
47.975372
 51
62.339550
 0
ARC
 8
001
 62
3
 10
-97.023948
 20
-63.290364
 40
3.500000
 50
297.660450
 51
312.024628
 0
LINE
 8
001
 62
3
 10
3.450641
 20
-5.851925
 11
20.812423
 21
5.422440
 0
LINE
 8
001
 62
3
 10
13.921645
 20
-13.867320
 11
28.128503
 21
-4.120630
 0
LINE
 8
001
 62
3
 10
5.628184
 20
-8.326414
 11
22.745714
 21
3.103572
 0
LINE
 8
001
 62
3
 10
11.589674
 20
-11.560377
 11
26.077607
 21
-1.886267
 0
ARC
 8
001
 62
3
 10
7.196879
 20
26.389484
 40
37.000000
 50
304.452275
 51
188.255611
 0
ARC
 8
001
 62
3
 10
7.196879
 20
26.389484
 40
34.000000
 50
303.732451
 51
90.000000
 0
ARC
 8
001
 62
3
 10
7.196879
 20
26.389484
 40
28.000000
 50
303.732451
 51
90.000000
 0
ARC
 8
001
 62
3
 10
7.196879
 20
26.389484
 40
25.000000
 50
302.998821
 51
90.000000
 0
ARC
 8
001
 62
3
 10
-23.657619
 20
23.389484
 40
3.000000
 50
185.553444
 51
354.446551
 0
TEXT
 8
001
 62
3
 10
80.254244
 20
-81.011192
 40
3.200000
 1
1/1
 41
1.072092
 7
STANDARD
 0
LINE
 8
001
 62
3
 10
1.975135
 20
-19.457403
 11
0.848498
 21
-12.185929
 0
LINE
 8
001
 62
3
 10
12.418622
 20
-19.457403
 11
13.076667
 21
-15.210290
 0
ARC
 8
001
 62
3
 10
15.053084
 20
-15.516515
 40
2.000000
 50
124.452275
 51
171.192666
 0
LINE
 8
001
 62
3
 10
3.896611
 20
-12.265423
 11
4.882253
 21
-18.626898
 0
LINE
 8
001
 62
3
 10
10.290994
 20
-13.595959
 11
9.511505
 21
-18.626898
 0
ARC
 8
001
 62
3
 10
13.255621
 20
-14.055296
 40
3.000000
 50
123.732451
 51
171.192666
 0
LINE
 8
001
 62
3
 10
0.696879
 20
-33.610516
 11
13.696879
 21
-33.610516
 0
LINE
 8
001
 62
3
 10
-90.123044
 20
-60.353098
 11
-92.806645
 21
-60.690364
 0
LINE
 8
001
 62
3
 10
-90.123044
 20
-66.227630
 11
-92.806645
 21
-65.890364
 0
LINE
 8
001
 62
3
 10
-29.580716
 20
20.738503
 11
-34.156241
 21
17.337550
 0
ARC
 8
001
 62
3
 10
-29.815557
 20
21.019236
 40
0.400000
 50
312.423137
 51
8.255611
 0
ARC
 8
001
 62
3
 10
-97.023948
 20
-63.290364
 40
3.100000
 50
90.000000
 51
161.180937
 0
ARC
 8
001
 62
3
 10
-97.023948
 20
-63.290364
 40
3.100000
 50
198.819063
 51
270.000000
 0
LINE
 8
001
 62
3
 10
-102.228753
 20
-62.290364
 11
-102.297302
 21
-63.297515
 0
LINE
 8
001
 62
3
 10
-102.296815
 20
-63.290364
 11
-102.228753
 21
-64.290364
 0
LINE
 8
001
 62
3
 10
-99.958228
 20
-62.290364
 11
-102.228753
 21
-62.290364
 0
LINE
 8
001
 62
3
 10
-99.958228
 20
-64.290364
 11
-102.228753
 21
-64.290364
 0
CIRCLE
 8
001
 62
3
 10
-97.023948
 20
-63.290364
 40
8.500000
 0
LINE
 8
001
 62
3
 10
-90.123044
 20
-60.353098
 11
-89.123130
 21
-60.155545
 0
LINE
 8
001
 62
3
 10
-90.123044
 20
-66.227630
 11
-89.123130
 21
-66.425183
 0
LINE
 8
001
 62
3
 10
15.696879
 20
-31.610516
 11
15.696879
 21
-22.610516
 0
LINE
 8
001
 62
3
 10
-1.303121
 20
-31.610516
 11
-1.303121
 21
-22.610516
 0
ARC
 8
001
 62
3
 10
13.696879
 20
-22.610516
 40
2.000000
 50
0.000000
 51
90.000000
 0
ARC
 8
001
 62
3
 10
13.696879
 20
-31.610516
 40
2.000000
 50
270.000000
 51
0.000000
 0
ARC
 8
001
 62
3
 10
0.696879
 20
-22.610516
 40
2.000000
 50
90.000000
 51
180.000000
 0
ARC
 8
001
 62
3
 10
0.696879
 20
-31.610516
 40
2.000000
 50
180.000000
 51
270.000000
 0
TEXT
 8
001
 62
3
 10
105.730822
 20
-81.011192
 40
3.200000
 1
2007.2.13
 41
1.357970
 7
STANDARD
 0
LINE
 8
001
 62
3
 10
-20.671699
 20
23.679807
 11
-20.671700
 21
23.099162
 0
LINE
 8
001
 62
3
 10
-37.536070
 20
19.745002
 11
-36.679308
 21
20.441440
 0
LINE
 8
001
 62
3
 10
-34.156241
 20
17.337550
 11
-36.616007
 21
20.492896
 0
ARC
 8
001
 62
3
 10
-35.643769
 20
17.417084
 40
3.000000
 50
129.106721
 51
212.620287
 0
LINE
 8
001
 62
3
 10
-34.376483
 20
9.871879
 11
-38.170554
 21
15.799877
 0
LINE
 8
001
 62
3
 10
-27.516406
 20
19.546944
 11
-31.606071
 21
16.464385
 0
LINE
 8
001
 62
3
 10
-25.782901
 20
17.247083
 11
-29.872566
 21
14.164525
 0
ARC
 8
001
 62
3
 10
-26.649654
 20
18.397013
 40
1.440000
 50
307.006921
 51
127.006917
 0
ARC
 8
001
 62
3
 10
-30.739319
 20
15.314455
 40
1.440000
 50
127.006921
 51
307.006921
 0
ARC
 8
001
 62
3
 10
6.718372
 20
-10.884016
 40
6.000000
 50
122.998821
 51
163.013929
 0
ARC
 8
001
 62
3
 10
7.849446
 20
-11.652973
 40
4.000000
 50
123.732451
 51
188.807334
 0
LINE
 8
001
 62
3
 10
-18.559891
 20
18.962301
 11
-31.498862
 21
9.344864
 0
ARC
 8
001
 62
3
 10
-32.691960
 20
10.950017
 40
2.000000
 50
212.620287
 51
306.623137
 0
LINE
 8
001
 6
HIDDEN
 62
15
 10
-34.376483
 20
9.871879
 11
-34.189126
 21
9.579145
 0
ARC
 8
001
 62
3
 10
-20.349538
 20
21.370031
 40
3.000000
 50
306.623137
 51
10.327021
 0
ARC
 8
001
 6
HIDDEN
 62
15
 10
7.196879
 20
26.389484
 40
25.000000
 50
190.327021
 51
190.361303
 0
ARC
 8
001
 62
3
 10
7.196879
 20
26.389484
 40
28.000000
 50
90.000000
 51
190.327021
 0
ARC
 8
001
 62
3
 10
-18.873837
 20
21.638930
 40
1.500000
 50
190.327021
 51
10.327015
 0
LINE
 8
001
 6
HIDDEN
 62
15
 10
-35.357302
 20
23.216068
 11
-35.220967
 21
23.153051
 0
LINE
 8
001
 62
3
 10
-0.507172
 20
-9.839041
 11
0.023742
 21
-9.839041
 0
LINE
 8
001
 62
3
 10
-0.507172
 20
-11.339041
 11
-0.139711
 21
-11.339041
 0
ARC
 8
001
 62
3
 10
-0.139711
 20
-12.339041
 40
1.000000
 50
8.807334
 51
90.000000
 0
ARC
 8
001
 62
3
 10
0.023742
 20
-8.839041
 40
1.000000
 50
270.000000
 51
343.013929
 0
ARC
 8
001
 62
3
 10
7.196879
 20
26.389484
 40
34.000000
 50
174.813774
 51
185.553444
 0
ARC
 8
001
 62
3
 10
7.196879
 20
26.389484
 40
34.000000
 50
90.000000
 51
174.813774
 0
ARC
 8
001
 62
3
 10
7.196879
 20
26.389484
 40
25.000000
 50
90.000000
 51
175.394272
 0
ARC
 8
001
 62
3
 10
7.196879
 20
26.389484
 40
25.000000
 50
175.394272
 51
190.327021
 0
LINE
 8
001
 62
3
 10
-8.021066
 20
-11.338420
 11
-48.097801
 21
-11.333296
 0
LINE
 8
001
 62
3
 10
-8.020875
 20
-9.838420
 11
-23.257337
 21
-9.836472
 0
LINE
 8
001
 62
3
 10
-24.735415
 20
-8.336283
 11
-23.291550
 21
-9.801746
 0
LINE
 8
001
 62
3
 10
-48.031410
 20
-8.333304
 11
-24.735415
 21
-8.336283
 0
ARC
 8
001
 62
3
 10
-48.031794
 20
-11.333304
 40
3.000000
 50
89.992674
 51
105.992674
 0
LINE
 8
001
 62
3
 10
-51.971638
 20
-9.341707
 11
-48.858337
 21
-8.449413
 0
ARC
 8
001
 62
3
 10
-51.833880
 20
-9.822356
 40
0.500000
 50
105.992674
 51
191.793698
 0
LINE
 8
001
 62
3
 10
-51.913448
 20
-11.887599
 11
-52.323325
 21
-9.924550
 0
ARC
 8
001
 62
3
 10
-51.424003
 20
-11.785405
 40
0.500000
 50
191.793698
 51
285.992674
 0
LINE
 8
001
 62
3
 10
-51.286246
 20
-12.266053
 11
-48.095246
 21
-11.351490
 0
LINE
 8
001
 62
3
 10
-8.020875
 20
-9.838420
 11
0.058984
 21
-9.838420
 0
LINE
 8
001
 6
PHANTOM
 10
-8.549250
 20
-7.855386
 11
-36.485677
 21
20.879623
 0
LINE
 8
001
 6
PHANTOM
 10
-7.473751
 20
-6.809776
 11
-18.094684
 21
4.114764
 0
LINE
 8
001
 6
PHANTOM
 10
-18.049647
 20
6.220294
 11
-18.093641
 21
4.163502
 0
LINE
 8
001
 6
PHANTOM
 10
-34.288666
 20
22.923516
 11
-18.049647
 21
6.220294
 0
LINE
 8
001
 6
PHANTOM
 10
-21.544227
 20
9.814769
 11
-23.750263
 21
7.780158
 0
ARC
 8
001
 6
PHANTOM
 10
-0.303753
 20
0.160959
 40
10.000000
 50
224.192674
 51
270.000000
 0
ARC
 8
001
 6
PHANTOM
 10
-0.303753
 20
0.160959
 40
11.500000
 50
224.192674
 51
270.000000
 0
LINE
 8
001
 6
PHANTOM
 10
-39.377254
 20
22.515167
 11
-36.496940
 21
20.865107
 0
ARC
 8
001
 6
PHANTOM
 10
-39.128711
 20
22.949018
 40
0.500000
 50
145.993698
 51
240.192674
 0
LINE
 8
001
 6
PHANTOM
 10
-39.543199
 20
23.228660
 11
-38.421621
 21
24.891075
 0
LINE
 8
001
 6
PHANTOM
 10
-37.758590
 20
25.045284
 11
-34.948411
 21
23.435401
 0
ARC
 8
001
 6
PHANTOM
 10
-38.007133
 20
24.611433
 40
0.500000
 50
60.192674
 51
145.993698
 0
ARC
 8
001
 6
PHANTOM
 10
-36.439665
 20
20.832296
 40
3.000000
 50
44.192674
 51
60.192674
 0
LINE
 8
001
 6
PHANTOM
 10
-33.583061
 20
17.894034
 11
-31.278530
 21
19.827333
 0
LINE
 8
001
 62
3
 10
-29.748632
 20
-8.335642
 11
-29.748632
 21
-11.335632
 0
LINE
 8
001
 62
3
 10
-43.713162
 20
-8.333856
 11
-43.713162
 21
-11.333856
 0
LINE
 8
001
 62
3
 10
-8.021066
 20
-11.338420
 11
-0.139711
 21
-11.338420
 0
LINE
 8
001
 62
3
 10
3.349446
 20
-57.911439
 11
0.967931
 21
-57.911439
 0
LINE
 8
001
 62
3
 10
3.349446
 20
-69.911439
 11
0.967931
 21
-69.911439
 0
LINE
 8
001
 62
3
 10
-29.748632
 20
-67.661439
 11
-29.748632
 21
-60.161439
 0
LINE
 8
001
 62
3
 10
-43.713162
 20
-60.161439
 11
-43.713162
 21
-67.661439
 0
LINE
 8
001
 62
3
 10
-52.323325
 20
-70.161439
 11
-52.323325
 21
-57.661439
 0
LINE
 8
001
 62
3
 10
-43.213162
 20
-59.661439
 11
-30.248632
 21
-59.661439
 0
LINE
 8
001
 62
3
 10
-43.213162
 20
-68.161439
 11
-30.248632
 21
-68.161439
 0
LINE
 8
001
 62
3
 10
-51.323325
 20
-56.661439
 11
-24.735415
 21
-56.661439
 0
LINE
 8
001
 62
3
 10
-51.323325
 20
-71.161439
 11
-24.735415
 21
-71.161439
 0
ARC
 8
001
 62
3
 10
-51.323325
 20
-57.661439
 40
1.000000
 50
90.000000
 51
180.000000
 0
ARC
 8
001
 62
3
 10
-51.323325
 20
-70.161439
 40
1.000000
 50
180.000000
 51
270.000000
 0
ARC
 8
001
 62
3
 10
-30.248632
 20
-60.161439
 40
0.500000
 50
0.000000
 51
90.000000
 0
ARC
 8
001
 62
3
 10
-30.248632
 20
-67.661439
 40
0.500000
 50
270.000000
 51
0.000000
 0
ARC
 8
001
 62
3
 10
-43.213162
 20
-67.661439
 40
0.500000
 50
180.000000
 51
270.000000
 0
ARC
 8
001
 62
3
 10
-43.213162
 20
-60.161439
 40
0.500000
 50
90.000000
 51
180.000000
 0
LINE
 8
001
 62
3
 10
3.849446
 20
-61.411439
 11
3.849446
 21
-58.411439
 0
LINE
 8
001
 62
3
 10
0.467931
 20
-69.411439
 11
0.467931
 21
-58.411439
 0
LINE
 8
001
 62
3
 10
10.612926
 20
-61.411439
 11
10.612926
 21
-60.411439
 0
LINE
 8
001
 62
3
 10
13.921645
 20
-67.411439
 11
13.921645
 21
-60.411439
 0
LINE
 8
001
 62
3
 10
9.612926
 20
-62.411439
 11
4.849446
 21
-62.411439
 0
LINE
 8
001
 62
3
 10
9.612926
 20
-65.411439
 11
4.849446
 21
-65.411439
 0
ARC
 8
001
 62
3
 10
0.967931
 20
-58.411439
 40
0.500000
 50
90.000000
 51
180.000000
 0
ARC
 8
001
 62
3
 10
0.967931
 20
-69.411439
 40
0.500000
 50
180.000000
 51
270.000000
 0
ARC
 8
001
 62
3
 10
3.349446
 20
-58.411439
 40
0.500000
 50
0.000000
 51
90.000000
 0
ARC
 8
001
 62
3
 10
3.349446
 20
-69.411439
 40
0.500000
 50
270.000000
 51
0.000000
 0
LINE
 8
001
 62
3
 10
13.421645
 20
-59.911439
 11
11.112926
 21
-59.911439
 0
LINE
 8
001
 62
3
 10
11.112926
 20
-67.911439
 11
13.421645
 21
-67.911439
 0
ARC
 8
001
 62
3
 10
11.112926
 20
-60.411439
 40
0.500000
 50
90.000000
 51
180.000000
 0
ARC
 8
001
 62
3
 10
13.421645
 20
-60.411439
 40
0.500000
 50
0.000000
 51
90.000000
 0
ARC
 8
001
 62
3
 10
13.421645
 20
-67.411439
 40
0.500000
 50
270.000000
 51
0.000000
 0
ARC
 8
001
 62
3
 10
11.112926
 20
-67.411439
 40
0.500000
 50
180.000000
 51
270.000000
 0
ARC
 8
001
 62
3
 10
4.849446
 20
-61.411439
 40
1.000000
 50
180.000000
 51
270.000000
 0
LINE
 8
001
 62
3
 10
3.849446
 20
-66.411439
 11
3.849446
 21
-69.411439
 0
ARC
 8
001
 62
3
 10
4.849446
 20
-66.411439
 40
1.000000
 50
90.000000
 51
180.000000
 0
ARC
 8
001
 62
3
 10
9.612926
 20
-61.411439
 40
1.000000
 50
270.000000
 51
0.000000
 0
LINE
 8
001
 62
3
 10
10.612926
 20
-66.411439
 11
10.612926
 21
-67.411439
 0
ARC
 8
001
 62
3
 10
9.612926
 20
-66.411439
 40
1.000000
 50
0.000000
 51
90.000000
 0
LINE
 8
001
 62
3
 10
0.967931
 20
-57.911439
 11
-22.735415
 21
-57.911439
 0
LINE
 8
001
 62
3
 10
0.967931
 20
-69.911439
 11
-22.735415
 21
-69.911439
 0
LINE
 8
001
 62
3
 10
-24.735415
 20
-56.661439
 11
-22.735415
 21
-57.911439
 0
LINE
 8
001
 62
3
 10
-22.735415
 20
-69.911439
 11
-24.843673
 21
-71.510198
 0
ARC
 8
001
 62
3
 10
7.196879
 20
-18.268272
 40
2.342244
 50
188.807334
 51
351.192666
 0
ARC
 8
001
 62
3
 10
13.406831
 20
-19.610516
 40
1.000000
 50
171.192666
 51
270.000000
 0
LINE
 8
001
 62
3
 10
0.986926
 20
-20.610516
 11
0.696879
 21
-20.610516
 0
ARC
 8
001
 62
3
 10
0.986926
 20
-19.610516
 40
1.000000
 50
270.000000
 51
8.807334
 0
LINE
 8
001
 62
3
 10
0.986926
 20
-20.610516
 11
13.696879
 21
-20.610516
 0
TEXT
 8
001
 62
3
 10
54.846921
 20
-59.339070
 40
4.500000
 1
ロックフック
 41
0.800576
 7
STANDARD
 0
TEXT
 8
001
 62
3
 10
56.248918
 20
-66.574250
 40
4.500000
 1
BH-LK
 41
0.960691
 7
STANDARD
 0
TEXT
 8
001
 62
3
 10
93.569746
 20
-90.000000
 40
6.300000
 1
K-BH-LK
 41
0.950757
 7
STANDARD
 0
LINE
 8
001
 62
3
 10
12.396879
 20
-28.610516
 11
1.996879
 21
-28.610516
 0
LINE
 8
001
 62
3
 10
-90.596955
 20
-33.610516
 11
-103.596955
 21
-33.610516
 0
LINE
 8
001
 62
3
 10
-105.596955
 20
-31.610516
 11
-105.596955
 21
-22.610516
 0
LINE
 8
001
 62
3
 10
-88.596955
 20
-31.610516
 11
-88.596955
 21
-22.610516
 0
ARC
 8
001
 62
3
 10
-103.596955
 20
-22.610516
 40
2.000000
 50
90.000000
 51
180.000000
 0
ARC
 8
001
 62
3
 10
-103.596955
 20
-31.610516
 40
2.000000
 50
180.000000
 51
270.000000
 0
ARC
 8
001
 62
3
 10
-90.596955
 20
-22.610516
 40
2.000000
 50
0.000000
 51
90.000000
 0
ARC
 8
001
 62
3
 10
-90.596955
 20
-31.610516
 40
2.000000
 50
270.000000
 51
0.000000
 0
LINE
 8
001
 62
3
 10
-90.887003
 20
-20.610516
 11
-103.596955
 21
-20.610516
 0
LINE
 8
001
 62
3
 10
-100.096955
 20
63.389484
 11
-94.096955
 21
63.389484
 0
LINE
 8
001
 62
3
 10
-103.096955
 20
53.389484
 11
-103.096955
 21
-20.610516
 0
LINE
 8
001
 62
3
 10
-91.096955
 20
53.389484
 11
-91.096955
 21
-20.610516
 0
LINE
 8
001
 62
3
 10
-93.096955
 20
9.344864
 11
-101.096955
 21
9.344864
 0
LINE
 8
001
 62
3
 10
-93.096955
 20
62.389484
 11
-93.096955
 21
9.344864
 0
LINE
 8
001
 62
3
 10
-101.096955
 20
62.389484
 11
-101.096955
 21
9.344864
 0
ARC
 8
001
 62
3
 10
-92.096955
 20
53.389484
 40
1.000000
 50
0.000000
 51
90.000000
 0
ARC
 8
001
 62
3
 10
-102.096955
 20
53.389484
 40
1.000000
 50
90.000000
 51
180.000000
 0
ARC
 8
001
 62
3
 10
-94.096955
 20
62.389484
 40
1.000000
 50
0.000000
 51
90.000000
 0
ARC
 8
001
 62
3
 10
-100.096955
 20
62.389484
 40
1.000000
 50
90.000000
 51
180.000000
 0
LINE
 8
001
 62
3
 10
-102.096955
 20
54.389484
 11
-101.096955
 21
54.389484
 0
LINE
 8
001
 62
3
 10
-93.096955
 20
54.389484
 11
-92.096955
 21
54.389484
 0
LINE
 8
001
 62
3
 10
-101.096955
 20
20.328986
 11
-103.096955
 21
20.328986
 0
LINE
 8
001
 62
3
 10
-93.096955
 20
20.328986
 11
-91.096955
 21
20.328986
 0
LINE
 8
001
 62
3
 10
-138.500000
 20
90.000000
 11
-138.500000
 21
-90.000000
 0
LINE
 8
001
 62
3
 10
138.500000
 20
-90.000000
 11
138.500000
 21
90.000000
 0
LINE
 8
001
 62
3
 10
-138.500000
 20
90.000000
 11
138.500000
 21
90.000000
 0
TEXT
 8
001
 62
3
 10
36.212658
 20
-56.183523
 40
1.993800
 1
CONPONENTS
 41
0.533160
 7
STANDARD
 0
TEXT
 8
001
 62
3
 10
36.410462
 20
-73.882149
 40
2.990700
 1
材
 41
0.833333
 7
STANDARD
 0
TEXT
 8
001
 62
3
 10
43.922744
 20
-73.882149
 40
2.990700
 1
質
 41
0.833333
 7
STANDARD
 0
TEXT
 8
001
 62
3
 10
36.623162
 20
-63.204690
 40
1.993800
 1
MODEL
 41
1.031073
 7
STANDARD
 0
TEXT
 8
001
 62
3
 10
36.410462
 20
-70.211256
 40
1.993800
 1
MATERIAL
 41
0.659278
 7
STANDARD
 0
TEXT
 8
001
 62
3
 10
67.688124
 20
-74.118762
 40
2.990700
 1
備
 41
0.833333
 7
STANDARD
 0
TEXT
 8
001
 62
3
 10
74.400254
 20
-74.118762
 40
2.990700
 1
考
 41
0.833333
 7
STANDARD
 0
TEXT
 8
001
 62
3
 10
67.441881
 20
-70.447869
 40
1.993800
 1
REMARKS
 41
0.675794
 7
STANDARD
 0
TEXT
 8
001
 62
3
 10
67.954342
 20
-77.320377
 40
1.993800
 1
SCALE
 41
0.771963
 7
STANDARD
 0
TEXT
 8
001
 62
3
 10
67.817971
 20
-80.809527
 40
2.990700
 1
尺
 41
0.833333
 7
STANDARD
 0
TEXT
 8
001
 62
3
 10
74.530101
 20
-80.809527
 40
2.990700
 1
度
 41
0.833333
 7
STANDARD
 0
TEXT
 8
001
 62
3
 10
92.861478
 20
-59.797943
 40
2.990700
 1
承認
 41
1.089473
 7
STANDARD
 0
TEXT
 8
001
 62
3
 10
105.181184
 20
-59.644720
 40
2.990700
 1
検図
 41
0.931761
 7
STANDARD
 0
TEXT
 8
001
 62
3
 10
117.181094
 20
-59.562753
 40
2.990700
 1
設
 41
0.833333
 7
STANDARD
 0
TEXT
 8
001
 62
3
 10
121.657044
 20
-59.562753
 40
2.990700
 1
計
 41
0.833333
 7
STANDARD
 0
TEXT
 8
001
 62
3
 10
36.623162
 20
-67.054592
 40
2.990700
 1
品
 41
0.833333
 7
STANDARD
 0
TEXT
 8
001
 62
3
 10
44.147854
 20
-67.054592
 40
2.990700
 1
番
 41
0.833333
 7
STANDARD
 0
LINE
 8
001
 62
3
 10
91.623068
 20
-90.000000
 11
-138.500000
 21
-90.000000
 0
LINE
 8
001
 62
3
 10
137.098365
 20
-90.000000
 11
138.500000
 21
-90.000000
 0
LINE
 8
001
 62
3
 10
134.908352
 20
-90.000000
 11
137.098365
 21
-90.000000
 0
LINE
 8
001
 62
3
 10
93.569746
 20
-90.000000
 11
134.908352
 21
-90.000000
 0
LINE
 8
001
 62
3
 10
93.569746
 20
-90.000000
 11
91.623068
 21
-90.000000
 0
LINE
 8
001
 10
64.939120
 20
85.551921
 11
64.939120
 21
70.701921
 0
LINE
 8
001
 10
128.500280
 20
75.651921
 11
54.833686
 21
75.651921
 0
LINE
 8
001
 10
136.748813
 20
75.651921
 11
128.500280
 21
75.651921
 0
LINE
 8
001
 10
136.748813
 20
75.651921
 11
138.433686
 21
75.651921
 0
LINE
 8
001
 10
126.836161
 20
85.551921
 11
126.836161
 21
70.701921
 0
LINE
 8
001
 10
82.544446
 20
85.551921
 11
82.544446
 21
70.701921
 0
LINE
 8
001
 10
54.833686
 20
80.601921
 11
138.433686
 21
80.601921
 0
LINE
 8
001
 62
3
 10
138.399964
 20
-47.097992
 11
86.700600
 21
-47.097992
 0
LINE
 8
001
 62
3
 10
112.700600
 20
-53.097992
 11
112.700600
 21
-47.097992
 0
LINE
 8
001
 62
3
 10
86.700600
 20
-53.097992
 11
86.700600
 21
-47.097992
 0
TEXT
 8
001
 62
3
 10
87.850114
 20
-52.541906
 40
4.500000
 1
コード
 41
0.833333
 7
STANDARD
 0
TEXT
 8
001
 10
114.093391
 20
-52.599635
 40
4.500000
 1
29638
 41
1.000000
 7
STANDARD
 0
TEXT
 8
001
 62
3
 10
50.284461
 20
-74.032892
 40
3.200000
 1
PA6
 41
1.000000
 7
STANDARD
 0
ENDSEC
 0
EOF
