 0
SECTION
 2
HEADER
 9
$ACADVER
 1
AC1003
 9
$EXTMIN
 10
-312.024841
 20
-765.129761
 9
$EXTMAX
 10
-35.024826
 20
-574.129761
 9
$LIMMIN
 10
-312.025841
 20
-765.130761
 9
$LIMMAX
 10
-35.023826
 20
-574.128761
 9
$SNAPUNIT
 10
1
 20
1
 9
$SNAPBASE
 10
0
 20
0
 9
$GRIDMODE
 70
0
 9
$GRIDUNIT
 10
0
 20
0
 9
$LTSCALE
 40
4.616667
 9
$TEXTSIZE
 40
3.2
 9
$DIMTAD
 70
0
 9
$LUNITS
 70
2
 9
$LUPREC
 70
4
 9
$FILLETRAD
 40
0
 9
$AUNITS
 70
0
 9
$AUPREC
 70
0
 0
ENDSEC
 0
SECTION
 2
TABLES
 0
TABLE
 2
LTYPE
 70
25
  0
LTYPE
  2
CONTINUOUS
 70
    64
  3
Solid-line
 72
    65
 73
     0
 40
0.0
  0
LTYPE
  2
BORDER
 70
    64
  3
BORDER
 72
    65
 73
     6
 40
1.75
 49
0.5
 49
-0.25
 49
0.5
 49
-0.25
 49
0.0
 49
-0.25
  0
LTYPE
  2
BORDER2
 70
    64
  3
BORDER2
 72
    65
 73
     6
 40
0.875
 49
0.25
 49
-0.125
 49
0.25
 49
-0.125
 49
0.0
 49
-0.125
  0
LTYPE
  2
BORDERX2
 70
    64
  3
BORDERX2
 72
    65
 73
     6
 40
3.5
 49
1.0
 49
-0.5
 49
1.0
 49
-0.5
 49
0.0
 49
-0.5
  0
LTYPE
  2
CENTER
 70
    64
  3
CENTER
 72
    65
 73
     4
 40
2.0
 49
1.25
 49
-0.25
 49
0.25
 49
-0.25
  0
LTYPE
  2
CENTER2
 70
    64
  3
CENTER2
 72
    65
 73
     4
 40
1.125
 49
0.75
 49
-0.125
 49
0.125
 49
-0.125
  0
LTYPE
  2
CENTERX2
 70
    64
  3
CENTERX2
 72
    65
 73
     4
 40
4.0
 49
2.5
 49
-0.5
 49
0.5
 49
-0.5
  0
LTYPE
  2
DASHDOT
 70
    64
  3
DASHDOT
 72
    65
 73
     4
 40
1.0
 49
0.5
 49
-0.25
 49
0.0
 49
-0.25
  0
LTYPE
  2
DASHDOT2
 70
    64
  3
DASHDOT2
 72
    65
 73
     4
 40
0.5
 49
0.25
 49
-0.125
 49
0.0
 49
-0.125
  0
LTYPE
  2
DASHDOTX2
 70
    64
  3
DASHDOTX2
 72
    65
 73
     4
 40
2.0
 49
1.0
 49
-0.5
 49
0.0
 49
-0.5
  0
LTYPE
  2
DASHED
 70
    64
  3
DASHED
 72
    65
 73
     2
 40
0.75
 49
0.5
 49
-0.25
  0
LTYPE
  2
DASHED2
 70
    64
  3
DASHED2
 72
    65
 73
     2
 40
0.375
 49
0.25
 49
-0.125
  0
LTYPE
  2
DASHEDX2
 70
    64
  3
DASHEDX2
 72
    65
 73
     2
 40
1.5
 49
1.0
 49
-0.5
  0
LTYPE
  2
DIVIDE
 70
    64
  3
DIVIDE
 72
    65
 73
     6
 40
1.25
 49
0.5
 49
-0.25
 49
0.0
 49
-0.25
 49
0.0
 49
-0.25
  0
LTYPE
  2
DIVIDE2
 70
    64
  3
DIVIDE2
 72
    65
 73
     6
 40
0.625
 49
0.25
 49
-0.125
 49
0.0
 49
-0.125
 49
0.0
 49
-0.125
  0
LTYPE
  2
DIVIDEX2
 70
    64
  3
DIVIDEX2
 72
    65
 73
     6
 40
2.5
 49
1.0
 49
-0.5
 49
0.0
 49
-0.5
 49
0.0
 49
-0.5
  0
LTYPE
  2
DOT
 70
    64
  3
DOT
 72
    65
 73
     2
 40
0.25
 49
0.0
 49
-0.25
  0
LTYPE
  2
DOT2
 70
    64
  3
DOT2
 72
    65
 73
     2
 40
0.125
 49
0.0
 49
-0.125
  0
LTYPE
  2
DOTX2
 70
    64
  3
DOTX2
 72
    65
 73
     2
 40
0.5
 49
0.0
 49
-0.5
  0
LTYPE
  2
HIDDEN
 70
    64
  3
HIDDEN
 72
    65
 73
     2
 40
0.375
 49
0.25
 49
-0.125
  0
LTYPE
  2
HIDDEN2
 70
    64
  3
HIDDEN2
 72
    65
 73
     2
 40
0.1875
 49
0.125
 49
-0.0625
  0
LTYPE
  2
HIDDENX2
 70
    64
  3
HIDDENX2
 72
    65
 73
     2
 40
0.75
 49
0.5
 49
-0.25
  0
LTYPE
  2
PHANTOM
 70
    64
  3
PHANTOM
 72
    65
 73
     6
 40
2.5
 49
1.25
 49
-0.25
 49
0.25
 49
-0.25
 49
0.25
 49
-0.25
  0
LTYPE
  2
PHANTOM2
 70
    64
  3
PHANTOM2
 72
    65
 73
     6
 40
1.25
 49
0.625
 49
-0.125
 49
0.125
 49
-0.125
 49
0.125
 49
-0.125
  0
LTYPE
  2
PHANTOMX2
 70
    64
  3
PHANTOMX2
 72
    65
 73
     6
 40
5.0
 49
2.5
 49
-0.5
 49
0.5
 49
-0.5
 49
0.5
 49
-0.5
 0
ENDTAB
 0
TABLE
 2
LAYER
 70
1
 0
LAYER
 2
001
 70
0
 62
7
 6
CONTINUOUS
 0
ENDTAB
 0
TABLE
 2
STYLE
 70
2
 0
STYLE
 2
STANDARD
 70
0
 40
0
 41
1
 50
0
 71
0
 42
.2
 3
TXT
 4
BIGFONT
 0
STYLE
 2
TATEGAKI
 70
4
 40
1
 41
1
 50
0
 71
0
 42
.2
 3
TXT
 4
BIGFONT
 0
ENDTAB
 0
ENDSEC
 0
SECTION
 2
BLOCKS
 0
BLOCK
 8
0
 2
ARROW
 70
0
 10
0
 20
0
 0
POLYLINE
 8
0
 6
CONTINUOUS
 62
0
 66
1
 0
VERTEX
 8
0
 6
CONTINUOUS
 62
0
 10
2.000000
 20
0.535898
 0
VERTEX
 8
0
 6
CONTINUOUS
 62
0
 10
0.0
 20
0.0
 0
VERTEX
 8
0
 6
CONTINUOUS
 62
0
 10
2.000000
 20
-0.535898
 0
SEQEND
 8
0
 0
ENDBLK
 8
0
 0
BLOCK
 8
001
 2
*D0
 70
1
 10
0.0
 20
0.0
 0
LINE
 8
001
 10
-262.782376
 20
-709.406929
 11
-275.408531
 21
-709.406929
 0
LINE
 8
001
 10
-264.681811
 20
-722.406929
 11
-275.408531
 21
-722.406929
 0
LINE
 8
001
 10
-274.408531
 20
-709.406929
 11
-274.408531
 21
-722.406929
 0
INSERT
 8
001
 62
7
 2
ARROW
 6
BYBLOCK
 10
-274.408531
 20
-709.406929
 41
1.000000
 42
1.000000
 50
270.000000
 0
INSERT
 8
001
 62
7
 2
ARROW
 6
BYBLOCK
 10
-274.408531
 20
-722.406929
 41
1.000000
 42
1.000000
 50
90.000000
 0
TEXT
 8
001
 10
-275.408530
 20
-718.673001
 40
3.200000
 1
13
 50
90.000003
 41
1.031250
 7
STANDARD
 0
POINT
 8
001
 10
-261.782376
 20
-709.406929
 0
POINT
 8
001
 10
-263.681811
 20
-722.406929
 0
POINT
 8
001
 10
-274.408531
 20
-722.406929
 0
ENDBLK
 8
001
 0
BLOCK
 8
001
 2
*D1
 70
1
 10
0.0
 20
0.0
 0
LINE
 8
001
 10
-162.885339
 20
-700.110649
 11
-95.662512
 21
-700.110649
 0
LINE
 8
001
 10
-164.885339
 20
-624.500956
 11
-95.662512
 21
-624.500956
 0
LINE
 8
001
 10
-96.662512
 20
-700.110649
 11
-96.662512
 21
-624.500956
 0
INSERT
 8
001
 62
7
 2
ARROW
 6
BYBLOCK
 10
-96.662512
 20
-700.110649
 41
1.000000
 42
1.000000
 50
90.000000
 0
INSERT
 8
001
 62
7
 2
ARROW
 6
BYBLOCK
 10
-96.662512
 20
-624.500956
 41
1.000000
 42
1.000000
 50
270.000000
 0
TEXT
 8
001
 10
-97.662512
 20
-662.993980
 40
3.200000
 1
75
 50
90.000003
 41
0.859375
 7
STANDARD
 0
POINT
 8
001
 10
-163.885339
 20
-700.110649
 0
POINT
 8
001
 10
-165.885339
 20
-624.500956
 0
POINT
 8
001
 10
-96.662512
 20
-624.500956
 0
ENDBLK
 8
001
 0
BLOCK
 8
001
 2
*D2
 70
1
 10
0.0
 20
0.0
 0
LINE
 8
001
 10
-262.181811
 20
-633.555409
 11
-262.181811
 21
-615.063359
 0
LINE
 8
001
 10
-254.181811
 20
-633.013914
 11
-254.181811
 21
-615.063359
 0
LINE
 8
001
 10
-262.181811
 20
-616.063359
 11
-254.181811
 21
-616.063359
 0
INSERT
 8
001
 62
7
 2
ARROW
 6
BYBLOCK
 10
-262.181811
 20
-616.063359
 41
1.000000
 42
1.000000
 0
INSERT
 8
001
 62
7
 2
ARROW
 6
BYBLOCK
 10
-254.181811
 20
-616.063359
 41
1.000000
 42
1.000000
 50
180.000000
 0
TEXT
 8
001
 10
-261.032270
 20
-615.063359
 40
3.200000
 1
12
 41
1.031250
 7
STANDARD
 0
POINT
 8
001
 10
-262.181811
 20
-634.555409
 0
POINT
 8
001
 10
-254.181811
 20
-634.013914
 0
POINT
 8
001
 10
-254.181811
 20
-616.063359
 0
ENDBLK
 8
001
 0
BLOCK
 8
001
 2
*D3
 70
1
 10
0.0
 20
0.0
 0
LINE
 8
001
 10
-251.681811
 20
-722.406929
 11
-238.351236
 21
-722.406929
 0
LINE
 8
001
 10
-257.181811
 20
-624.055409
 11
-238.351236
 21
-624.055409
 0
LINE
 8
001
 10
-239.351236
 20
-722.406929
 11
-239.351236
 21
-624.055409
 0
INSERT
 8
001
 62
7
 2
ARROW
 6
BYBLOCK
 10
-239.351236
 20
-722.406929
 41
1.000000
 42
1.000000
 50
90.000000
 0
INSERT
 8
001
 62
7
 2
ARROW
 6
BYBLOCK
 10
-239.351236
 20
-624.055409
 41
1.000000
 42
1.000000
 50
270.000000
 0
TEXT
 8
001
 10
-240.351236
 20
-677.356169
 40
3.200000
 1
100
 50
90.000003
 41
1.104911
 7
STANDARD
 0
POINT
 8
001
 10
-252.681811
 20
-722.406929
 0
POINT
 8
001
 10
-258.181811
 20
-624.055409
 0
POINT
 8
001
 10
-239.351236
 20
-624.055409
 0
ENDBLK
 8
001
 0
BLOCK
 8
001
 2
*D4
 70
1
 10
0.0
 20
0.0
 0
LINE
 8
001
 10
-173.385339
 20
-721.378672
 11
-173.385339
 21
-734.381729
 0
LINE
 8
001
 10
-158.385339
 20
-721.378672
 11
-158.385339
 21
-734.381729
 0
LINE
 8
001
 10
-173.385339
 20
-733.381729
 11
-158.385339
 21
-733.381729
 0
INSERT
 8
001
 62
7
 2
ARROW
 6
BYBLOCK
 10
-173.385339
 20
-733.381729
 41
1.000000
 42
1.000000
 0
INSERT
 8
001
 62
7
 2
ARROW
 6
BYBLOCK
 10
-158.385339
 20
-733.381729
 41
1.000000
 42
1.000000
 50
180.000000
 0
TEXT
 8
001
 10
-170.010339
 20
-732.381729
 40
3.200000
 1
%%c15
 41
0.966797
 7
STANDARD
 0
POINT
 8
001
 10
-173.385339
 20
-720.378672
 0
POINT
 8
001
 10
-158.385339
 20
-720.378672
 0
POINT
 8
001
 10
-158.385339
 20
-733.381729
 0
ENDBLK
 8
001
 0
BLOCK
 8
001
 2
*D5
 70
1
 10
0.0
 20
0.0
 0
LINE
 8
001
 10
-224.179008
 20
-652.761767
 11
-224.179008
 21
-608.634481
 0
LINE
 8
001
 10
-108.885339
 20
-654.392497
 11
-108.885339
 21
-608.634481
 0
LINE
 8
001
 10
-224.179008
 20
-609.634481
 11
-108.885339
 21
-609.634481
 0
INSERT
 8
001
 62
7
 2
ARROW
 6
BYBLOCK
 10
-224.179008
 20
-609.634481
 41
1.000000
 42
1.000000
 0
INSERT
 8
001
 62
7
 2
ARROW
 6
BYBLOCK
 10
-108.885339
 20
-609.634481
 41
1.000000
 42
1.000000
 50
180.000000
 0
TEXT
 8
001
 10
-170.713963
 20
-608.634481
 40
3.200000
 1
114
 41
1.104910
 7
STANDARD
 0
POINT
 8
001
 10
-224.179008
 20
-653.761767
 0
POINT
 8
001
 10
-108.885339
 20
-655.392497
 0
POINT
 8
001
 10
-108.885339
 20
-609.634481
 0
ENDBLK
 8
001
 0
BLOCK
 8
001
 2
*D6
 70
1
 10
0.0
 20
0.0
 0
LINE
 8
001
 10
-212.123155
 20
-653.965533
 11
-212.123155
 21
-615.223558
 0
LINE
 8
001
 10
-120.892353
 20
-653.965533
 11
-120.892353
 21
-615.223558
 0
LINE
 8
001
 10
-212.123155
 20
-616.223558
 11
-120.892353
 21
-616.223558
 0
INSERT
 8
001
 62
7
 2
ARROW
 6
BYBLOCK
 10
-212.123155
 20
-616.223558
 41
1.000000
 42
1.000000
 0
INSERT
 8
001
 62
7
 2
ARROW
 6
BYBLOCK
 10
-120.892353
 20
-616.223558
 41
1.000000
 42
1.000000
 50
180.000000
 0
TEXT
 8
001
 10
-168.992170
 20
-615.223558
 40
3.200000
 1
90
 41
0.937500
 7
STANDARD
 0
POINT
 8
001
 10
-212.123155
 20
-654.965533
 0
POINT
 8
001
 10
-120.892353
 20
-654.965533
 0
POINT
 8
001
 10
-120.892353
 20
-616.223558
 0
ENDBLK
 8
001
 0
BLOCK
 8
001
 2
*D7
 70
1
 10
0.0
 20
0.0
 0
LINE
 8
001
 10
-252.982283
 20
-746.997607
 11
-238.250042
 21
-746.997607
 0
LINE
 8
001
 10
-252.982283
 20
-741.797607
 11
-238.250042
 21
-741.797607
 0
LINE
 8
001
 10
-239.250042
 20
-746.997607
 11
-239.250042
 21
-741.797607
 0
INSERT
 8
001
 62
7
 2
ARROW
 6
BYBLOCK
 10
-239.250042
 20
-746.997607
 41
1.000000
 42
1.000000
 50
270.000000
 0
INSERT
 8
001
 62
7
 2
ARROW
 6
BYBLOCK
 10
-239.250042
 20
-741.797607
 41
1.000000
 42
1.000000
 50
90.000000
 0
TEXT
 8
001
 10
-240.250042
 20
-738.956434
 40
3.200000
 1
5.2
 50
90.000003
 41
1.104911
 7
STANDARD
 0
POINT
 8
001
 10
-253.982283
 20
-746.997607
 0
POINT
 8
001
 10
-253.982283
 20
-741.797607
 0
POINT
 8
001
 10
-239.250042
 20
-741.797607
 0
LINE
 8
001
 10
-239.250042
 20
-746.997607
 11
-239.250042
 21
-749.997607
 0
LINE
 8
001
 10
-239.250042
 20
-741.797607
 11
-239.250042
 21
-730.706434
 0
ENDBLK
 8
001
 0
ENDSEC
 0
SECTION
 2
ENTITIES
 0
DIMENSION
 8
001
 2
*D0
 10
-274.408531
 20
-722.406929
 11
-275.408530
 21
-718.673001
 13
-261.782376
 23
-709.406929
 14
-263.681811
 24
-722.406929
 50
270.000000
 0
DIMENSION
 8
001
 2
*D1
 10
-96.662512
 20
-624.500956
 11
-97.662512
 21
-662.993980
 13
-163.885339
 23
-700.110649
 14
-165.885339
 24
-624.500956
 50
90.000000
 0
DIMENSION
 8
001
 2
*D2
 10
-254.181811
 20
-616.063359
 11
-261.032270
 21
-615.063359
 13
-262.181811
 23
-634.555409
 14
-254.181811
 24
-634.013914
 0
DIMENSION
 8
001
 2
*D3
 10
-239.351236
 20
-624.055409
 11
-240.351236
 21
-677.356169
 13
-252.681811
 23
-722.406929
 14
-258.181811
 24
-624.055409
 50
90.000000
 0
DIMENSION
 8
001
 2
*D4
 10
-158.385339
 20
-733.381729
 11
-170.010339
 21
-732.381729
 13
-173.385339
 23
-720.378672
 14
-158.385339
 24
-720.378672
 0
DIMENSION
 8
001
 2
*D5
 10
-108.885339
 20
-609.634481
 11
-170.713963
 21
-608.634481
 13
-224.179008
 23
-653.761767
 14
-108.885339
 24
-655.392497
 0
DIMENSION
 8
001
 2
*D6
 10
-120.892353
 20
-616.223558
 11
-168.992170
 21
-615.223558
 13
-212.123155
 23
-654.965533
 14
-120.892353
 24
-654.965533
 0
DIMENSION
 8
001
 2
*D7
 10
-239.250042
 20
-741.797607
 11
-240.250042
 21
-738.956434
 13
-253.982283
 23
-746.997607
 14
-253.982283
 24
-741.797607
 50
90.000000
 0
TEXT
 8
001
 62
3
 10
-81.528005
 20
-731.191927
 40
1.993800
 1
A
 41
0.700000
 7
STANDARD
 0
TEXT
 8
001
 62
3
 10
-79.000578
 20
-731.191927
 40
1.993800
 1
P
 41
0.700000
 7
STANDARD
 0
TEXT
 8
001
 62
3
 10
-76.473151
 20
-731.191927
 40
1.993800
 1
P
 41
0.700000
 7
STANDARD
 0
TEXT
 8
001
 62
3
 10
-73.945724
 20
-731.191927
 40
1.993800
 1
D
 41
0.700000
 7
STANDARD
 0
TEXT
 8
001
 62
3
 10
-69.475806
 20
-730.981154
 40
1.993800
 1
C
 41
0.700000
 7
STANDARD
 0
TEXT
 8
001
 62
3
 10
-66.948379
 20
-730.981154
 40
1.993800
 1
H
 41
0.700000
 7
STANDARD
 0
TEXT
 8
001
 62
3
 10
-64.420952
 20
-730.981154
 40
1.993800
 1
C
 41
0.700000
 7
STANDARD
 0
TEXT
 8
001
 62
3
 10
-61.893525
 20
-730.981154
 40
1.993800
 1
K
 41
0.700000
 7
STANDARD
 0
TEXT
 8
001
 62
3
 10
-57.197334
 20
-730.899187
 40
1.993800
 1
DESN
 41
1.216762
 7
STANDARD
 0
TEXT
 8
001
 62
3
 10
-82.378570
 20
-754.651748
 40
3.190080
 1
作成日
 41
1.017226
 7
STANDARD
 0
LINE
 8
001
 62
3
 10
-47.013094
 20
-749.162646
 11
-47.013094
 21
-728.227746
 0
TEXT
 8
001
 62
3
 10
-44.653302
 20
-730.813635
 40
1.794420
 1
D
 41
0.666667
 7
STANDARD
 0
TEXT
 8
001
 62
3
 10
-41.845406
 20
-730.813635
 40
1.794420
 1
E
 41
0.666667
 7
STANDARD
 0
TEXT
 8
001
 62
3
 10
-39.037509
 20
-730.813635
 40
1.794420
 1
F
 41
0.666667
 7
STANDARD
 0
TEXT
 8
001
 62
3
 10
-44.653302
 20
-734.793811
 40
3.190080
 1
製図
 41
1.076369
 7
STANDARD
 0
TEXT
 8
001
 62
3
 10
-136.949318
 20
-735.211108
 40
3.190080
 1
部品名
 41
0.959524
 7
STANDARD
 0
TEXT
 8
001
 62
3
 10
-137.491675
 20
-752.191219
 40
2.591940
 1
１
 41
0.884615
 7
STANDARD
 0
TEXT
 8
001
 62
3
 10
-133.132458
 20
-752.191219
 40
2.591940
 1
台
 41
0.884615
 7
STANDARD
 0
TEXT
 8
001
 62
3
 10
-128.773241
 20
-752.191219
 40
2.591940
 1
分
 41
0.884615
 7
STANDARD
 0
TEXT
 8
001
 62
3
 10
-137.491675
 20
-755.680369
 40
2.591940
 1
個
 41
0.884615
 7
STANDARD
 0
TEXT
 8
001
 62
3
 10
-128.773241
 20
-755.680369
 40
2.591940
 1
数
 41
0.884615
 7
STANDARD
 0
TEXT
 8
001
 62
3
 10
-134.632844
 20
-764.908947
 40
4.386360
 1
日動工業株式会社
 41
0.833333
 7
STANDARD
 0
TEXT
 8
001
 62
3
 10
-136.145498
 20
-759.733166
 40
2.591940
 1
NICHIDO IND.CO.,LTD
 41
0.949051
 7
STANDARD
 0
TEXT
 8
001
 62
3
 10
-114.230096
 20
-752.943805
 40
2.591940
 1
3AD
 41
1.013213
 7
STANDARD
 0
TEXT
 8
001
 62
3
 10
-114.230096
 20
-755.764784
 40
2.591940
 1
三角法
 41
0.844344
 7
STANDARD
 0
TEXT
 8
001
 62
3
 10
-95.362616
 20
-760.114430
 40
2.880000
 1
出図コード
 41
0.699326
 7
STANDARD
 0
TEXT
 8
001
 62
3
 10
-95.362616
 20
-764.182550
 40
2.880000
 1
HM-A4
 41
0.839192
 7
STANDARD
 0
LINE
 8
001
 62
3
 10
-173.524826
 20
-575.129754
 11
-173.524826
 21
-574.129754
 0
LINE
 8
001
 62
3
 10
-118.691140
 20
-589.577833
 11
-35.091140
 21
-589.577833
 0
TEXT
 8
001
 62
3
 10
-45.816140
 20
-593.722833
 40
3.040000
 1
担
 41
0.859375
 7
STANDARD
 0
TEXT
 8
001
 62
3
 10
-38.928640
 20
-593.722833
 40
3.040000
 1
当
 41
0.859375
 7
STANDARD
 0
TEXT
 8
001
 62
3
 10
-86.011917
 20
-593.739995
 40
3.040000
 1
変更・追記内容
 41
1.182726
 7
STANDARD
 0
LINE
 8
001
 62
3
 10
-118.691140
 20
-585.072444
 11
-118.691140
 21
-604.427833
 0
TEXT
 8
001
 62
3
 10
-114.918436
 20
-598.677009
 40
2.432000
 1
1
 41
1.499999
 7
STANDARD
 0
TEXT
 8
001
 62
3
 10
-114.918436
 20
-603.833220
 40
2.432000
 1
2
 41
1.000000
 7
STANDARD
 0
TEXT
 8
001
 62
3
 10
-105.732191
 20
-593.163468
 40
3.200000
 1
日
 41
0.859375
 7
STANDARD
 0
TEXT
 8
001
 62
3
 10
-96.855317
 20
-593.163468
 40
3.200000
 1
付
 41
0.859375
 7
STANDARD
 0
TEXT
 8
001
 62
3
 10
-105.906350
 20
-588.927833
 40
3.200000
 1
図
 41
0.859375
 7
STANDARD
 0
TEXT
 8
001
 62
3
 10
-87.250454
 20
-588.927833
 40
3.200000
 1
面
 41
0.859375
 7
STANDARD
 0
TEXT
 8
001
 62
3
 10
-68.594559
 20
-588.927833
 40
3.200000
 1
略
 41
0.859375
 7
STANDARD
 0
TEXT
 8
001
 62
3
 10
-49.938664
 20
-588.927833
 40
3.200000
 1
歴
 41
0.859375
 7
STANDARD
 0
TEXT
 8
001
 62
3
 10
-118.088776
 20
-593.802833
 40
3.200000
 1
記
 41
0.859375
 7
STANDARD
 0
TEXT
 8
001
 62
3
 10
-111.835868
 20
-593.802833
 40
3.200000
 1
号
 41
0.859375
 7
STANDARD
 0
LINE
 8
001
 62
3
 10
-44.689784
 20
-604.427833
 11
-118.691140
 21
-604.427833
 0
LINE
 8
001
 62
3
 10
-36.539449
 20
-604.427833
 11
-44.689784
 21
-604.427833
 0
LINE
 8
001
 62
3
 10
-36.539449
 20
-604.427833
 11
-35.091140
 21
-604.427833
 0
LINE
 8
001
 62
3
 10
-59.013094
 20
-749.162646
 11
-59.013094
 21
-728.227746
 0
LINE
 8
001
 62
3
 10
-71.013094
 20
-749.162646
 11
-71.013094
 21
-728.227746
 0
LINE
 8
001
 62
3
 10
-83.013094
 20
-749.162646
 11
-83.013094
 21
-728.227746
 0
LINE
 8
001
 62
3
 10
-71.013094
 20
-749.162646
 11
-71.013094
 21
-756.140946
 0
LINE
 8
001
 62
3
 10
-83.013094
 20
-749.162646
 11
-83.013094
 21
-756.140946
 0
LINE
 8
001
 62
3
 10
-83.013094
 20
-756.140946
 11
-83.013094
 21
-765.129754
 0
LINE
 8
001
 62
3
 10
-95.828114
 20
-760.661079
 11
-83.013094
 21
-760.661079
 0
LINE
 8
001
 62
3
 10
-95.828114
 20
-742.184346
 11
-95.828114
 21
-765.129754
 0
LINE
 8
001
 62
3
 10
-106.538474
 20
-742.184346
 11
-106.538474
 21
-756.140946
 0
LINE
 8
001
 62
3
 10
-114.516599
 20
-749.162646
 11
-114.516599
 21
-756.140946
 0
LINE
 8
001
 62
3
 10
-138.109251
 20
-728.227746
 11
-138.109251
 21
-765.129754
 0
LINE
 8
001
 62
3
 10
-125.908561
 20
-728.227746
 11
-125.908561
 21
-756.140946
 0
LINE
 8
001
 62
3
 10
-138.109251
 20
-728.227746
 11
-35.024826
 21
-728.227746
 0
LINE
 8
001
 62
3
 10
-38.005308
 20
-756.140946
 11
-67.794004
 21
-756.140946
 0
LINE
 8
001
 62
3
 10
-38.005308
 20
-756.140946
 11
-35.024826
 21
-756.140946
 0
LINE
 8
001
 62
3
 10
-85.183948
 20
-756.140946
 11
-93.270583
 21
-756.140946
 0
LINE
 8
001
 62
3
 10
-85.183948
 20
-756.140946
 11
-67.794004
 21
-756.140946
 0
LINE
 8
001
 62
3
 10
-123.540290
 20
-756.140946
 11
-138.109251
 21
-756.140946
 0
LINE
 8
001
 62
3
 10
-115.334817
 20
-756.140946
 11
-123.540290
 21
-756.140946
 0
LINE
 8
001
 62
3
 10
-115.334817
 20
-756.140946
 11
-93.270583
 21
-756.140946
 0
LINE
 8
001
 62
3
 10
-123.240365
 20
-749.162646
 11
-138.109251
 21
-749.162646
 0
LINE
 8
001
 62
3
 10
-108.464855
 20
-749.162646
 11
-123.240365
 21
-749.162646
 0
LINE
 8
001
 62
3
 10
-108.464855
 20
-749.162646
 11
-35.024826
 21
-749.162646
 0
LINE
 8
001
 62
3
 10
-120.077014
 20
-742.184346
 11
-138.109251
 21
-742.184346
 0
LINE
 8
001
 62
3
 10
-88.828310
 20
-742.184346
 11
-83.013094
 21
-742.184346
 0
LINE
 8
001
 62
3
 10
-93.938339
 20
-742.184346
 11
-88.828310
 21
-742.184346
 0
LINE
 8
001
 62
3
 10
-115.945983
 20
-742.184346
 11
-93.938339
 21
-742.184346
 0
LINE
 8
001
 62
3
 10
-115.945983
 20
-742.184346
 11
-120.077014
 21
-742.184346
 0
LINE
 8
001
 62
3
 10
-124.513629
 20
-735.206046
 11
-138.109251
 21
-735.206046
 0
LINE
 8
001
 62
3
 10
-84.272857
 20
-735.206046
 11
-35.024826
 21
-735.206046
 0
LINE
 8
001
 62
3
 10
-88.222802
 20
-735.206046
 11
-84.272857
 21
-735.206046
 0
LINE
 8
001
 62
3
 10
-121.169191
 20
-735.206046
 11
-124.513629
 21
-735.206046
 0
LINE
 8
001
 62
3
 10
-117.705915
 20
-735.206046
 11
-121.169191
 21
-735.206046
 0
LINE
 8
001
 62
3
 10
-90.774987
 20
-735.206046
 11
-117.705915
 21
-735.206046
 0
LINE
 8
001
 62
3
 10
-90.774987
 20
-735.206046
 11
-88.222802
 21
-735.206046
 0
LINE
 8
001
 10
-113.873436
 20
-595.267078
 11
-115.773436
 21
-598.557975
 0
LINE
 8
001
 10
-113.873436
 20
-595.267078
 11
-111.973436
 21
-598.557975
 0
LINE
 8
001
 10
-115.773436
 20
-598.557975
 11
-111.973436
 21
-598.557975
 0
LINE
 8
001
 10
-113.873436
 20
-600.423289
 11
-115.773436
 21
-603.714185
 0
LINE
 8
001
 10
-113.873436
 20
-600.423289
 11
-111.973436
 21
-603.714185
 0
LINE
 8
001
 10
-115.773436
 20
-603.714185
 11
-111.973436
 21
-603.714185
 0
LINE
 8
001
 62
3
 10
-256.574777
 20
-741.297607
 11
-258.199585
 21
-741.297607
 0
LINE
 8
001
 62
3
 10
-256.574777
 20
-747.497607
 11
-258.199585
 21
-747.497607
 0
LINE
 8
001
 62
3
 10
-253.982283
 20
-741.797607
 11
-255.856510
 21
-741.797607
 0
LINE
 8
001
 62
3
 10
-253.982283
 20
-746.997607
 11
-255.856510
 21
-746.997607
 0
ARC
 8
001
 62
3
 10
-258.199585
 20
-744.397607
 40
3.500000
 50
47.975372
 51
62.339550
 0
ARC
 8
001
 62
3
 10
-258.199585
 20
-744.397607
 40
3.500000
 50
297.660450
 51
312.024628
 0
LINE
 8
001
 62
3
 10
-250.595720
 20
-741.371996
 11
-253.982283
 21
-741.797607
 0
ARC
 8
001
 62
3
 10
-250.626894
 20
-741.123947
 40
0.250000
 50
277.163178
 51
23.378738
 0
CIRCLE
 8
001
 62
3
 10
-258.199585
 20
-744.397607
 40
8.500000
 0
LINE
 8
001
 62
3
 10
-250.595720
 20
-747.423219
 11
-253.982283
 21
-746.997607
 0
ARC
 8
001
 62
3
 10
-250.626894
 20
-747.671267
 40
0.250000
 50
336.621262
 51
82.836822
 0
TEXT
 8
001
 62
3
 10
-93.270583
 20
-756.140946
 40
3.200000
 1
1/1
 41
1.072092
 7
STANDARD
 0
ARC
 8
001
 62
3
 10
-252.681811
 20
-711.406929
 40
2.000000
 50
0.000000
 51
90.000000
 0
ARC
 8
001
 62
3
 10
-263.681811
 20
-711.406929
 40
2.000000
 50
90.000000
 51
180.000000
 0
LINE
 8
001
 62
3
 10
-250.681811
 20
-720.406929
 11
-250.681811
 21
-711.406929
 0
LINE
 8
001
 62
3
 10
-265.681811
 20
-720.406929
 11
-265.681811
 21
-711.406929
 0
ARC
 8
001
 62
3
 10
-252.681811
 20
-720.406929
 40
2.000000
 50
270.000000
 51
0.000000
 0
ARC
 8
001
 62
3
 10
-263.681811
 20
-720.406929
 40
2.000000
 50
180.000000
 51
270.000000
 0
LINE
 8
001
 62
3
 10
-263.681811
 20
-722.406929
 11
-252.681811
 21
-722.406929
 0
LINE
 8
001
 62
3
 10
-254.181811
 20
-703.420753
 11
-258.181811
 21
-703.420753
 0
LINE
 8
001
 62
3
 10
-254.181811
 20
-691.420753
 11
-254.181811
 21
-703.420753
 0
LINE
 8
001
 6
CENTER
 10
-266.723621
 20
-697.420753
 11
-249.068789
 21
-697.420753
 0
LINE
 8
001
 62
3
 10
-261.181811
 20
-625.684874
 11
-261.181811
 21
-624.555409
 0
LINE
 8
001
 62
3
 10
-255.181811
 20
-625.684874
 11
-255.181811
 21
-624.555409
 0
LINE
 8
001
 62
3
 10
-258.681811
 20
-693.420753
 11
-261.181811
 21
-693.420753
 0
LINE
 8
001
 62
3
 10
-258.679902
 20
-701.420753
 11
-261.181811
 21
-701.420753
 0
ARC
 8
001
 62
3
 10
-261.181811
 20
-702.420753
 40
1.000000
 50
90.000000
 51
180.000000
 0
ARC
 8
001
 62
3
 10
-261.181811
 20
-692.420753
 40
1.000000
 50
180.000000
 51
270.000000
 0
LINE
 8
001
 62
3
 10
-261.181811
 20
-693.420753
 11
-261.565652
 21
-693.420753
 0
LINE
 8
001
 62
3
 10
-264.391918
 20
-693.420753
 11
-264.391918
 21
-701.420753
 0
LINE
 8
001
 62
3
 10
-262.405275
 20
-692.920753
 11
-263.199515
 21
-692.920753
 0
LINE
 8
001
 62
3
 10
-262.405275
 20
-692.920753
 11
-261.565652
 21
-693.420753
 0
LINE
 8
001
 62
3
 10
-254.181811
 20
-695.420753
 11
-264.391918
 21
-695.420753
 0
LINE
 8
001
 62
3
 10
-264.391918
 20
-693.420753
 11
-263.199515
 21
-692.920753
 0
LINE
 8
001
 62
3
 10
-264.391918
 20
-701.420753
 11
-263.199515
 21
-701.920753
 0
LINE
 8
001
 62
3
 10
-262.405275
 20
-701.920753
 11
-263.199515
 21
-701.920753
 0
LINE
 8
001
 62
3
 10
-262.405275
 20
-701.920753
 11
-261.565652
 21
-701.420753
 0
LINE
 8
001
 62
3
 10
-261.181811
 20
-701.420753
 11
-261.565652
 21
-701.420753
 0
LINE
 8
001
 62
3
 10
-254.181811
 20
-699.420753
 11
-264.391918
 21
-699.420753
 0
LINE
 8
001
 62
3
 10
-258.181811
 20
-672.416066
 11
-258.181811
 21
-684.116954
 0
LINE
 8
001
 62
3
 10
-253.681811
 20
-709.406929
 11
-252.681811
 21
-709.406929
 0
LINE
 8
001
 62
3
 10
-264.681811
 20
-709.406929
 11
-253.681811
 21
-709.406929
 0
LINE
 8
001
 62
3
 10
-255.681811
 20
-624.055409
 11
-260.681811
 21
-624.055409
 0
LINE
 8
001
 6
CENTER
 10
-258.181811
 20
-621.829158
 11
-258.181811
 21
-665.716066
 0
LINE
 8
001
 62
3
 10
-260.827312
 20
-626.163236
 11
-259.681811
 21
-626.511656
 0
LINE
 8
001
 62
3
 10
-255.536310
 20
-626.163236
 11
-256.681811
 21
-626.511656
 0
LINE
 8
001
 62
3
 10
-254.181811
 20
-633.579248
 11
-254.181811
 21
-633.472418
 0
LINE
 8
001
 62
3
 10
-262.181811
 20
-633.579248
 11
-262.181811
 21
-633.472418
 0
LINE
 8
001
 62
3
 10
-261.771578
 20
-632.980542
 11
-259.681811
 21
-632.599163
 0
LINE
 8
001
 62
3
 10
-254.592044
 20
-632.980542
 11
-256.681811
 21
-632.599163
 0
LINE
 8
001
 62
3
 10
-259.681811
 20
-626.511656
 11
-259.681811
 21
-632.599163
 0
LINE
 8
001
 62
3
 10
-256.681811
 20
-626.511656
 11
-256.681811
 21
-632.599163
 0
ARC
 8
001
 62
3
 10
-260.681811
 20
-624.555409
 40
0.500000
 50
90.000000
 51
180.000000
 0
ARC
 8
001
 62
3
 10
-255.681811
 20
-624.555409
 40
0.500000
 50
0.000000
 51
90.000000
 0
ARC
 8
001
 62
3
 10
-261.681811
 20
-633.472418
 40
0.500000
 50
100.342587
 51
180.000000
 0
ARC
 8
001
 62
3
 10
-254.681811
 20
-633.472418
 40
0.500000
 50
0.000000
 51
79.657413
 0
ARC
 8
001
 62
3
 10
-255.681811
 20
-625.684874
 40
0.500000
 50
286.917903
 51
0.000000
 0
ARC
 8
001
 62
3
 10
-260.681811
 20
-625.684874
 40
0.500000
 50
180.000000
 51
253.082097
 0
LINE
 8
001
 62
3
 10
-261.181811
 20
-625.684874
 11
-261.181811
 21
-632.872911
 0
LINE
 8
001
 62
3
 10
-255.181811
 20
-625.684874
 11
-255.181811
 21
-632.872911
 0
LINE
 8
001
 62
3
 10
-262.181811
 20
-668.416066
 11
-262.181811
 21
-634.555409
 0
LINE
 8
001
 62
3
 10
-254.181811
 20
-634.555409
 11
-254.181811
 21
-670.364289
 0
LINE
 8
001
 62
3
 10
-256.681811
 20
-674.920450
 11
-256.681811
 21
-677.064289
 0
LINE
 8
001
 62
3
 10
-254.181811
 20
-677.064289
 11
-256.681811
 21
-677.064289
 0
LINE
 8
001
 62
3
 10
-254.181811
 20
-677.064289
 11
-254.181811
 21
-684.820753
 0
LINE
 8
001
 62
3
 10
-256.181811
 20
-707.969209
 11
-256.181811
 21
-709.406929
 0
LINE
 8
001
 62
3
 10
-260.181811
 20
-707.969209
 11
-260.181811
 21
-709.406929
 0
LINE
 8
001
 62
3
 10
-254.181811
 20
-670.364289
 11
-254.181811
 21
-677.064289
 0
LINE
 8
001
 62
3
 10
-258.179902
 20
-701.920753
 11
-258.179902
 21
-704.930665
 0
LINE
 8
001
 62
3
 10
-262.181811
 20
-672.800995
 11
-262.181811
 21
-668.416066
 0
LINE
 8
001
 62
3
 10
-262.181811
 20
-683.701975
 11
-262.181811
 21
-685.820753
 0
LINE
 8
001
 6
CENTER
 10
-258.181811
 20
-665.716066
 11
-258.181811
 21
-672.416066
 0
ARC
 8
001
 62
3
 10
-258.181811
 20
-629.055409
 40
6.946222
 50
246.149660
 51
293.850340
 0
ARC
 8
001
 62
3
 10
-260.181811
 20
-633.579248
 40
2.000000
 50
180.000000
 51
246.149660
 0
ARC
 8
001
 62
3
 10
-256.181811
 20
-633.579248
 40
2.000000
 50
293.850340
 51
0.000000
 0
LINE
 8
001
 62
3
 10
-260.181811
 20
-707.969209
 11
-262.181811
 21
-707.969209
 0
LINE
 8
001
 62
3
 10
-262.181811
 20
-702.420753
 11
-262.181811
 21
-707.969209
 0
LINE
 8
001
 62
3
 10
-258.679902
 20
-704.648734
 11
-262.181811
 21
-704.648734
 0
ARC
 8
001
 62
3
 10
-258.681811
 20
-692.920753
 40
0.500000
 50
270.000000
 51
0.000000
 0
ARC
 8
001
 62
3
 10
-258.679902
 20
-701.920753
 40
0.500000
 50
0.000000
 51
90.000000
 0
ARC
 8
001
 62
3
 10
-258.679902
 20
-705.148734
 40
0.500000
 50
0.000000
 51
90.000000
 0
LINE
 8
001
 6
HIDDEN
 62
15
 10
-258.179902
 20
-705.148734
 11
-258.179902
 21
-704.930665
 0
LINE
 8
001
 62
3
 10
-258.916565
 20
-693.410959
 11
-258.181811
 21
-693.410959
 0
LINE
 8
001
 62
3
 10
-258.980384
 20
-701.388376
 11
-258.179902
 21
-701.388376
 0
LINE
 8
001
 62
3
 10
-258.179902
 20
-701.920753
 11
-258.179902
 21
-701.388376
 0
LINE
 8
001
 62
3
 10
-258.181811
 20
-692.920753
 11
-258.181811
 21
-693.410959
 0
LINE
 8
001
 62
3
 10
-256.181811
 20
-707.969209
 11
-258.179902
 21
-707.969209
 0
LINE
 8
001
 62
3
 10
-256.181811
 20
-707.969209
 11
-256.181811
 21
-703.420753
 0
ARC
 8
001
 62
3
 10
-160.385339
 20
-711.378672
 40
2.000000
 50
0.000000
 51
90.000000
 0
ARC
 8
001
 62
3
 10
-171.385339
 20
-711.378672
 40
2.000000
 50
90.000000
 51
180.000000
 0
LINE
 8
001
 62
3
 10
-158.385339
 20
-720.378672
 11
-158.385339
 21
-711.378672
 0
LINE
 8
001
 62
3
 10
-173.385339
 20
-720.378672
 11
-173.385339
 21
-711.378672
 0
LINE
 8
001
 62
3
 10
-160.685339
 20
-713.178672
 11
-171.085339
 21
-713.178672
 0
LINE
 8
001
 62
3
 10
-160.685339
 20
-717.378672
 11
-160.685339
 21
-713.178672
 0
ARC
 8
001
 62
3
 10
-160.385339
 20
-720.378672
 40
2.000000
 50
270.000000
 51
0.000000
 0
ARC
 8
001
 62
3
 10
-171.385339
 20
-720.378672
 40
2.000000
 50
180.000000
 51
270.000000
 0
LINE
 8
001
 62
3
 10
-171.085339
 20
-717.378672
 11
-171.085339
 21
-713.178672
 0
LINE
 8
001
 62
3
 10
-162.785339
 20
-722.378672
 11
-162.785339
 21
-717.378672
 0
LINE
 8
001
 62
3
 10
-168.985339
 20
-722.378672
 11
-168.985339
 21
-717.378672
 0
LINE
 8
001
 62
3
 10
-160.685339
 20
-717.378672
 11
-163.385339
 21
-717.378672
 0
LINE
 8
001
 62
3
 10
-168.385339
 20
-717.378672
 11
-171.085339
 21
-717.378672
 0
LINE
 8
001
 62
3
 10
-163.385339
 20
-717.378672
 11
-168.385339
 21
-717.378672
 0
LINE
 8
001
 62
3
 10
-171.385339
 20
-722.378672
 11
-160.385339
 21
-722.378672
 0
LINE
 8
001
 62
3
 10
-171.385339
 20
-709.378672
 11
-160.385339
 21
-709.378672
 0
ARC
 8
001
 62
3
 10
-158.801220
 20
-633.631965
 40
1.000000
 50
235.265447
 51
262.500000
 0
ARC
 8
001
 62
3
 10
-156.340016
 20
-626.900577
 40
1.000000
 50
239.423633
 51
262.500000
 0
ARC
 8
001
 62
3
 10
-155.683226
 20
-624.969365
 40
1.000000
 50
240.308393
 51
262.500000
 0
ARC
 8
001
 6
HIDDEN
 62
15
 10
-169.057174
 20
-656.424375
 40
26.000000
 50
59.880135
 51
60.308393
 0
LINE
 8
001
 62
3
 10
-173.385339
 20
-704.858469
 11
-173.385339
 21
-711.378672
 0
ARC
 8
001
 62
3
 10
-156.385339
 20
-691.626235
 40
2.000000
 50
112.125358
 51
180.000000
 0
ARC
 8
001
 62
3
 10
-168.598741
 20
-699.297803
 40
7.500000
 50
148.151575
 51
216.692792
 0
LINE
 8
001
 62
3
 10
-157.741042
 20
-690.018445
 11
-161.288924
 21
-679.722631
 0
LINE
 8
001
 62
3
 10
-157.138608
 20
-689.773511
 11
-125.790805
 21
-679.045795
 0
LINE
 8
001
 62
3
 10
-158.381483
 20
-688.159910
 11
-126.392751
 21
-677.137867
 0
LINE
 8
001
 62
3
 10
-160.556583
 20
-681.847855
 11
-128.528953
 21
-670.469271
 0
LINE
 8
001
 62
3
 10
-165.885339
 20
-681.514880
 11
-129.251453
 21
-667.538570
 0
LINE
 8
001
 62
3
 10
-161.164524
 20
-624.933127
 11
-129.346094
 21
-630.808045
 0
LINE
 8
001
 62
3
 10
-161.564376
 20
-626.944294
 11
-129.744416
 21
-632.768334
 0
LINE
 8
001
 62
3
 10
-162.871646
 20
-633.913719
 11
-131.048922
 21
-639.645918
 0
LINE
 8
001
 62
3
 10
-163.289421
 20
-636.614682
 11
-131.474843
 21
-642.617932
 0
ARC
 8
001
 62
3
 10
-133.885339
 20
-655.392497
 40
13.000000
 50
290.882511
 51
79.314219
 0
ARC
 8
001
 62
3
 10
-133.885339
 20
-655.392497
 40
16.000000
 50
289.558802
 51
79.788861
 0
ARC
 8
001
 62
3
 10
-133.885339
 20
-655.392497
 40
23.000000
 50
289.011911
 51
79.627901
 0
ARC
 8
001
 62
3
 10
-133.885339
 20
-655.392497
 40
25.000000
 50
288.891761
 51
79.538790
 0
LINE
 8
001
 62
3
 10
-176.075396
 20
-689.661865
 11
-208.297581
 21
-677.039474
 0
LINE
 8
001
 62
3
 10
-173.687116
 20
-681.355329
 11
-205.187936
 21
-668.590549
 0
LINE
 8
001
 62
3
 10
-165.931705
 20
-682.300248
 11
-204.338289
 21
-665.694152
 0
LINE
 8
001
 62
3
 10
-170.285423
 20
-626.547983
 11
-202.329138
 21
-630.978512
 0
LINE
 8
001
 62
3
 10
-169.283399
 20
-633.567797
 11
-201.325870
 21
-637.906453
 0
LINE
 8
001
 62
3
 10
-168.983836
 20
-636.284412
 11
-201.029991
 21
-640.894216
 0
ARC
 8
001
 62
3
 10
-199.179008
 20
-653.761767
 40
13.000000
 50
98.185781
 51
246.617489
 0
ARC
 8
001
 62
3
 10
-199.179008
 20
-653.761767
 40
16.000000
 50
97.711139
 51
247.941198
 0
ARC
 8
001
 62
3
 10
-199.179008
 20
-653.761767
 40
23.000000
 50
97.872099
 51
248.488089
 0
ARC
 8
001
 62
3
 10
-199.179008
 20
-653.761767
 40
25.000000
 50
97.961210
 51
248.608239
 0
LINE
 8
001
 62
3
 10
-170.597168
 20
-624.521289
 11
-202.641574
 21
-629.002715
 0
CIRCLE
 8
001
 62
3
 10
-169.160044
 20
-699.833177
 40
2.000000
 0
LINE
 8
001
 62
3
 10
-162.619712
 20
-687.588472
 11
-163.165754
 21
-700.094894
 0
LINE
 8
001
 62
3
 10
-174.806786
 20
-691.611320
 11
-175.154333
 21
-699.571461
 0
ARC
 8
001
 62
3
 10
-176.804882
 20
-691.524081
 40
2.000000
 50
357.500000
 51
68.608239
 0
ARC
 8
001
 62
3
 10
-168.114477
 20
-687.348565
 40
5.500000
 50
357.500000
 51
66.617489
 0
ARC
 8
001
 62
3
 10
-165.912708
 20
-700.110649
 40
8.500000
 50
332.322097
 51
27.677903
 0
LINE
 8
001
 62
3
 10
-158.385339
 20
-691.626235
 11
-158.385339
 21
-696.162394
 0
LINE
 8
001
 62
3
 10
-158.385339
 20
-704.058903
 11
-158.385339
 21
-711.378672
 0
ARC
 8
001
 62
3
 10
-166.996099
 20
-650.270702
 40
26.000000
 50
77.038790
 51
97.961210
 0
ARC
 8
001
 62
3
 10
-166.998331
 20
-650.321814
 40
24.000000
 50
77.127901
 51
97.872099
 0
ARC
 8
001
 62
3
 10
-167.002359
 20
-650.414068
 40
17.000000
 50
77.288861
 51
97.711139
 0
ARC
 8
001
 62
3
 10
-165.885339
 20
-650.371906
 40
14.000000
 50
79.314219
 51
100.685781
 0
TEXT
 8
001
 62
3
 10
-70.177570
 20
-756.041442
 40
3.200000
 1
2005.5.31
 41
1.551966
 7
STANDARD
 0
TEXT
 8
001
 62
3
 10
-121.700254
 20
-735.424625
 40
4.500000
 1
ハンドグリップ
 41
0.772215
 7
STANDARD
 0
TEXT
 8
001
 62
3
 10
-114.522348
 20
-741.991013
 40
4.500000
 1
BH-G
 41
1.000000
 7
STANDARD
 0
ARC
 8
001
 62
3
 10
-258.199585
 20
-744.397607
 40
3.100000
 50
90.000000
 51
161.180937
 0
ARC
 8
001
 62
3
 10
-258.199585
 20
-744.397607
 40
3.100000
 50
198.819063
 51
270.000000
 0
LINE
 8
001
 62
3
 10
-263.404390
 20
-743.397607
 11
-263.546692
 21
-744.419302
 0
LINE
 8
001
 62
3
 10
-263.543670
 20
-744.397607
 11
-263.404390
 21
-745.397607
 0
LINE
 8
001
 62
3
 10
-263.404390
 20
-743.397607
 11
-261.133865
 21
-743.397607
 0
LINE
 8
001
 62
3
 10
-263.404390
 20
-745.397607
 11
-261.133865
 21
-745.397607
 0
LINE
 8
001
 62
3
 10
-256.681811
 20
-674.920450
 11
-256.681811
 21
-635.408457
 0
LINE
 8
001
 62
3
 10
-259.681811
 20
-674.920450
 11
-259.681811
 21
-635.837739
 0
LINE
 8
001
 62
3
 10
-259.681811
 20
-677.064289
 11
-262.181811
 21
-677.064289
 0
LINE
 8
001
 62
3
 10
-259.681811
 20
-674.920450
 11
-259.681811
 21
-677.064289
 0
LINE
 8
001
 62
3
 10
-171.902657
 20
-682.014151
 11
-174.383537
 21
-688.230610
 0
LINE
 8
001
 62
3
 10
-173.687116
 20
-681.355329
 11
-171.813511
 21
-682.047064
 0
LINE
 8
001
 62
3
 10
-175.341454
 20
-687.879463
 11
-174.232659
 21
-688.285918
 0
LINE
 8
001
 62
3
 10
-174.612623
 20
-703.779235
 11
-173.385339
 21
-704.858469
 0
ARC
 8
001
 62
3
 10
-261.681811
 20
-683.701975
 40
0.500000
 50
90.000000
 51
180.000000
 0
LINE
 8
001
 62
3
 10
-262.181811
 20
-672.800995
 11
-262.181811
 21
-683.201975
 0
TEXT
 8
001
 62
3
 10
-79.673869
 20
-764.655209
 40
6.300000
 1
K-BH-G
 41
0.814934
 7
STANDARD
 0
TEXT
 8
001
 62
3
 10
-94.684076
 20
-745.861746
 40
3.200000
 1
耐候性
 41
0.833333
 7
STANDARD
 0
TEXT
 8
001
 62
3
 10
-95.778776
 20
-749.171618
 40
3.200000
 1
グレード
 41
0.833333
 7
STANDARD
 0
LINE
 8
001
 62
3
 10
-254.181811
 20
-684.820753
 11
-254.181811
 21
-691.420753
 0
LINE
 8
001
 62
3
 10
-258.181811
 20
-692.920753
 11
-258.181811
 21
-684.116954
 0
LINE
 8
001
 62
3
 10
-262.181811
 20
-685.820753
 11
-262.181811
 21
-692.420753
 0
ARC
 8
001
 62
3
 10
-169.160044
 20
-699.833177
 40
6.000000
 50
177.500000
 51
357.500000
 0
LINE
 8
001
 6
PHANTOM
 10
-193.136231
 20
-687.852038
 11
-195.664427
 21
-695.408020
 0
CIRCLE
 8
001
 6
PHANTOM
 10
-189.974485
 20
-697.311848
 40
2.000000
 0
ARC
 8
001
 6
PHANTOM
 10
-189.974485
 20
-697.311848
 40
6.000000
 50
161.500000
 51
341.500000
 0
LINE
 8
001
 6
PHANTOM
 10
-180.312417
 20
-687.344241
 11
-184.284543
 21
-699.215676
 0
ARC
 8
001
 6
PHANTOM
 10
-195.032878
 20
-687.217429
 40
2.000000
 50
341.500000
 51
52.608239
 0
LINE
 8
001
 6
PHANTOM
 10
-193.818355
 20
-685.628425
 11
-221.313104
 21
-664.613366
 0
ARC
 8
001
 6
PHANTOM
 10
-185.528197
 20
-685.599066
 40
5.500000
 50
341.500000
 51
50.617489
 0
ARC
 8
001
 6
PHANTOM
 10
-206.131564
 20
-644.750817
 40
25.000000
 50
81.961210
 51
232.608239
 0
ARC
 8
001
 6
PHANTOM
 10
-206.131564
 20
-644.750817
 40
23.000000
 50
81.872099
 51
232.488089
 0
ARC
 8
001
 6
PHANTOM
 10
-206.131564
 20
-644.750817
 40
16.000000
 50
81.711139
 51
231.941198
 0
ARC
 8
001
 6
PHANTOM
 10
-206.131564
 20
-644.750817
 40
13.000000
 50
82.185781
 51
230.617489
 0
LINE
 8
001
 6
PHANTOM
 10
-172.288690
 20
-636.273423
 11
-204.364065
 21
-631.871534
 0
LINE
 8
001
 6
PHANTOM
 10
-171.827848
 20
-633.579475
 11
-203.824943
 21
-628.917956
 0
LINE
 8
001
 6
PHANTOM
 10
-170.856132
 20
-626.555401
 11
-202.879748
 21
-621.981854
 0
LINE
 8
001
 6
PHANTOM
 10
-170.597168
 20
-624.521289
 11
-202.635477
 21
-619.996477
 0
LINE
 8
001
 6
PHANTOM
 10
-182.038477
 20
-681.347965
 11
-214.379994
 21
-654.798872
 0
LINE
 8
001
 6
PHANTOM
 10
-189.233001
 20
-678.301969
 11
-215.995082
 21
-657.348873
 0
LINE
 8
001
 6
PHANTOM
 10
-192.621548
 20
-684.117372
 11
-220.136870
 21
-662.995033
 0
LINE
 8
001
 6
PHANTOM
 10
-187.699265
 20
-679.427134
 11
-191.797529
 21
-684.718954
 0
LINE
 8
001
 6
PHANTOM
 10
-189.233001
 20
-678.301969
 11
-187.622645
 21
-679.483343
 0
LINE
 8
001
 6
PHANTOM
 10
-192.621548
 20
-684.117372
 11
-191.667740
 21
-684.813707
 0
LINE
 8
001
 62
3
 10
-175.341454
 20
-687.879463
 11
-207.612985
 21
-675.159618
 0
LINE
 8
001
 62
3
 10
-312.024826
 20
-585.129754
 11
-35.024826
 21
-585.129754
 0
TEXT
 8
001
 62
3
 10
-137.312169
 20
-731.313277
 40
1.993800
 1
CONPONENTS
 41
0.533160
 7
STANDARD
 0
TEXT
 8
001
 62
3
 10
-137.114364
 20
-749.011903
 40
2.990700
 1
材
 41
0.833333
 7
STANDARD
 0
TEXT
 8
001
 62
3
 10
-129.602082
 20
-749.011903
 40
2.990700
 1
質
 41
0.833333
 7
STANDARD
 0
TEXT
 8
001
 62
3
 10
-136.901664
 20
-738.334444
 40
1.993800
 1
MODEL
 41
1.031073
 7
STANDARD
 0
TEXT
 8
001
 62
3
 10
-137.114364
 20
-745.341010
 40
1.993800
 1
MATERIAL
 41
0.659278
 7
STANDARD
 0
TEXT
 8
001
 62
3
 10
-105.836702
 20
-749.248516
 40
2.990700
 1
備
 41
0.833333
 7
STANDARD
 0
TEXT
 8
001
 62
3
 10
-99.124572
 20
-749.248516
 40
2.990700
 1
考
 41
0.833333
 7
STANDARD
 0
TEXT
 8
001
 62
3
 10
-106.082946
 20
-745.577623
 40
1.993800
 1
REMARKS
 41
0.675794
 7
STANDARD
 0
TEXT
 8
001
 62
3
 10
-105.570484
 20
-752.450131
 40
1.993800
 1
SCALE
 41
0.771963
 7
STANDARD
 0
TEXT
 8
001
 62
3
 10
-105.706855
 20
-755.939281
 40
2.990700
 1
尺
 41
0.833333
 7
STANDARD
 0
TEXT
 8
001
 62
3
 10
-98.994726
 20
-755.939281
 40
2.990700
 1
度
 41
0.833333
 7
STANDARD
 0
TEXT
 8
001
 62
3
 10
-80.663348
 20
-734.927697
 40
2.990700
 1
承認
 41
1.089473
 7
STANDARD
 0
TEXT
 8
001
 62
3
 10
-68.343642
 20
-734.774474
 40
2.990700
 1
検図
 41
0.931761
 7
STANDARD
 0
TEXT
 8
001
 62
3
 10
-56.343732
 20
-734.692507
 40
2.990700
 1
設
 41
0.833333
 7
STANDARD
 0
TEXT
 8
001
 62
3
 10
-51.867782
 20
-734.692507
 40
2.990700
 1
計
 41
0.833333
 7
STANDARD
 0
TEXT
 8
001
 62
3
 10
-136.901664
 20
-742.184346
 40
2.990700
 1
品
 41
0.833333
 7
STANDARD
 0
TEXT
 8
001
 62
3
 10
-129.376973
 20
-742.184346
 40
2.990700
 1
番
 41
0.833333
 7
STANDARD
 0
LINE
 8
001
 62
3
 10
-81.901759
 20
-765.129754
 11
-312.024826
 21
-765.129754
 0
LINE
 8
001
 62
3
 10
-36.426461
 20
-765.129754
 11
-35.024826
 21
-765.129754
 0
LINE
 8
001
 62
3
 10
-38.616474
 20
-765.129754
 11
-36.426461
 21
-765.129754
 0
LINE
 8
001
 62
3
 10
-79.955081
 20
-765.129754
 11
-38.616474
 21
-765.129754
 0
LINE
 8
001
 62
3
 10
-79.955081
 20
-765.129754
 11
-81.901759
 21
-765.129754
 0
LINE
 8
001
 62
3
 10
-312.024826
 20
-585.129754
 11
-312.024826
 21
-765.129754
 0
LINE
 8
001
 62
3
 10
-35.024826
 20
-765.129754
 11
-35.024826
 21
-585.129754
 0
LINE
 8
001
 10
-108.585707
 20
-589.577833
 11
-108.585707
 21
-604.427833
 0
LINE
 8
001
 10
-45.024546
 20
-599.477833
 11
-118.691140
 21
-599.477833
 0
LINE
 8
001
 10
-36.776014
 20
-599.477833
 11
-45.024546
 21
-599.477833
 0
LINE
 8
001
 10
-36.776014
 20
-599.477833
 11
-35.091140
 21
-599.477833
 0
LINE
 8
001
 10
-46.688665
 20
-589.577833
 11
-46.688665
 21
-604.427833
 0
LINE
 8
001
 10
-90.980381
 20
-589.577833
 11
-90.980381
 21
-604.427833
 0
LINE
 8
001
 10
-118.691140
 20
-594.527833
 11
-35.091140
 21
-594.527833
 0
LINE
 8
001
 62
3
 10
-35.124863
 20
-722.227746
 11
-86.824226
 21
-722.227746
 0
LINE
 8
001
 62
3
 10
-60.824226
 20
-728.227746
 11
-60.824226
 21
-722.227746
 0
LINE
 8
001
 62
3
 10
-86.824226
 20
-728.227746
 11
-86.824226
 21
-722.227746
 0
TEXT
 8
001
 62
3
 10
-85.674712
 20
-727.671661
 40
4.500000
 1
コード
 41
0.833333
 7
STANDARD
 0
TEXT
 8
001
 10
-59.431435
 20
-727.729390
 40
4.500000
 1
29618
 41
1.071428
 7
STANDARD
 0
TEXT
 8
001
 62
3
 10
-121.504120
 20
-748.406889
 40
3.200000
 1
PA6
 41
1.000000
 7
STANDARD
 0
CIRCLE
 8
001
 10
-258.181811
 20
-692.920753
 40
14.216189
 0
ENDSEC
 0
EOF
