 0
SECTION
 2
HEADER
 9
$ACADVER
 1
AC1003
 9
$EXTMIN
 10
344.904633
 20
-68.647636
 9
$EXTMAX
 10
621.904663
 20
120.352364
 9
$LIMMIN
 10
344.903633
 20
-68.648636
 9
$LIMMAX
 10
621.905663
 20
120.353364
 9
$SNAPUNIT
 10
1
 20
1
 9
$SNAPBASE
 10
0
 20
0
 9
$GRIDMODE
 70
0
 9
$GRIDUNIT
 10
0
 20
0
 9
$LTSCALE
 40
4.616667
 9
$TEXTSIZE
 40
3.2
 9
$DIMTAD
 70
0
 9
$LUNITS
 70
2
 9
$LUPREC
 70
4
 9
$FILLETRAD
 40
0
 9
$AUNITS
 70
0
 9
$AUPREC
 70
0
 0
ENDSEC
 0
SECTION
 2
TABLES
 0
TABLE
 2
LTYPE
 70
25
  0
LTYPE
  2
CONTINUOUS
 70
    64
  3
Solid-line
 72
    65
 73
     0
 40
0.0
  0
LTYPE
  2
BORDER
 70
    64
  3
BORDER
 72
    65
 73
     6
 40
1.75
 49
0.5
 49
-0.25
 49
0.5
 49
-0.25
 49
0.0
 49
-0.25
  0
LTYPE
  2
BORDER2
 70
    64
  3
BORDER2
 72
    65
 73
     6
 40
0.875
 49
0.25
 49
-0.125
 49
0.25
 49
-0.125
 49
0.0
 49
-0.125
  0
LTYPE
  2
BORDERX2
 70
    64
  3
BORDERX2
 72
    65
 73
     6
 40
3.5
 49
1.0
 49
-0.5
 49
1.0
 49
-0.5
 49
0.0
 49
-0.5
  0
LTYPE
  2
CENTER
 70
    64
  3
CENTER
 72
    65
 73
     4
 40
2.0
 49
1.25
 49
-0.25
 49
0.25
 49
-0.25
  0
LTYPE
  2
CENTER2
 70
    64
  3
CENTER2
 72
    65
 73
     4
 40
1.125
 49
0.75
 49
-0.125
 49
0.125
 49
-0.125
  0
LTYPE
  2
CENTERX2
 70
    64
  3
CENTERX2
 72
    65
 73
     4
 40
4.0
 49
2.5
 49
-0.5
 49
0.5
 49
-0.5
  0
LTYPE
  2
DASHDOT
 70
    64
  3
DASHDOT
 72
    65
 73
     4
 40
1.0
 49
0.5
 49
-0.25
 49
0.0
 49
-0.25
  0
LTYPE
  2
DASHDOT2
 70
    64
  3
DASHDOT2
 72
    65
 73
     4
 40
0.5
 49
0.25
 49
-0.125
 49
0.0
 49
-0.125
  0
LTYPE
  2
DASHDOTX2
 70
    64
  3
DASHDOTX2
 72
    65
 73
     4
 40
2.0
 49
1.0
 49
-0.5
 49
0.0
 49
-0.5
  0
LTYPE
  2
DASHED
 70
    64
  3
DASHED
 72
    65
 73
     2
 40
0.75
 49
0.5
 49
-0.25
  0
LTYPE
  2
DASHED2
 70
    64
  3
DASHED2
 72
    65
 73
     2
 40
0.375
 49
0.25
 49
-0.125
  0
LTYPE
  2
DASHEDX2
 70
    64
  3
DASHEDX2
 72
    65
 73
     2
 40
1.5
 49
1.0
 49
-0.5
  0
LTYPE
  2
DIVIDE
 70
    64
  3
DIVIDE
 72
    65
 73
     6
 40
1.25
 49
0.5
 49
-0.25
 49
0.0
 49
-0.25
 49
0.0
 49
-0.25
  0
LTYPE
  2
DIVIDE2
 70
    64
  3
DIVIDE2
 72
    65
 73
     6
 40
0.625
 49
0.25
 49
-0.125
 49
0.0
 49
-0.125
 49
0.0
 49
-0.125
  0
LTYPE
  2
DIVIDEX2
 70
    64
  3
DIVIDEX2
 72
    65
 73
     6
 40
2.5
 49
1.0
 49
-0.5
 49
0.0
 49
-0.5
 49
0.0
 49
-0.5
  0
LTYPE
  2
DOT
 70
    64
  3
DOT
 72
    65
 73
     2
 40
0.25
 49
0.0
 49
-0.25
  0
LTYPE
  2
DOT2
 70
    64
  3
DOT2
 72
    65
 73
     2
 40
0.125
 49
0.0
 49
-0.125
  0
LTYPE
  2
DOTX2
 70
    64
  3
DOTX2
 72
    65
 73
     2
 40
0.5
 49
0.0
 49
-0.5
  0
LTYPE
  2
HIDDEN
 70
    64
  3
HIDDEN
 72
    65
 73
     2
 40
0.375
 49
0.25
 49
-0.125
  0
LTYPE
  2
HIDDEN2
 70
    64
  3
HIDDEN2
 72
    65
 73
     2
 40
0.1875
 49
0.125
 49
-0.0625
  0
LTYPE
  2
HIDDENX2
 70
    64
  3
HIDDENX2
 72
    65
 73
     2
 40
0.75
 49
0.5
 49
-0.25
  0
LTYPE
  2
PHANTOM
 70
    64
  3
PHANTOM
 72
    65
 73
     6
 40
2.5
 49
1.25
 49
-0.25
 49
0.25
 49
-0.25
 49
0.25
 49
-0.25
  0
LTYPE
  2
PHANTOM2
 70
    64
  3
PHANTOM2
 72
    65
 73
     6
 40
1.25
 49
0.625
 49
-0.125
 49
0.125
 49
-0.125
 49
0.125
 49
-0.125
  0
LTYPE
  2
PHANTOMX2
 70
    64
  3
PHANTOMX2
 72
    65
 73
     6
 40
5.0
 49
2.5
 49
-0.5
 49
0.5
 49
-0.5
 49
0.5
 49
-0.5
 0
ENDTAB
 0
TABLE
 2
LAYER
 70
1
 0
LAYER
 2
001
 70
0
 62
7
 6
CONTINUOUS
 0
ENDTAB
 0
TABLE
 2
STYLE
 70
2
 0
STYLE
 2
STANDARD
 70
0
 40
0
 41
1
 50
0
 71
0
 42
.2
 3
TXT
 4
BIGFONT
 0
STYLE
 2
TATEGAKI
 70
4
 40
1
 41
1
 50
0
 71
0
 42
.2
 3
TXT
 4
BIGFONT
 0
ENDTAB
 0
ENDSEC
 0
SECTION
 2
BLOCKS
 0
BLOCK
 8
0
 2
ARROW
 70
0
 10
0
 20
0
 0
POLYLINE
 8
0
 6
CONTINUOUS
 62
0
 66
1
 0
VERTEX
 8
0
 6
CONTINUOUS
 62
0
 10
2.000000
 20
0.535898
 0
VERTEX
 8
0
 6
CONTINUOUS
 62
0
 10
0.0
 20
0.0
 0
VERTEX
 8
0
 6
CONTINUOUS
 62
0
 10
2.000000
 20
-0.535898
 0
SEQEND
 8
0
 0
ENDBLK
 8
0
 0
BLOCK
 8
001
 2
*D0
 70
1
 10
0.0
 20
0.0
 0
LINE
 8
001
 10
413.034317
 20
38.715443
 11
402.056643
 21
38.715443
 0
LINE
 8
001
 10
413.034317
 20
53.715443
 11
402.056643
 21
53.715443
 0
LINE
 8
001
 10
403.056643
 20
38.715443
 11
403.056643
 21
53.715443
 0
INSERT
 8
001
 62
7
 2
ARROW
 6
BYBLOCK
 10
403.056643
 20
38.715443
 41
1.000000
 42
1.000000
 50
90.000000
 0
INSERT
 8
001
 62
7
 2
ARROW
 6
BYBLOCK
 10
403.056643
 20
53.715443
 41
1.000000
 42
1.000000
 50
270.000000
 0
TEXT
 8
001
 10
402.056643
 20
42.786090
 40
3.200000
 1
%%c15
 50
90.000003
 41
0.966797
 7
STANDARD
 0
POINT
 8
001
 10
414.034317
 20
38.715443
 0
POINT
 8
001
 10
414.034317
 20
53.715443
 0
POINT
 8
001
 10
403.056643
 20
53.715443
 0
ENDBLK
 8
001
 0
BLOCK
 8
001
 2
*D1
 70
1
 10
0.0
 20
0.0
 0
LINE
 8
001
 10
579.791839
 20
41.210484
 11
592.669530
 21
41.210484
 0
LINE
 8
001
 10
579.791839
 20
51.210484
 11
592.669530
 21
51.210484
 0
LINE
 8
001
 10
591.669530
 20
41.210484
 11
591.669530
 21
51.210484
 0
INSERT
 8
001
 62
7
 2
ARROW
 6
BYBLOCK
 10
591.669530
 20
41.210484
 41
1.000000
 42
1.000000
 50
90.000000
 0
INSERT
 8
001
 62
7
 2
ARROW
 6
BYBLOCK
 10
591.669530
 20
51.210484
 41
1.000000
 42
1.000000
 50
270.000000
 0
TEXT
 8
001
 10
590.669530
 20
42.384197
 40
3.200000
 1
%%c10
 50
90.000003
 41
1.031250
 7
STANDARD
 0
POINT
 8
001
 10
578.791839
 20
41.210484
 0
POINT
 8
001
 10
578.791839
 20
51.210484
 0
POINT
 8
001
 10
591.669530
 20
51.210484
 0
ENDBLK
 8
001
 0
BLOCK
 8
001
 2
*D2
 70
1
 10
0.0
 20
0.0
 0
LINE
 8
001
 10
380.132572
 20
43.110484
 11
366.359982
 21
43.110484
 0
LINE
 8
001
 10
380.132572
 20
49.310484
 11
366.359982
 21
49.310484
 0
LINE
 8
001
 10
367.359982
 20
43.110484
 11
367.359982
 21
49.310484
 0
INSERT
 8
001
 62
7
 2
ARROW
 6
BYBLOCK
 10
367.359982
 20
43.110484
 41
1.000000
 42
1.000000
 50
270.000000
 0
INSERT
 8
001
 62
7
 2
ARROW
 6
BYBLOCK
 10
367.359982
 20
49.310484
 41
1.000000
 42
1.000000
 50
90.000000
 0
TEXT
 8
001
 10
366.359982
 20
52.575663
 40
3.200000
 1
%%c6.2
 50
90.000003
 41
1.031250
 7
STANDARD
 0
POINT
 8
001
 10
381.132572
 20
43.110484
 0
POINT
 8
001
 10
381.132572
 20
49.310484
 0
POINT
 8
001
 10
367.359982
 20
49.310484
 0
LINE
 8
001
 10
367.359982
 20
43.110484
 11
367.359982
 21
40.110484
 0
LINE
 8
001
 10
367.359982
 20
49.310484
 11
367.359982
 21
63.575663
 0
ENDBLK
 8
001
 0
BLOCK
 8
001
 2
*D3
 70
1
 10
0.0
 20
0.0
 0
LINE
 8
001
 10
412.047438
 20
7.527715
 11
412.047438
 21
-2.076189
 0
LINE
 8
001
 10
425.047438
 20
9.427149
 11
425.047438
 21
-2.076189
 0
LINE
 8
001
 10
412.047438
 20
-1.076189
 11
425.047438
 21
-1.076189
 0
INSERT
 8
001
 62
7
 2
ARROW
 6
BYBLOCK
 10
412.047438
 20
-1.076189
 41
1.000000
 42
1.000000
 50
360.000000
 0
INSERT
 8
001
 62
7
 2
ARROW
 6
BYBLOCK
 10
425.047438
 20
-1.076189
 41
1.000000
 42
1.000000
 50
180.000000
 0
TEXT
 8
001
 10
415.781364
 20
-0.076189
 40
3.200000
 1
13
 41
1.031250
 7
STANDARD
 0
POINT
 8
001
 10
412.047438
 20
8.527715
 0
POINT
 8
001
 10
425.047438
 20
10.427149
 0
POINT
 8
001
 10
425.047438
 20
-1.076189
 0
ENDBLK
 8
001
 0
BLOCK
 8
001
 2
*D4
 70
1
 10
0.0
 20
0.0
 0
LINE
 8
001
 10
576.993511
 20
8.150928
 11
576.993511
 21
0.577726
 0
LINE
 8
001
 10
580.993511
 20
8.650928
 11
580.993511
 21
0.577726
 0
LINE
 8
001
 10
576.993511
 20
1.577726
 11
580.993511
 21
1.577726
 0
INSERT
 8
001
 62
7
 2
ARROW
 6
BYBLOCK
 10
576.993511
 20
1.577726
 41
1.000000
 42
1.000000
 50
180.000000
 0
INSERT
 8
001
 62
7
 2
ARROW
 6
BYBLOCK
 10
580.993511
 20
1.577726
 41
1.000000
 42
1.000000
 50
360.000000
 0
TEXT
 8
001
 10
571.243511
 20
2.577726
 40
3.200000
 1
4
 41
0.859375
 7
STANDARD
 0
POINT
 8
001
 10
576.993511
 20
9.150928
 0
POINT
 8
001
 10
580.993511
 20
9.650928
 0
POINT
 8
001
 10
580.993511
 20
1.577726
 0
LINE
 8
001
 10
576.993511
 20
1.577726
 11
571.243511
 21
1.577726
 0
LINE
 8
001
 10
580.993511
 20
1.577726
 11
583.993511
 21
1.577726
 0
ENDBLK
 8
001
 0
BLOCK
 8
001
 2
*D5
 70
1
 10
0.0
 20
0.0
 0
LINE
 8
001
 10
412.034317
 20
52.715443
 11
412.034317
 21
66.103580
 0
LINE
 8
001
 10
581.041839
 20
51.710484
 11
581.041839
 21
66.103580
 0
LINE
 8
001
 10
412.034317
 20
65.103580
 11
581.041839
 21
65.103580
 0
INSERT
 8
001
 62
7
 2
ARROW
 6
BYBLOCK
 10
412.034317
 20
65.103580
 41
1.000000
 42
1.000000
 0
INSERT
 8
001
 62
7
 2
ARROW
 6
BYBLOCK
 10
581.041839
 20
65.103580
 41
1.000000
 42
1.000000
 50
180.000000
 0
TEXT
 8
001
 10
492.413078
 20
66.103580
 40
3.200000
 1
305
 41
0.909927
 7
STANDARD
 0
POINT
 8
001
 10
412.034317
 20
51.715443
 0
POINT
 8
001
 10
581.041839
 20
50.710484
 0
POINT
 8
001
 10
581.041839
 20
65.103580
 0
ENDBLK
 8
001
 0
ENDSEC
 0
SECTION
 2
ENTITIES
 0
DIMENSION
 8
001
 2
*D0
 10
403.056643
 20
53.715443
 11
402.056643
 21
42.786090
 13
414.034317
 23
38.715443
 14
414.034317
 24
53.715443
 50
90.000000
 0
DIMENSION
 8
001
 2
*D1
 10
591.669530
 20
51.210484
 11
590.669530
 21
42.384197
 13
578.791839
 23
41.210484
 14
578.791839
 24
51.210484
 50
90.000000
 0
DIMENSION
 8
001
 2
*D2
 10
367.359982
 20
49.310484
 11
366.359982
 21
52.575663
 13
381.132572
 23
43.110484
 14
381.132572
 24
49.310484
 50
90.000000
 0
DIMENSION
 8
001
 2
*D3
 10
425.047438
 20
-1.076189
 11
415.781364
 21
-0.076189
 13
412.047438
 23
8.527715
 14
425.047438
 24
10.427149
 50
360.000000
 0
DIMENSION
 8
001
 2
*D4
 10
580.993511
 20
1.577726
 11
571.243511
 21
2.577726
 13
576.993511
 23
9.150928
 14
580.993511
 24
9.650928
 0
DIMENSION
 8
001
 2
*D5
 10
581.041839
 20
65.103580
 11
492.413078
 21
66.103580
 13
412.034317
 23
51.715443
 14
581.041839
 24
50.710484
 0
LINE
 8
001
 6
DASHED
 10
496.599798
 20
51.460484
 11
496.599798
 21
40.960484
 0
LINE
 8
001
 6
DASHED
 10
492.099798
 20
40.960484
 11
492.099798
 21
51.460484
 0
LINE
 8
001
 6
DASHED
 10
494.349798
 20
40.960484
 11
494.349798
 21
51.460484
 0
LINE
 8
001
 62
3
 10
508.290484
 20
14.169971
 11
508.290484
 21
12.669971
 0
LINE
 8
001
 62
3
 10
508.290484
 20
14.169971
 11
503.790484
 21
14.169971
 0
LINE
 8
001
 62
3
 10
503.790484
 20
14.169971
 11
499.290484
 21
12.669971
 0
LINE
 8
001
 62
3
 10
496.290484
 20
12.669971
 11
499.290484
 21
12.669971
 0
LINE
 8
001
 62
3
 10
508.290484
 20
12.669971
 11
511.402252
 21
12.669971
 0
LINE
 8
001
 62
3
 10
496.290484
 20
14.169971
 11
491.790484
 21
14.169971
 0
LINE
 8
001
 62
3
 10
496.290484
 20
14.169971
 11
496.290484
 21
12.669971
 0
LINE
 8
001
 62
3
 10
482.021723
 20
15.669971
 11
514.280146
 21
15.669971
 0
LINE
 8
001
 62
3
 10
514.359508
 20
13.692979
 11
511.290484
 21
12.669971
  0
POLYLINE
  8
001
 66
1
  0
VERTEX
  8
001
 10
484.469617
 20
35.928659
  0
VERTEX
  8
001
 10
483.156227
 20
38.032665
  0
VERTEX
  8
001
 10
482.090957
 20
40.117336
  0
VERTEX
  8
001
 10
481.521928
 20
42.163336
  0
VERTEX
  8
001
 10
481.697260
 20
44.151330
  0
VERTEX
  8
001
 10
483.063185
 20
46.641085
  0
VERTEX
  8
001
 10
484.365281
 20
49.114743
  0
VERTEX
  8
001
 10
484.424880
 20
50.989320
  0
VERTEX
  8
001
 10
483.746693
 20
52.904135
  0
VERTEX
  8
001
 10
482.576648
 20
54.845776
  0
VERTEX
  8
001
 10
481.160675
 20
56.800829
  0
SEQEND
  8
001
  0
POLYLINE
  8
001
 66
1
  0
VERTEX
  8
001
 10
482.498033
 20
35.824580
  0
VERTEX
  8
001
 10
481.184643
 20
37.928587
  0
VERTEX
  8
001
 10
480.119374
 20
40.013258
  0
VERTEX
  8
001
 10
479.550344
 20
42.059258
  0
VERTEX
  8
001
 10
479.725676
 20
44.047251
  0
VERTEX
  8
001
 10
481.091601
 20
46.537006
  0
VERTEX
  8
001
 10
482.393697
 20
49.010664
  0
VERTEX
  8
001
 10
482.453296
 20
50.885242
  0
VERTEX
  8
001
 10
481.775109
 20
52.800057
  0
VERTEX
  8
001
 10
480.605064
 20
54.741697
  0
VERTEX
  8
001
 10
479.189091
 20
56.696750
  0
SEQEND
  8
001
 0
LINE
 8
001
 62
3
 10
491.790484
 20
14.169971
 11
487.290484
 21
12.669971
 0
LINE
 8
001
 62
3
 10
487.290484
 20
12.669971
 11
483.077408
 21
12.669971
 0
ARC
 8
001
 62
3
 10
470.958287
 20
41.665718
 40
1.500000
 50
270.000000
 51
0.000000
 0
LINE
 8
001
 62
3
 10
472.458287
 20
41.665718
 11
472.458287
 21
50.755250
 0
ARC
 8
001
 62
3
 10
470.958287
 20
50.755250
 40
1.500000
 50
0.000000
 51
90.000000
 0
LINE
 8
001
 62
3
 10
485.424217
 20
14.169971
 11
482.072467
 21
14.169971
 0
LINE
 8
001
 62
3
 10
485.424217
 20
15.669971
 11
485.424217
 21
14.169971
 0
LINE
 8
001
 6
DASHED
 10
492.099798
 20
51.460484
 11
496.599798
 21
51.460484
 0
LINE
 8
001
 6
DASHED
 10
492.099798
 20
40.960484
 11
496.599798
 21
40.960484
 0
LINE
 8
001
 6
DASHED
 10
486.099798
 20
51.460484
 11
486.099798
 21
40.960484
 0
LINE
 8
001
 6
DASHED
 10
488.349798
 20
40.960484
 11
488.349798
 21
51.460484
 0
LINE
 8
001
 6
DASHED
 10
490.599798
 20
40.960484
 11
490.599798
 21
51.460484
 0
LINE
 8
001
 6
DASHED
 10
484.316080
 20
51.460484
 11
484.599798
 21
51.460484
 0
LINE
 8
001
 6
DASHED
 10
486.099798
 20
51.460484
 11
490.599798
 21
51.460484
 0
LINE
 8
001
 6
DASHED
 10
486.099798
 20
40.960484
 11
490.599798
 21
40.960484
 0
LINE
 8
001
 62
3
 10
560.970829
 20
14.943583
 11
560.970829
 21
13.443583
 0
LINE
 8
001
 62
3
 10
554.001738
 20
53.128619
 11
560.779172
 21
48.695567
 0
LINE
 8
001
 62
3
 10
554.001738
 20
39.262516
 11
560.779172
 21
43.695567
 0
ARC
 8
001
 62
3
 10
551.949017
 20
49.990334
 40
3.750000
 50
56.811702
 51
90.000000
 0
ARC
 8
001
 62
3
 10
551.949017
 20
42.400801
 40
3.750000
 50
270.000000
 51
303.188298
 0
LINE
 8
001
 62
3
 10
555.533957
 20
48.695567
 11
571.521996
 21
48.695567
 0
LINE
 8
001
 62
3
 10
555.533957
 20
43.695567
 11
571.521996
 21
43.695567
 0
ARC
 8
001
 62
3
 10
555.533957
 20
46.195567
 40
2.500000
 50
90.000000
 51
270.000000
 0
LINE
 8
001
 62
3
 10
557.485629
 20
16.602106
 11
571.489307
 21
16.602106
 0
ARC
 8
001
 62
3
 10
557.485629
 20
14.102106
 40
2.500000
 50
90.000000
 51
162.542397
 0
LINE
 8
001
 6
CENTER
 10
557.563307
 20
14.150928
 11
581.914477
 21
14.150928
 0
CIRCLE
 8
001
 10
498.291932
 20
13.474930
 40
16.957712
 0
LINE
 8
001
 62
3
 10
555.100781
 20
13.352106
 11
571.489307
 21
11.654339
 0
LINE
 8
001
 62
3
 10
580.541839
 20
41.210484
 11
577.041839
 21
41.210484
 0
LINE
 8
001
 62
3
 10
580.541839
 20
51.210484
 11
577.041839
 21
51.210484
 0
LINE
 8
001
 62
3
 10
580.493511
 20
9.150928
 11
576.993511
 21
9.150928
 0
LINE
 8
001
 62
3
 10
580.493511
 20
19.150928
 11
576.993511
 21
19.150928
 0
LINE
 8
001
 62
3
 10
581.041839
 20
50.710484
 11
581.041839
 21
41.710484
 0
LINE
 8
001
 62
3
 10
580.993511
 20
9.650928
 11
580.993511
 21
18.650928
 0
LINE
 8
001
 62
3
 10
576.993511
 20
19.150928
 11
576.993511
 21
9.150928
 0
LINE
 8
001
 62
3
 10
577.041839
 20
41.210484
 11
577.041839
 21
51.210484
 0
ARC
 8
001
 62
3
 10
580.493511
 20
18.650928
 40
0.500000
 50
0.000000
 51
90.000000
 0
ARC
 8
001
 62
3
 10
580.493511
 20
9.650928
 40
0.500000
 50
270.000000
 51
0.000000
 0
ARC
 8
001
 62
3
 10
580.541839
 20
41.710484
 40
0.500000
 50
270.000000
 51
0.000000
 0
ARC
 8
001
 62
3
 10
580.541839
 20
50.710484
 40
0.500000
 50
0.000000
 51
90.000000
 0
LINE
 8
001
 62
3
 10
571.993511
 20
17.150928
 11
571.993511
 21
11.150928
 0
LINE
 8
001
 62
3
 10
572.041839
 20
49.210484
 11
572.041839
 21
43.210484
 0
LINE
 8
001
 62
3
 10
572.041839
 20
49.210484
 11
571.598032
 21
48.770882
 0
LINE
 8
001
 62
3
 10
572.041839
 20
43.210484
 11
571.562837
 21
43.737983
 0
LINE
 8
001
 62
3
 10
571.993511
 20
17.150928
 11
571.473853
 21
16.585285
 0
LINE
 8
001
 62
3
 10
571.993511
 20
11.150928
 11
571.473853
 21
11.657970
 0
LINE
 8
001
 62
3
 10
571.489307
 20
16.602106
 11
571.489307
 21
11.655698
 0
LINE
 8
001
 62
3
 10
571.521996
 20
48.695567
 11
571.521996
 21
43.695567
 0
LINE
 8
001
 62
3
 10
571.993511
 20
17.150928
 11
576.993511
 21
17.150928
 0
LINE
 8
001
 62
3
 10
571.993511
 20
11.150928
 11
576.993511
 21
11.150928
 0
LINE
 8
001
 62
3
 10
572.041839
 20
49.210484
 11
577.041839
 21
49.210484
 0
LINE
 8
001
 62
3
 10
572.041839
 20
43.210484
 11
577.041839
 21
43.210484
 0
LINE
 8
001
 62
3
 10
425.034317
 20
40.715443
 11
425.034317
 21
51.715443
 0
ARC
 8
001
 62
3
 10
423.034317
 20
51.715443
 40
2.000000
 50
0.000000
 51
90.000000
 0
ARC
 8
001
 62
3
 10
423.034317
 20
40.715443
 40
2.000000
 50
270.000000
 51
0.000000
 0
LINE
 8
001
 62
3
 10
414.034317
 20
53.715443
 11
423.034317
 21
53.715443
 0
LINE
 8
001
 62
3
 10
414.034317
 20
38.715443
 11
423.034317
 21
38.715443
 0
ARC
 8
001
 62
3
 10
414.034317
 20
51.715443
 40
2.000000
 50
90.000000
 51
180.000000
 0
LINE
 8
001
 62
3
 10
412.034317
 20
51.715443
 11
412.034317
 21
48.715443
 0
LINE
 8
001
 62
3
 10
412.034317
 20
40.715443
 11
412.034317
 21
43.715443
 0
ARC
 8
001
 62
3
 10
414.034317
 20
40.715443
 40
2.000000
 50
180.000000
 51
270.000000
 0
LINE
 8
001
 62
3
 10
412.034317
 20
48.715443
 11
412.034317
 21
43.715443
 0
LINE
 8
001
 62
3
 10
430.948333
 20
42.165718
 11
430.948333
 21
50.255250
 0
ARC
 8
001
 62
3
 10
432.948333
 20
50.255250
 40
2.000000
 50
90.000000
 51
180.000000
 0
ARC
 8
001
 62
3
 10
432.948333
 20
42.165718
 40
2.000000
 50
180.000000
 51
270.000000
 0
LINE
 8
001
 62
3
 10
425.034317
 20
44.710484
 11
430.948333
 21
44.710484
 0
LINE
 8
001
 62
3
 10
425.034317
 20
47.710484
 11
430.948333
 21
47.710484
 0
LINE
 8
001
 62
3
 10
382.757380
 20
43.110484
 11
381.132572
 21
43.110484
 0
LINE
 8
001
 62
3
 10
382.757380
 20
49.310484
 11
381.132572
 21
49.310484
 0
LINE
 8
001
 62
3
 10
385.349874
 20
43.610484
 11
383.475647
 21
43.610484
 0
LINE
 8
001
 62
3
 10
385.349874
 20
48.810484
 11
383.475647
 21
48.810484
 0
ARC
 8
001
 62
3
 10
381.132572
 20
46.210484
 40
3.500000
 50
297.660450
 51
312.024628
 0
ARC
 8
001
 62
3
 10
381.132572
 20
46.210484
 40
3.500000
 50
47.975372
 51
62.339550
 0
LINE
 8
001
 6
CENTER
 10
372.541823
 20
46.210484
 11
390.836813
 21
46.210484
 0
LINE
 8
001
 6
CENTER
 10
381.132572
 20
37.531067
 11
381.132572
 21
54.731122
 0
LINE
 8
001
 62
3
 10
388.736437
 20
43.184872
 11
385.349874
 21
43.610484
 0
ARC
 8
001
 62
3
 10
388.705263
 20
42.936824
 40
0.250000
 50
336.621262
 51
82.836822
 0
CIRCLE
 8
001
 62
3
 10
381.132572
 20
46.210484
 40
8.500000
 0
LINE
 8
001
 62
3
 10
388.736437
 20
49.236095
 11
385.349874
 21
48.810484
 0
ARC
 8
001
 62
3
 10
388.705263
 20
49.484144
 40
0.250000
 50
277.163178
 51
23.378738
 0
ARC
 8
001
 62
3
 10
423.047438
 20
8.531532
 40
2.000000
 50
270.000000
 51
0.000000
 0
ARC
 8
001
 62
3
 10
423.047438
 20
19.531532
 40
2.000000
 50
0.000000
 51
90.000000
 0
LINE
 8
001
 62
3
 10
414.047438
 20
6.531532
 11
423.047438
 21
6.531532
 0
LINE
 8
001
 62
3
 10
414.047438
 20
21.531532
 11
423.047438
 21
21.531532
 0
ARC
 8
001
 62
3
 10
414.047438
 20
8.531532
 40
2.000000
 50
180.000000
 51
270.000000
 0
ARC
 8
001
 62
3
 10
414.047438
 20
19.531532
 40
2.000000
 50
90.000000
 51
180.000000
 0
LINE
 8
001
 62
3
 10
412.047438
 20
19.531532
 11
412.047438
 21
8.531532
 0
LINE
 8
001
 62
3
 10
425.047438
 20
18.527715
 11
425.047438
 21
19.527715
 0
LINE
 8
001
 62
3
 10
425.047438
 20
7.527715
 11
425.047438
 21
18.527715
 0
LINE
 8
001
 6
CENTER
 10
429.305633
 20
14.029623
 11
409.485286
 21
14.029623
 0
LINE
 8
001
 62
3
 10
425.047438
 20
16.664369
 11
436.301810
 21
14.959161
 0
LINE
 8
001
 62
3
 10
436.301810
 20
13.210537
 11
425.047438
 21
11.589907
 0
LINE
 8
001
 6
CENTER
 10
432.035502
 20
46.210484
 11
410.082130
 21
46.210484
 0
LINE
 8
001
 62
3
 10
432.948333
 20
52.255250
 11
470.958287
 21
52.255250
 0
LINE
 8
001
 62
3
 10
432.948333
 20
40.165718
 11
470.958287
 21
40.165718
 0
LINE
 8
001
 6
DASHED
 10
502.599798
 20
51.460484
 11
502.599798
 21
40.960484
 0
LINE
 8
001
 6
DASHED
 10
500.349798
 20
40.960484
 11
500.349798
 21
51.460484
 0
LINE
 8
001
 6
DASHED
 10
498.099798
 20
40.960484
 11
498.099798
 21
51.460484
 0
LINE
 8
001
 6
DASHED
 10
498.099798
 20
51.460484
 11
502.599798
 21
51.460484
 0
LINE
 8
001
 6
DASHED
 10
498.099798
 20
40.960484
 11
502.599798
 21
40.960484
 0
LINE
 8
001
 6
DASHED
 10
508.599798
 20
51.460484
 11
508.599798
 21
40.960484
 0
LINE
 8
001
 6
DASHED
 10
506.349798
 20
40.960484
 11
506.349798
 21
51.460484
 0
LINE
 8
001
 6
DASHED
 10
504.099798
 20
40.960484
 11
504.099798
 21
51.460484
 0
LINE
 8
001
 6
DASHED
 10
504.099798
 20
51.460484
 11
508.599798
 21
51.460484
 0
LINE
 8
001
 6
DASHED
 10
504.099798
 20
40.960484
 11
508.599798
 21
40.960484
 0
LINE
 8
001
 6
DASHED
 10
514.599798
 20
51.460484
 11
514.599798
 21
40.960484
 0
LINE
 8
001
 6
DASHED
 10
512.349798
 20
40.960484
 11
512.349798
 21
51.460484
 0
LINE
 8
001
 6
DASHED
 10
510.099798
 20
40.960484
 11
510.099798
 21
51.460484
 0
LINE
 8
001
 6
DASHED
 10
510.099798
 20
51.460484
 11
514.599798
 21
51.460484
 0
LINE
 8
001
 6
DASHED
 10
510.099798
 20
40.960484
 11
514.599798
 21
40.960484
 0
TEXT
 8
001
 62
3
 10
541.112098
 20
-38.212395
 40
4.500000
 1
連結ベルト
 41
0.849294
 7
STANDARD
 0
LINE
 8
001
 62
3
 10
375.927767
 20
45.210484
 11
375.789578
 21
46.235358
 0
LINE
 8
001
 62
3
 10
375.792932
 20
46.210484
 11
375.927767
 21
47.210484
 0
LINE
 8
001
 62
3
 10
375.927767
 20
45.210484
 11
378.198292
 21
45.210484
 0
LINE
 8
001
 62
3
 10
375.927767
 20
47.210484
 11
378.198292
 21
47.210484
 0
ARC
 8
001
 62
3
 10
381.132572
 20
46.210484
 40
3.100000
 50
198.819063
 51
270.000000
 0
ARC
 8
001
 62
3
 10
381.132572
 20
46.210484
 40
3.100000
 50
90.000000
 51
161.180937
 0
TEXT
 8
001
 62
3
 10
543.968358
 20
-45.433213
 40
4.500000
 1
BH-B
 41
0.861595
 7
STANDARD
 0
TEXT
 8
001
 62
3
 10
576.837298
 20
-68.014942
 40
6.300000
 1
K-BH-B
 41
0.668100
 7
STANDARD
 0
TEXT
 8
001
 62
3
 10
575.401463
 20
-34.709806
 40
1.993800
 1
A
 41
0.700000
 7
STANDARD
 0
TEXT
 8
001
 62
3
 10
577.928890
 20
-34.709806
 40
1.993800
 1
P
 41
0.700000
 7
STANDARD
 0
TEXT
 8
001
 62
3
 10
580.456317
 20
-34.709806
 40
1.993800
 1
P
 41
0.700000
 7
STANDARD
 0
TEXT
 8
001
 62
3
 10
582.983744
 20
-34.709806
 40
1.993800
 1
D
 41
0.700000
 7
STANDARD
 0
TEXT
 8
001
 62
3
 10
587.453662
 20
-34.499033
 40
1.993800
 1
C
 41
0.700000
 7
STANDARD
 0
TEXT
 8
001
 62
3
 10
589.981089
 20
-34.499033
 40
1.993800
 1
H
 41
0.700000
 7
STANDARD
 0
TEXT
 8
001
 62
3
 10
592.508516
 20
-34.499033
 40
1.993800
 1
C
 41
0.700000
 7
STANDARD
 0
TEXT
 8
001
 62
3
 10
595.035943
 20
-34.499033
 40
1.993800
 1
K
 41
0.700000
 7
STANDARD
 0
TEXT
 8
001
 62
3
 10
599.732135
 20
-34.417066
 40
1.993800
 1
DESN
 41
1.216762
 7
STANDARD
 0
TEXT
 8
001
 62
3
 10
574.550898
 20
-58.169627
 40
3.190080
 1
作成日
 41
1.017226
 7
STANDARD
 0
LINE
 8
001
 62
3
 10
609.916374
 20
-52.680525
 11
609.916374
 21
-31.745625
 0
TEXT
 8
001
 62
3
 10
612.276166
 20
-34.331514
 40
1.794420
 1
D
 41
0.666667
 7
STANDARD
 0
TEXT
 8
001
 62
3
 10
615.084063
 20
-34.331514
 40
1.794420
 1
E
 41
0.666667
 7
STANDARD
 0
TEXT
 8
001
 62
3
 10
617.891960
 20
-34.331514
 40
1.794420
 1
F
 41
0.666667
 7
STANDARD
 0
TEXT
 8
001
 62
3
 10
612.276166
 20
-38.311690
 40
3.190080
 1
製図
 41
1.076369
 7
STANDARD
 0
TEXT
 8
001
 62
3
 10
519.980151
 20
-38.728987
 40
3.190080
 1
部品名
 41
0.959524
 7
STANDARD
 0
TEXT
 8
001
 62
3
 10
519.437794
 20
-55.709098
 40
2.591940
 1
１
 41
0.884615
 7
STANDARD
 0
TEXT
 8
001
 62
3
 10
523.797011
 20
-55.709098
 40
2.591940
 1
台
 41
0.884615
 7
STANDARD
 0
TEXT
 8
001
 62
3
 10
528.156227
 20
-55.709098
 40
2.591940
 1
分
 41
0.884615
 7
STANDARD
 0
TEXT
 8
001
 62
3
 10
519.437794
 20
-59.198248
 40
2.591940
 1
個
 41
0.884615
 7
STANDARD
 0
TEXT
 8
001
 62
3
 10
528.156227
 20
-59.198248
 40
2.591940
 1
数
 41
0.884615
 7
STANDARD
 0
TEXT
 8
001
 62
3
 10
522.296624
 20
-68.426826
 40
4.386360
 1
日動工業株式会社
 41
0.833333
 7
STANDARD
 0
TEXT
 8
001
 62
3
 10
520.783971
 20
-63.251045
 40
2.591940
 1
NICHIDO IND.CO.,LTD
 41
0.949051
 7
STANDARD
 0
TEXT
 8
001
 62
3
 10
542.699373
 20
-56.461684
 40
2.591940
 1
3AD
 41
1.013213
 7
STANDARD
 0
TEXT
 8
001
 62
3
 10
542.699373
 20
-59.282664
 40
2.591940
 1
三角法
 41
0.844344
 7
STANDARD
 0
TEXT
 8
001
 62
3
 10
561.566853
 20
-63.632309
 40
2.880000
 1
出図コード
 41
0.699326
 7
STANDARD
 0
TEXT
 8
001
 62
3
 10
561.566853
 20
-67.700430
 40
2.880000
 1
HM-A4
 41
0.839192
 7
STANDARD
 0
LINE
 8
001
 62
3
 10
483.404642
 20
119.352367
 11
483.404642
 21
120.352367
 0
LINE
 8
001
 62
3
 10
538.238329
 20
106.904288
 11
621.838329
 21
106.904288
 0
TEXT
 8
001
 62
3
 10
611.113329
 20
102.759288
 40
3.040000
 1
担
 41
0.859375
 7
STANDARD
 0
TEXT
 8
001
 62
3
 10
618.000828
 20
102.759288
 40
3.040000
 1
当
 41
0.859375
 7
STANDARD
 0
TEXT
 8
001
 62
3
 10
570.917552
 20
102.742125
 40
3.040000
 1
変更・追記内容
 41
1.182726
 7
STANDARD
 0
LINE
 8
001
 62
3
 10
538.238329
 20
111.409677
 11
538.238329
 21
92.054288
 0
TEXT
 8
001
 62
3
 10
542.011033
 20
97.805112
 40
2.432000
 1
1
 41
1.499999
 7
STANDARD
 0
TEXT
 8
001
 62
3
 10
542.011033
 20
92.648901
 40
2.432000
 1
2
 41
1.000000
 7
STANDARD
 0
TEXT
 8
001
 62
3
 10
551.197278
 20
103.318653
 40
3.200000
 1
日
 41
0.859375
 7
STANDARD
 0
TEXT
 8
001
 62
3
 10
560.074152
 20
103.318653
 40
3.200000
 1
付
 41
0.859375
 7
STANDARD
 0
TEXT
 8
001
 62
3
 10
551.023119
 20
107.554288
 40
3.200000
 1
図
 41
0.859375
 7
STANDARD
 0
TEXT
 8
001
 62
3
 10
569.679014
 20
107.554288
 40
3.200000
 1
面
 41
0.859375
 7
STANDARD
 0
TEXT
 8
001
 62
3
 10
588.334909
 20
107.554288
 40
3.200000
 1
略
 41
0.859375
 7
STANDARD
 0
TEXT
 8
001
 62
3
 10
606.990805
 20
107.554288
 40
3.200000
 1
歴
 41
0.859375
 7
STANDARD
 0
TEXT
 8
001
 62
3
 10
538.840692
 20
102.679288
 40
3.200000
 1
記
 41
0.859375
 7
STANDARD
 0
TEXT
 8
001
 62
3
 10
545.093600
 20
102.679288
 40
3.200000
 1
号
 41
0.859375
 7
STANDARD
 0
LINE
 8
001
 62
3
 10
612.239684
 20
92.054288
 11
538.238329
 21
92.054288
 0
LINE
 8
001
 62
3
 10
620.390020
 20
92.054288
 11
612.239684
 21
92.054288
 0
LINE
 8
001
 62
3
 10
620.390020
 20
92.054288
 11
621.838329
 21
92.054288
 0
LINE
 8
001
 62
3
 10
597.916374
 20
-52.680525
 11
597.916374
 21
-31.745625
 0
LINE
 8
001
 62
3
 10
585.916374
 20
-52.680525
 11
585.916374
 21
-31.745625
 0
LINE
 8
001
 62
3
 10
573.916374
 20
-52.680525
 11
573.916374
 21
-31.745625
 0
LINE
 8
001
 62
3
 10
585.916374
 20
-52.680525
 11
585.916374
 21
-59.658825
 0
LINE
 8
001
 62
3
 10
573.916374
 20
-52.680525
 11
573.916374
 21
-59.658825
 0
LINE
 8
001
 62
3
 10
573.916374
 20
-59.658825
 11
573.916374
 21
-68.647633
 0
LINE
 8
001
 62
3
 10
561.101354
 20
-64.178959
 11
573.916374
 21
-64.178959
 0
LINE
 8
001
 62
3
 10
561.101354
 20
-45.702225
 11
561.101354
 21
-68.647633
 0
LINE
 8
001
 62
3
 10
550.390995
 20
-45.702225
 11
550.390995
 21
-59.658825
 0
LINE
 8
001
 62
3
 10
542.412870
 20
-52.680525
 11
542.412870
 21
-59.658825
 0
LINE
 8
001
 62
3
 10
518.820218
 20
-31.745625
 11
518.820218
 21
-68.647633
 0
LINE
 8
001
 62
3
 10
531.020907
 20
-31.745625
 11
531.020907
 21
-59.658825
 0
LINE
 8
001
 62
3
 10
518.820218
 20
-31.745625
 11
621.904642
 21
-31.745625
 0
LINE
 8
001
 62
3
 10
618.924161
 20
-59.658825
 11
589.135465
 21
-59.658825
 0
LINE
 8
001
 62
3
 10
618.924161
 20
-59.658825
 11
621.904642
 21
-59.658825
 0
LINE
 8
001
 62
3
 10
571.745521
 20
-59.658825
 11
563.658886
 21
-59.658825
 0
LINE
 8
001
 62
3
 10
571.745521
 20
-59.658825
 11
589.135465
 21
-59.658825
 0
LINE
 8
001
 62
3
 10
533.389179
 20
-59.658825
 11
518.820218
 21
-59.658825
 0
LINE
 8
001
 62
3
 10
541.594652
 20
-59.658825
 11
533.389179
 21
-59.658825
 0
LINE
 8
001
 62
3
 10
541.594652
 20
-59.658825
 11
563.658886
 21
-59.658825
 0
LINE
 8
001
 62
3
 10
533.689103
 20
-52.680525
 11
518.820218
 21
-52.680525
 0
LINE
 8
001
 62
3
 10
548.464613
 20
-52.680525
 11
533.689103
 21
-52.680525
 0
LINE
 8
001
 62
3
 10
548.464613
 20
-52.680525
 11
621.904642
 21
-52.680525
 0
LINE
 8
001
 62
3
 10
536.852454
 20
-45.702225
 11
518.820218
 21
-45.702225
 0
LINE
 8
001
 62
3
 10
568.101159
 20
-45.702225
 11
573.916374
 21
-45.702225
 0
LINE
 8
001
 62
3
 10
562.991130
 20
-45.702225
 11
568.101159
 21
-45.702225
 0
LINE
 8
001
 62
3
 10
540.983486
 20
-45.702225
 11
562.991130
 21
-45.702225
 0
LINE
 8
001
 62
3
 10
540.983486
 20
-45.702225
 11
536.852454
 21
-45.702225
 0
LINE
 8
001
 62
3
 10
532.415840
 20
-38.723925
 11
518.820218
 21
-38.723925
 0
LINE
 8
001
 62
3
 10
572.656611
 20
-38.723925
 11
621.904642
 21
-38.723925
 0
LINE
 8
001
 62
3
 10
568.706666
 20
-38.723925
 11
572.656611
 21
-38.723925
 0
LINE
 8
001
 62
3
 10
535.760278
 20
-38.723925
 11
532.415840
 21
-38.723925
 0
LINE
 8
001
 62
3
 10
539.223553
 20
-38.723925
 11
535.760278
 21
-38.723925
 0
LINE
 8
001
 62
3
 10
566.154481
 20
-38.723925
 11
539.223553
 21
-38.723925
 0
LINE
 8
001
 62
3
 10
566.154481
 20
-38.723925
 11
568.706666
 21
-38.723925
 0
TEXT
 8
001
 62
3
 10
563.658886
 20
-59.658825
 40
3.200000
 1
1/1
 41
1.072092
 7
STANDARD
 0
TEXT
 8
001
 62
3
 10
562.740836
 20
-49.420787
 40
3.200000
 1
耐候性
 41
0.833333
 7
STANDARD
 0
TEXT
 8
001
 62
3
 10
561.191755
 20
-52.836384
 40
3.200000
 1
グレード
 41
0.833333
 7
STANDARD
 0
LINE
 8
001
 10
543.056033
 20
101.215043
 11
541.156033
 21
97.924146
 0
LINE
 8
001
 10
543.056033
 20
101.215043
 11
544.956033
 21
97.924146
 0
LINE
 8
001
 10
541.156033
 20
97.924146
 11
544.956033
 21
97.924146
 0
LINE
 8
001
 10
543.056033
 20
96.058832
 11
541.156033
 21
92.767936
 0
LINE
 8
001
 10
543.056033
 20
96.058832
 11
544.956033
 21
92.767936
 0
LINE
 8
001
 10
541.156033
 20
92.767936
 11
544.956033
 21
92.767936
 0
TEXT
 8
001
 62
3
 10
588.254792
 20
-59.323402
 40
3.200000
 1
2005.6.2
 41
1.524739
 7
STANDARD
 0
LINE
 8
001
 62
3
 10
412.034317
 20
49.315443
 11
417.034317
 21
49.315443
 0
LINE
 8
001
 62
3
 10
417.034317
 20
48.715443
 11
417.034317
 21
43.715443
 0
LINE
 8
001
 62
3
 10
417.034317
 20
51.415443
 11
421.234317
 21
51.415443
 0
LINE
 8
001
 62
3
 10
421.234317
 20
51.415443
 11
421.234317
 21
41.015443
 0
LINE
 8
001
 62
3
 10
417.034317
 20
51.415443
 11
417.034317
 21
48.715443
 0
LINE
 8
001
 62
3
 10
417.034317
 20
41.015443
 11
421.234317
 21
41.015443
 0
LINE
 8
001
 62
3
 10
417.034317
 20
43.715443
 11
417.034317
 21
41.015443
 0
LINE
 8
001
 62
3
 10
412.034317
 20
43.115443
 11
417.034317
 21
43.115443
 0
LINE
 8
001
 6
CENTER
 10
551.568230
 20
46.210484
 11
582.677357
 21
46.210484
 0
LINE
 8
001
 62
3
 10
551.949017
 20
53.740334
 11
483.287227
 21
53.740334
 0
LINE
 8
001
 62
3
 10
551.949017
 20
38.650801
 11
482.804880
 21
38.650801
 0
LINE
 8
001
 62
3
 10
560.970829
 20
14.943583
 11
516.306632
 21
14.943583
 0
LINE
 8
001
 62
3
 10
560.970829
 20
13.443583
 11
516.437451
 21
13.443583
 0
ARC
 8
001
 62
2
 10
545.734637
 20
46.270957
 40
1.954384
 50
296.448056
 51
63.551944
 0
ARC
 8
001
 62
2
 10
541.245014
 20
37.245686
 40
11.635073
 50
63.551944
 51
81.838225
 0
ARC
 8
001
 62
2
 10
533.016216
 20
-20.129333
 40
69.996780
 50
81.838225
 51
99.174487
 0
ARC
 8
001
 62
2
 10
541.245014
 20
37.245686
 40
12.034673
 50
63.551944
 51
81.838225
 0
ARC
 8
001
 62
2
 10
532.997482
 20
-20.329095
 40
69.796915
 50
81.736062
 51
99.053763
 0
ARC
 8
001
 62
2
 10
545.734637
 20
46.270957
 40
1.554784
 50
296.448056
 51
63.551944
 0
ARC
 8
001
 62
2
 10
541.245014
 20
55.296228
 40
12.034673
 50
278.161775
 51
296.448056
 0
ARC
 8
001
 62
2
 10
532.997482
 20
112.871009
 40
69.796915
 50
260.946237
 51
278.263938
 0
ARC
 8
001
 62
2
 10
541.245014
 20
55.296228
 40
11.635073
 50
278.161775
 51
296.448056
 0
ARC
 8
001
 62
2
 10
533.016216
 20
112.671247
 40
69.996780
 50
260.825513
 51
278.161775
 0
ARC
 8
001
 62
2
 10
524.562627
 20
55.296228
 40
12.034673
 50
243.551944
 51
257.001965
 0
ARC
 8
001
 62
2
 10
524.562627
 20
55.296228
 40
11.635073
 50
243.551944
 51
257.347733
 0
ARC
 8
001
 62
2
 10
520.073004
 20
46.270957
 40
1.554784
 50
116.448056
 51
243.551944
 0
ARC
 8
001
 62
2
 10
520.073004
 20
46.270957
 40
1.954384
 50
116.448056
 51
243.551944
 0
ARC
 8
001
 62
2
 10
524.562627
 20
37.245686
 40
11.635073
 50
102.652267
 51
116.448056
 0
ARC
 8
001
 62
2
 10
524.562627
 20
37.245686
 40
12.034673
 50
102.998035
 51
116.448056
 0
LINE
 8
001
 62
2
 10
535.987201
 20
47.699683
 11
535.807746
 21
47.699683
 0
ARC
 8
001
 62
2
 10
535.987201
 20
47.464597
 40
0.235086
 50
0.000000
 51
90.000000
 0
LINE
 8
001
 62
2
 10
536.222288
 20
47.464597
 11
536.222288
 21
44.977347
 0
LINE
 8
001
 62
2
 10
537.963003
 20
44.245170
 11
535.807746
 21
44.245170
 0
LINE
 8
001
 62
2
 10
537.963003
 20
44.742261
 11
537.963003
 21
44.245170
 0
LINE
 8
001
 62
2
 10
537.783548
 20
44.742261
 11
537.963003
 21
44.742261
 0
ARC
 8
001
 62
2
 10
537.783548
 20
44.977347
 40
0.235086
 50
180.000000
 51
270.000000
 0
LINE
 8
001
 62
2
 10
535.371165
 20
48.196680
 11
533.354088
 21
48.196680
 0
LINE
 8
001
 62
2
 10
535.371165
 20
48.196680
 11
535.371165
 21
47.696301
 0
LINE
 8
001
 62
2
 10
535.221618
 20
47.696301
 11
535.371165
 21
47.696301
 0
ARC
 8
001
 62
2
 10
535.260800
 20
47.464503
 40
0.235086
 50
99.594068
 51
180.000000
 0
LINE
 8
001
 62
2
 10
535.025713
 20
47.464503
 11
535.025713
 21
44.977254
 0
ARC
 8
001
 62
2
 10
535.260800
 20
44.977254
 40
0.235086
 50
180.000000
 51
260.405932
 0
LINE
 8
001
 62
2
 10
535.221618
 20
44.745455
 11
535.371165
 21
44.745455
 0
LINE
 8
001
 62
2
 10
535.371165
 20
44.745455
 11
535.371165
 21
44.245076
 0
LINE
 8
001
 62
2
 10
535.371165
 20
44.245076
 11
533.354088
 21
44.245076
 0
ARC
 8
001
 62
2
 10
537.783548
 20
47.464597
 40
0.235086
 50
90.000000
 51
180.000000
 0
LINE
 8
001
 62
2
 10
537.548462
 20
47.464597
 11
537.548462
 21
44.977347
 0
LINE
 8
001
 62
2
 10
537.963003
 20
48.196774
 11
537.963003
 21
47.699683
 0
LINE
 8
001
 62
2
 10
537.783548
 20
47.699683
 11
537.963003
 21
47.699683
 0
LINE
 8
001
 62
2
 10
537.963003
 20
48.196774
 11
535.807746
 21
48.196774
 0
LINE
 8
001
 62
2
 10
535.807746
 20
48.196774
 11
535.807746
 21
47.699683
 0
LINE
 8
001
 62
2
 10
538.366669
 20
44.742261
 11
538.366669
 21
44.245170
 0
ARC
 8
001
 62
2
 10
538.546125
 20
44.977347
 40
0.235086
 50
270.000000
 51
0.000000
 0
LINE
 8
001
 62
2
 10
538.546125
 20
44.742261
 11
538.366669
 21
44.742261
 0
LINE
 8
001
 62
2
 10
540.693917
 20
44.245170
 11
538.366669
 21
44.245170
 0
LINE
 8
001
 62
2
 10
538.781211
 20
47.464597
 11
538.781211
 21
44.977347
 0
LINE
 8
001
 62
2
 10
540.107385
 20
47.561503
 11
540.107385
 21
44.880442
 0
LINE
 8
001
 62
2
 10
540.107385
 20
44.880442
 11
540.288185
 21
44.880442
 0
ARC
 8
001
 62
2
 10
539.363693
 20
46.220972
 40
1.628407
 50
304.591955
 51
55.408045
 0
ARC
 8
001
 62
2
 10
540.693917
 20
45.806431
 40
1.561260
 50
270.000000
 51
342.691251
 0
ARC
 8
001
 62
2
 10
540.693917
 20
46.635514
 40
1.561260
 50
17.308749
 51
90.000000
 0
LINE
 8
001
 62
2
 10
540.693917
 20
48.196774
 11
538.366669
 21
48.196774
 0
LINE
 8
001
 62
2
 10
538.366669
 20
48.196774
 11
538.366669
 21
47.699683
 0
LINE
 8
001
 62
2
 10
538.546125
 20
47.699683
 11
538.366669
 21
47.699683
 0
ARC
 8
001
 62
2
 10
538.546125
 20
47.464597
 40
0.235086
 50
0.000000
 51
90.000000
 0
ARC
 8
001
 62
2
 10
535.987201
 20
44.977347
 40
0.235086
 50
270.000000
 51
0.000000
 0
LINE
 8
001
 62
2
 10
535.987201
 20
44.742261
 11
535.807746
 21
44.742261
 0
LINE
 8
001
 62
2
 10
535.807746
 20
44.742261
 11
535.807746
 21
44.245170
 0
LINE
 8
001
 62
2
 10
540.107385
 20
47.561503
 11
540.288185
 21
47.561503
 0
ARC
 8
001
 62
2
 10
539.363693
 20
46.220972
 40
2.954581
 50
342.691251
 51
17.308566
 0
ARC
 8
001
 62
2
 10
539.808095
 20
46.472384
 40
2.802941
 50
333.675284
 51
19.690635
 0
ARC
 8
001
 62
2
 10
546.202780
 20
46.190473
 40
2.621769
 50
149.334413
 51
209.361467
 0
ARC
 8
001
 62
2
 10
544.025249
 20
46.227966
 40
1.975802
 50
210.357840
 51
143.008079
 0
ARC
 8
001
 62
2
 10
541.847718
 20
46.190471
 40
2.621769
 50
330.372273
 51
30.840525
 0
ARC
 8
001
 62
2
 10
544.026525
 20
47.458074
 40
0.105179
 50
46.621771
 51
138.589269
 0
ARC
 8
001
 62
2
 10
544.026525
 20
44.983870
 40
0.134340
 50
215.965123
 51
318.221816
 0
LINE
 8
001
 62
2
 10
527.058245
 20
47.464585
 11
527.058201
 21
44.977336
 0
LINE
 8
001
 62
2
 10
527.293284
 20
44.742245
 11
527.472739
 21
44.742242
 0
ARC
 8
001
 62
2
 10
527.293288
 20
44.977332
 40
0.235086
 50
179.999000
 51
269.999000
 0
LINE
 8
001
 62
2
 10
527.472739
 20
44.742242
 11
527.472730
 21
44.245151
 0
LINE
 8
001
 62
2
 10
525.317473
 20
44.245189
 11
527.472730
 21
44.245151
 0
LINE
 8
001
 62
2
 10
522.160166
 20
46.562512
 11
522.160166
 21
44.977347
 0
ARC
 8
001
 62
2
 10
522.395253
 20
44.977347
 40
0.235086
 50
180.000000
 51
270.000000
 0
LINE
 8
001
 62
2
 10
521.110353
 20
44.245170
 11
522.574708
 21
44.245170
 0
ARC
 8
001
 62
2
 10
529.424598
 20
46.220972
 40
1.975802
 50
46.752880
 51
312.823120
 0
ARC
 8
001
 62
2
 10
516.850257
 20
46.267499
 40
13.997507
 50
353.866006
 51
357.694034
 0
LINE
 8
001
 62
2
 10
529.899298
 20
45.707765
 11
530.836429
 21
45.704297
 0
POLYLINE
 8
001
 62
2
 66
1
 0
VERTEX
 8
001
 62
2
 10
529.903083
 20
46.730653
 0
VERTEX
 8
001
 62
2
 10
529.885362
 20
46.844116
 0
VERTEX
 8
001
 62
2
 10
529.864079
 20
46.952763
 0
VERTEX
 8
001
 62
2
 10
529.839400
 20
47.055753
 0
VERTEX
 8
001
 62
2
 10
529.811514
 20
47.152291
 0
VERTEX
 8
001
 62
2
 10
529.780638
 20
47.241631
 0
VERTEX
 8
001
 62
2
 10
529.747009
 20
47.323081
 0
VERTEX
 8
001
 62
2
 10
529.710889
 20
47.396012
 0
VERTEX
 8
001
 62
2
 10
529.672556
 20
47.459862
 0
VERTEX
 8
001
 62
2
 10
529.632306
 20
47.514135
 0
VERTEX
 8
001
 62
2
 10
529.590451
 20
47.558412
 0
VERTEX
 8
001
 62
2
 10
529.547313
 20
47.592352
 0
VERTEX
 8
001
 62
2
 10
529.503228
 20
47.615692
 0
VERTEX
 8
001
 62
2
 10
529.458534
 20
47.628251
 0
VERTEX
 8
001
 62
2
 10
529.413578
 20
47.629933
 0
VERTEX
 8
001
 62
2
 10
529.368707
 20
47.620724
 0
VERTEX
 8
001
 62
2
 10
529.324269
 20
47.600696
 0
VERTEX
 8
001
 62
2
 10
529.280605
 20
47.570004
 0
VERTEX
 8
001
 62
2
 10
529.238055
 20
47.528884
 0
VERTEX
 8
001
 62
2
 10
529.196947
 20
47.477654
 0
VERTEX
 8
001
 62
2
 10
529.157598
 20
47.416711
 0
VERTEX
 8
001
 62
2
 10
529.120313
 20
47.346526
 0
VERTEX
 8
001
 62
2
 10
529.085380
 20
47.267640
 0
VERTEX
 8
001
 62
2
 10
529.053069
 20
47.180665
 0
VERTEX
 8
001
 62
2
 10
529.023630
 20
47.086271
 0
VERTEX
 8
001
 62
2
 10
528.997290
 20
46.985190
 0
VERTEX
 8
001
 62
2
 10
528.974253
 20
46.878201
 0
VERTEX
 8
001
 62
2
 10
528.954696
 20
46.766132
 0
VERTEX
 8
001
 62
2
 10
528.938772
 20
46.649849
 0
VERTEX
 8
001
 62
2
 10
528.926603
 20
46.530252
 0
VERTEX
 8
001
 62
2
 10
528.918284
 20
46.408263
 0
VERTEX
 8
001
 62
2
 10
528.913877
 20
46.284827
 0
VERTEX
 8
001
 62
2
 10
528.913419
 20
46.160898
 0
VERTEX
 8
001
 62
2
 10
528.916911
 20
46.037433
 0
VERTEX
 8
001
 62
2
 10
528.924328
 20
45.915386
 0
VERTEX
 8
001
 62
2
 10
528.935612
 20
45.795702
 0
VERTEX
 8
001
 62
2
 10
528.950675
 20
45.679305
 0
VERTEX
 8
001
 62
2
 10
528.969401
 20
45.567094
 0
VERTEX
 8
001
 62
2
 10
528.991646
 20
45.459938
 0
VERTEX
 8
001
 62
2
 10
529.017237
 20
45.358664
 0
VERTEX
 8
001
 62
2
 10
529.045977
 20
45.264055
 0
VERTEX
 8
001
 62
2
 10
529.077644
 20
45.176843
 0
VERTEX
 8
001
 62
2
 10
529.111992
 20
45.097701
 0
VERTEX
 8
001
 62
2
 10
529.148757
 20
45.027242
 0
VERTEX
 8
001
 62
2
 10
529.187653
 20
44.966009
 0
VERTEX
 8
001
 62
2
 10
529.228382
 20
44.914477
 0
VERTEX
 8
001
 62
2
 10
529.270626
 20
44.873043
 0
VERTEX
 8
001
 62
2
 10
529.314061
 20
44.842028
 0
VERTEX
 8
001
 62
2
 10
529.358351
 20
44.821672
 0
VERTEX
 8
001
 62
2
 10
529.403152
 20
44.812131
 0
VERTEX
 8
001
 62
2
 10
529.448119
 20
44.813480
 0
VERTEX
 8
001
 62
2
 10
529.492904
 20
44.825709
 0
VERTEX
 8
001
 62
2
 10
529.537162
 20
44.848722
 0
VERTEX
 8
001
 62
2
 10
529.580549
 20
44.882341
 0
VERTEX
 8
001
 62
2
 10
529.622731
 20
44.926308
 0
VERTEX
 8
001
 62
2
 10
529.663381
 20
44.980282
 0
VERTEX
 8
001
 62
2
 10
529.702186
 20
45.043845
 0
VERTEX
 8
001
 62
2
 10
529.738845
 20
45.116508
 0
VERTEX
 8
001
 62
2
 10
529.773075
 20
45.197707
 0
VERTEX
 8
001
 62
2
 10
529.804612
 20
45.286815
 0
VERTEX
 8
001
 62
2
 10
529.833211
 20
45.383144
 0
VERTEX
 8
001
 62
2
 10
529.858652
 20
45.485949
 0
VERTEX
 8
001
 62
2
 10
529.880738
 20
45.594436
 0
VERTEX
 8
001
 62
2
 10
529.899298
 20
45.707765
 0
SEQEND
 8
001
 0
LINE
 8
001
 62
2
 10
529.903083
 20
46.730653
 11
530.840213
 21
46.727185
 0
ARC
 8
001
 62
2
 10
516.850257
 20
46.267499
 40
13.997507
 50
1.881966
 51
5.709994
 0
ARC
 8
001
 62
2
 10
527.293331
 20
47.464581
 40
0.235086
 50
89.999028
 51
179.999000
 0
LINE
 8
001
 62
2
 10
527.472799
 20
48.196755
 11
527.472790
 21
47.699664
 0
LINE
 8
001
 62
2
 10
525.317542
 20
48.196793
 11
527.472799
 21
48.196755
 0
LINE
 8
001
 62
2
 10
527.293335
 20
47.699667
 11
527.472790
 21
47.699664
 0
ARC
 8
001
 62
2
 10
525.496967
 20
47.464600
 40
0.235086
 50
359.999803
 51
89.999774
 0
LINE
 8
001
 62
2
 10
525.732053
 20
47.464599
 11
525.732045
 21
44.977350
 0
ARC
 8
001
 62
2
 10
525.496941
 20
44.977363
 40
0.235086
 50
269.999000
 51
359.999000
 0
LINE
 8
001
 62
2
 10
525.317482
 20
44.742280
 11
525.317473
 21
44.245189
 0
LINE
 8
001
 62
2
 10
525.496937
 20
44.742277
 11
525.317482
 21
44.742280
 0
LINE
 8
001
 62
2
 10
525.317542
 20
48.196793
 11
525.317533
 21
47.699702
 0
LINE
 8
001
 62
2
 10
525.496988
 20
47.699699
 11
525.317533
 21
47.699702
 0
LINE
 8
001
 62
2
 10
522.574708
 20
44.742261
 11
522.574708
 21
44.245170
 0
LINE
 8
001
 62
2
 10
522.395253
 20
44.742261
 11
522.574708
 21
44.742261
 0
LINE
 8
001
 62
2
 10
522.160166
 20
46.562512
 11
523.608505
 21
44.245170
 0
LINE
 8
001
 62
2
 10
523.608505
 20
44.245170
 11
524.578325
 21
44.245170
 0
LINE
 8
001
 62
2
 10
524.578325
 20
47.326416
 11
524.578325
 21
44.245170
 0
ARC
 8
001
 62
2
 10
524.951592
 20
47.326416
 40
0.373267
 50
83.651426
 51
180.000000
 0
LINE
 8
001
 62
2
 10
524.992867
 20
48.196774
 11
524.992867
 21
47.697394
 0
LINE
 8
001
 62
2
 10
523.528512
 20
48.196774
 11
524.992867
 21
48.196774
 0
LINE
 8
001
 62
2
 10
523.528512
 20
48.196774
 11
523.528512
 21
47.699683
 0
LINE
 8
001
 62
2
 10
523.528512
 20
47.699683
 11
523.707967
 21
47.699683
 0
ARC
 8
001
 62
2
 10
523.707967
 20
47.464597
 40
0.235086
 50
0.000000
 51
90.000000
 0
LINE
 8
001
 62
2
 10
523.943054
 20
46.406967
 11
523.943054
 21
47.464597
 0
LINE
 8
001
 62
2
 10
523.943054
 20
46.406967
 11
522.768493
 21
48.196774
 0
LINE
 8
001
 62
2
 10
521.110353
 20
48.196774
 11
522.768493
 21
48.196774
 0
LINE
 8
001
 62
2
 10
531.488651
 20
44.977254
 11
531.488651
 21
47.464503
 0
LINE
 8
001
 62
2
 10
531.143200
 20
48.196680
 11
533.160276
 21
48.196680
 0
ARC
 8
001
 62
2
 10
531.322655
 20
47.464503
 40
0.165996
 50
0.000000
 51
90.000000
 0
LINE
 8
001
 62
2
 10
531.322655
 20
47.630499
 11
531.143200
 21
47.630499
 0
LINE
 8
001
 62
2
 10
531.143200
 20
47.630499
 11
531.143200
 21
48.196680
 0
ARC
 8
001
 62
2
 10
531.322655
 20
44.977254
 40
0.165996
 50
270.000000
 51
0.000000
 0
LINE
 8
001
 62
2
 10
531.322655
 20
44.811257
 11
531.143200
 21
44.811257
 0
LINE
 8
001
 62
2
 10
531.143200
 20
44.245076
 11
531.143200
 21
44.811257
 0
LINE
 8
001
 62
2
 10
531.143200
 20
44.245076
 11
533.160276
 21
44.245076
 0
ARC
 8
001
 62
2
 10
533.464453
 20
47.464503
 40
0.235086
 50
0.000000
 51
80.405932
 0
LINE
 8
001
 62
2
 10
533.503634
 20
47.696301
 11
533.354088
 21
47.696301
 0
LINE
 8
001
 62
2
 10
533.699539
 20
46.538514
 11
533.699539
 21
47.464503
 0
LINE
 8
001
 62
2
 10
533.699539
 20
46.538514
 11
532.814825
 21
46.538514
 0
LINE
 8
001
 62
2
 10
533.699539
 20
45.903242
 11
532.814825
 21
45.903242
 0
LINE
 8
001
 62
2
 10
533.699539
 20
44.977254
 11
533.699539
 21
45.903242
 0
ARC
 8
001
 62
2
 10
533.464453
 20
44.977254
 40
0.235086
 50
279.594068
 51
0.000000
 0
LINE
 8
001
 62
2
 10
533.503634
 20
44.745455
 11
533.354088
 21
44.745455
 0
LINE
 8
001
 62
2
 10
533.354088
 20
44.745455
 11
533.354088
 21
44.245076
 0
LINE
 8
001
 62
2
 10
533.160276
 20
44.745455
 11
533.160276
 21
44.245076
 0
LINE
 8
001
 62
2
 10
533.010730
 20
44.745455
 11
533.160276
 21
44.745455
 0
ARC
 8
001
 62
2
 10
533.049911
 20
44.977254
 40
0.235086
 50
180.000000
 51
260.405932
 0
LINE
 8
001
 62
2
 10
532.814825
 20
44.977254
 11
532.814825
 21
45.903242
 0
LINE
 8
001
 62
2
 10
532.814825
 20
46.538514
 11
532.814825
 21
47.464503
 0
ARC
 8
001
 62
2
 10
533.049911
 20
47.464503
 40
0.235086
 50
99.594068
 51
180.000000
 0
LINE
 8
001
 62
2
 10
533.010730
 20
47.696301
 11
533.160276
 21
47.696301
 0
LINE
 8
001
 62
2
 10
533.160276
 20
47.696301
 11
533.160276
 21
48.196680
 0
LINE
 8
001
 62
2
 10
533.354088
 20
47.696301
 11
533.354088
 21
48.196680
 0
LINE
 8
001
 62
2
 10
521.110353
 20
44.742261
 11
521.110353
 21
44.245170
 0
LINE
 8
001
 62
2
 10
521.524895
 20
47.464597
 11
521.524895
 21
44.977347
 0
ARC
 8
001
 62
2
 10
521.289808
 20
44.977347
 40
0.235086
 50
270.000000
 51
360.000000
 0
LINE
 8
001
 62
2
 10
521.289808
 20
44.742261
 11
521.110353
 21
44.742261
 0
ARC
 8
001
 62
2
 10
521.289808
 20
47.464597
 40
0.235086
 50
0.000000
 51
90.000000
 0
LINE
 8
001
 62
2
 10
521.110353
 20
48.196774
 11
521.110353
 21
47.699683
 0
LINE
 8
001
 62
2
 10
521.289808
 20
47.699683
 11
521.110353
 21
47.699683
 0
LINE
 8
001
 62
3
 10
344.904642
 20
111.352367
 11
621.904642
 21
111.352367
 0
TEXT
 8
001
 62
3
 10
519.617300
 20
-34.831156
 40
1.993800
 1
CONPONENTS
 41
0.533160
 7
STANDARD
 0
TEXT
 8
001
 62
3
 10
519.815104
 20
-52.529782
 40
2.990700
 1
材
 41
0.833333
 7
STANDARD
 0
TEXT
 8
001
 62
3
 10
527.327386
 20
-52.529782
 40
2.990700
 1
質
 41
0.833333
 7
STANDARD
 0
TEXT
 8
001
 62
3
 10
520.027804
 20
-41.852323
 40
1.993800
 1
MODEL
 41
1.031073
 7
STANDARD
 0
TEXT
 8
001
 62
3
 10
519.815104
 20
-48.858889
 40
1.993800
 1
MATERIAL
 41
0.659278
 7
STANDARD
 0
TEXT
 8
001
 62
3
 10
551.092766
 20
-52.766395
 40
2.990700
 1
備
 41
0.833333
 7
STANDARD
 0
TEXT
 8
001
 62
3
 10
557.804896
 20
-52.766395
 40
2.990700
 1
考
 41
0.833333
 7
STANDARD
 0
TEXT
 8
001
 62
3
 10
550.846523
 20
-49.095502
 40
1.993800
 1
REMARKS
 41
0.675794
 7
STANDARD
 0
TEXT
 8
001
 62
3
 10
551.358984
 20
-55.968010
 40
1.993800
 1
SCALE
 41
0.771963
 7
STANDARD
 0
TEXT
 8
001
 62
3
 10
551.222613
 20
-59.457160
 40
2.990700
 1
尺
 41
0.833333
 7
STANDARD
 0
TEXT
 8
001
 62
3
 10
557.934743
 20
-59.457160
 40
2.990700
 1
度
 41
0.833333
 7
STANDARD
 0
TEXT
 8
001
 62
3
 10
576.266121
 20
-38.445576
 40
2.990700
 1
承認
 41
1.089473
 7
STANDARD
 0
TEXT
 8
001
 62
3
 10
588.585826
 20
-38.292354
 40
2.990700
 1
検図
 41
0.931761
 7
STANDARD
 0
TEXT
 8
001
 62
3
 10
600.585737
 20
-38.210387
 40
2.990700
 1
設
 41
0.833333
 7
STANDARD
 0
TEXT
 8
001
 62
3
 10
605.061686
 20
-38.210387
 40
2.990700
 1
計
 41
0.833333
 7
STANDARD
 0
TEXT
 8
001
 62
3
 10
520.027804
 20
-45.702225
 40
2.990700
 1
品
 41
0.833333
 7
STANDARD
 0
TEXT
 8
001
 62
3
 10
527.552496
 20
-45.702225
 40
2.990700
 1
番
 41
0.833333
 7
STANDARD
 0
LINE
 8
001
 62
3
 10
575.027710
 20
-68.647633
 11
344.904642
 21
-68.647633
 0
LINE
 8
001
 62
3
 10
620.503007
 20
-68.647633
 11
621.904642
 21
-68.647633
 0
LINE
 8
001
 62
3
 10
618.312995
 20
-68.647633
 11
620.503007
 21
-68.647633
 0
LINE
 8
001
 62
3
 10
576.974388
 20
-68.647633
 11
618.312995
 21
-68.647633
 0
LINE
 8
001
 62
3
 10
576.974388
 20
-68.647633
 11
575.027710
 21
-68.647633
 0
LINE
 8
001
 62
3
 10
621.904642
 20
-68.647633
 11
621.904642
 21
111.352367
 0
LINE
 8
001
 62
3
 10
344.904642
 20
111.352367
 11
344.904642
 21
-68.647633
 0
LINE
 8
001
 10
548.343762
 20
106.904288
 11
548.343762
 21
92.054288
 0
LINE
 8
001
 10
611.904922
 20
97.004288
 11
538.238329
 21
97.004288
 0
LINE
 8
001
 10
620.153455
 20
97.004288
 11
611.904922
 21
97.004288
 0
LINE
 8
001
 10
620.153455
 20
97.004288
 11
621.838329
 21
97.004288
 0
LINE
 8
001
 10
610.240804
 20
106.904288
 11
610.240804
 21
92.054288
 0
LINE
 8
001
 10
565.949088
 20
106.904288
 11
565.949088
 21
92.054288
 0
LINE
 8
001
 10
538.238329
 20
101.954288
 11
621.838329
 21
101.954288
 0
LINE
 8
001
 62
3
 10
621.804606
 20
-25.745625
 11
570.105243
 21
-25.745625
 0
LINE
 8
001
 62
3
 10
596.105243
 20
-31.745625
 11
596.105243
 21
-25.745625
 0
LINE
 8
001
 62
3
 10
570.105243
 20
-31.745625
 11
570.105243
 21
-25.745625
 0
TEXT
 8
001
 62
3
 10
571.254756
 20
-31.189540
 40
4.500000
 1
コード
 41
0.833333
 7
STANDARD
 0
TEXT
 8
001
 10
597.498033
 20
-31.247269
 40
4.500000
 1
29619
 41
1.071428
 7
STANDARD
 0
TEXT
 8
001
 62
3
 10
533.689103
 20
-52.680525
 40
3.200000
 1
PA6
 41
1.252657
 7
STANDARD
 0
LINE
 8
001
 62
3
 10
423.034317
 20
53.715443
 11
481.268224
 21
53.715443
 0
LINE
 8
001
 62
3
 10
423.034317
 20
38.715443
 11
480.741798
 21
38.715443
 0
LINE
 8
001
 62
3
 10
425.047438
 20
14.942130
 11
481.397811
 21
14.942130
 0
LINE
 8
001
 62
3
 10
425.047438
 20
13.417740
 11
481.334220
 21
13.417740
 0
ENDSEC
 0
EOF
